  0
SECTION
  2
HEADER
  9
$ACADVER
  1
AC1004
  9
$ANGBASE
 50
0.0000000000
  9
$ANGDIR
 70
     0
  9
$ATTDIA
 70
     0
  9
$ATTMODE
 70
     1
  9
$ATTREQ
 70
     1
  9
$AUNITS
 70
     0
  9
$AUPREC
 70
     0
  9
$AXISMODE
 70
     0
  9
$AXISUNIT
 10
0.0000000000
 20
0.0000000000
  9
$BLIPMODE
 70
     1
  9
$CECOLOR
 62
   256
  9
$CELTYPE
  6
BYLAYER
  9
$CHAMFERA
 40
0.0000000000
  9
$CHAMFERB
 40
0.0000000000
  9
$CLAYER
  8
0
  9
$COORDS
 70
     0
  9
$DIMALT
 70
     0
  9
$DIMALTD
 70
     2
  9
$DIMALTF
 40
25.4000000000
  9
$DIMAPOST
  1

  9
$DIMASO
 70
     1
  9
$DIMASZ
 40
3.4999999938
  9
$DIMBLK
  1

  9
$DIMBLK1
  1

  9
$DIMBLK2
  1

  9
$DIMCEN
 40
9.0000000000E-02
  9
$DIMDLE
 40
0.0000000000
  9
$DIMDLI
 40
0.3800000000
  9
$DIMEXE
 40
3.8099999428
  9
$DIMEXO
 40
2.5399999619
  9
$DIMLFAC
 40
1.0000000000
  9
$DIMLIM
 70
     0
  9
$DIMPOST
  1

  9
$DIMRND
 40
0.0000000000
  9
$DIMSCALE
 40
1.0000000000
  9
$DIMSE1
 70
     0
  9
$DIMSE2
 70
     0
  9
$DIMSHO
 70
     0
  9
$DIMTAD
 70
     0
  9
$DIMTIH
 70
     0
  9
$DIMTM
 40
0.0000000000
  9
$DIMTOH
 70
     1
  9
$DIMTOL
 70
     0
  9
$DIMTP
 40
0.0000000000
  9
$DIMTSZ
 40
0.0000000000
  9
$DIMTXT
 40
2.4999949932
  9
$DIMZIN
 70
     0
  9
$DRAGMODE
 70
     1
  9
$ELEVATION
 40
0.0000000000
  9
$EXTMAX
 10
205.8818786621
 20
345.9093750000
 30
0.0000000000
  9
$EXTMIN
 10
-269.9358337402
 20
-318.7235229492
 30
0.0000000000
  9
$FASTZOOM
 70
     1
  9
$FILLETRAD
 40
6.2500000000E-02
  9
$FILLMODE
 70
     0
  9
$GRIDMODE
 70
     0
  9
$GRIDUNIT
 10
0.0000000000
 20
0.0000000000
  9
$INSBASE
 10
0.0000000000
 20
0.0000000000
 30
0.0000000000
  9
$LIMCHECK
 70
     0
  9
$LIMMAX
 10
205.8818786621
 20
345.9093750000
  9
$LIMMIN
 10
-269.9358337402
 20
-318.7235229492
  9
$LTSCALE
 40
1.0000000000
  9
$LUNITS
 70
     2
  9
$LUPREC
 70
     3
  9
$MENU
  1
ACAD
  9
$MIRRTEXT
 70
     0
  9
$ORTHOMODE
 70
     0
  9
$OSMODE
 70
     0
  9
$PDMODE
 70
     0
  9
$PDSIZE
 40
0.0000000000
  9
$PLINEWID
 40
0.0000000000
  9
$QTEXTMODE
 70
     0
  9
$REGENMODE
 70
     1
  9
$SKETCHINC
 40
0.1000000000
  9
$SKPOLY
 70
     0
  9
$SNAPANG
 50
0.0000000000
  9
$SNAPBASE
 10
0.0000000000
 20
0.0000000000
  9
$SNAPISOPAIR
 70
     0
  9
$SNAPMODE
 70
     0
  9
$SNAPSTYLE
 70
     0
  9
$SNAPUNIT
 10
1.0000000000
 20
1.0000000000
  9
$SPLFRAME
 70
     0
  9
$SPLINESEGS
 70
     8
  9
$TDCREATE
 40
2452755.5315856530
  9
$TDINDWG
 40
0.0000000000
  9
$TDUPDATE
 40
2452755.5315856530
  9
$TDUSRTIMER
 40
0.0000000000
  9
$TEXTSIZE
 40
2.4999949932
  9
$TEXTSTYLE
  7
STANDARD
  9
$THICKNESS
 40
0.0000000000
  9
$TRACEWID
 40
5.0000000000E-02
  9
$USERI1
 70
     0
  9
$USERI2
 70
     0
  9
$USERI3
 70
     0
  9
$USERI4
 70
     0
  9
$USERI5
 70
     0
  9
$USERR1
 40
0.0000000000
  9
$USERR2
 40
0.0000000000
  9
$USERR3
 40
0.0000000000
  9
$USERR4
 40
0.0000000000
  9
$USERR5
 40
0.0000000000
  9
$USRTIMER
 70
     1
  9
$VIEWCTR
 10
-32.0269775391
 20
13.5929260254
  9
$VIEWDIR
 10
0.0000000000
 20
0.0000000000
 30
1.0000000000
  9
$VIEWSIZE
 40
664.6328979492
  0
ENDSEC
  0
SECTION
  2
TABLES
  0
TABLE
  2
LTYPE
 70
     3
  0
LTYPE
  2
SOLID
  3
Solid
 70
    64
 72
    65
 73
     0
 40
0.0000000000
  0
LTYPE
  2
CENTERLINE
  3
Centerline
 70
    64
 72
    65
 73
     4
 40
25.4000000000
 49
19.0500000000
 49
-1.5875000000
 49
3.1750000000
 49
-1.5875000000
  0
LTYPE
  2
GAP
  3
Gap
 70
    64
 72
    65
 73
     3
 40
2541.5239999659
 49
0.0000000000
 49
-1.5239999659
 49
2540.0000000000
  0
ENDTAB
  0
TABLE
  2
LAYER
 70
     6
  0
LAYER
  2
0
 70
     0
  6
SOLID
 62
     7
  0
LAYER
  2
1
 70
     0
  6
SOLID
 62
     7
  0
LAYER
  2
21
 70
     0
  6
SOLID
 62
    30
  0
LAYER
  2
51
 70
     0
  6
SOLID
 62
    30
  0
LAYER
  2
52
 70
     0
  6
SOLID
 62
    51
  0
LAYER
  2
255
 70
     0
  6
SOLID
 62
     7
  0
ENDTAB
  0
TABLE
  2
STYLE
 70
     2
  0
STYLE
  2
STANDARD
  3
txt
  4

 40
0.0000000000
 41
1.0000000000
 42
2.4999949932
 50
0.0000000000
 70
     0
 71
     0
  0
STYLE
  2
HELV_S
  3
helv_s
  4

 40
0.0000000000
 41
1.0000000000
 42
2.4999949932
 50
0.0000000000
 70
     0
 71
     0
  0
ENDTAB
  0
ENDSEC
  0
SECTION
  2
BLOCKS
  0
BLOCK
  8
51
  2
*D0
 70
     1
 10
0.0000000000
 20
0.0000000000
  0
LINE
  8
51
 10
154.5298418005
 20
210.7408385900
 11
154.0666985661
 21
207.2229164620
  0
LINE
  8
51
 10
154.5298418005
 20
210.7408385900
 11
154.9929850350
 21
207.2229164620
  0
LINE
  8
51
 10
154.5298418005
 20
-210.7399032832
 11
154.9929850350
 21
-207.2219811552
  0
LINE
  8
51
 10
154.5298418005
 20
-210.7399032832
 11
154.0666985661
 21
-207.2219811552
  0
LINE
  8
51
 10
154.5298418005
 20
210.7408385900
 11
154.5298418005
 21
-210.7399032832
  0
LINE
  8
51
  6
GAP
 10
-71.4693925400
 20
210.7408385900
 11
157.5298418005
 21
210.7408385900
  0
LINE
  8
51
  6
GAP
 10
-71.4693925400
 20
-210.7399032832
 11
157.5298418005
 21
-210.7399032832
  0
TEXT
  8
51
  7
helv_s
 10
147.9298392090
 20
-34.3255572130
 40
20.0000000000
  1
421.5
 50
89.9999956743
 72
     5
 11
147.9298443921
 21
34.3264935163
  0
ENDBLK
  8
51
  0
BLOCK
  8
51
  2
*D1
 70
     1
 10
0.0000000000
 20
0.0000000000
  0
LINE
  8
51
 10
113.7420559962
 20
-307.5485087874
 11
110.2241338682
 21
-307.0853655529
  0
LINE
  8
51
 10
113.7420559962
 20
-307.5485087874
 11
110.2241338682
 21
-308.0116520218
  0
LINE
  8
51
 10
-261.7608400000
 20
-307.5485087874
 11
-258.2429178720
 21
-308.0116520218
  0
LINE
  8
51
 10
-261.7608400000
 20
-307.5485087874
 11
-258.2429178720
 21
-307.0853655529
  0
LINE
  8
51
 10
113.7420559962
 20
-307.5485087874
 11
-261.7608400000
 21
-307.5485087874
  0
LINE
  8
51
  6
GAP
 10
113.7420559962
 20
-2.5399999619
 11
113.7420559962
 21
-310.5485087874
  0
LINE
  8
51
  6
GAP
 10
-261.7608400000
 20
-2.5399999619
 11
-261.7608400000
 21
-310.5485087874
  0
TEXT
  8
51
  7
helv_s
 10
-113.1354188178
 20
-300.9485087874
 40
20.0000000000
  1
375.5
 72
     5
 11
-34.8833680885
 21
-300.9485087874
  0
ENDBLK
  8
51
  0
BLOCK
  8
51
  2
*D2
 70
     1
 10
0.0000000000
 20
0.0000000000
  0
LINE
  8
51
 10
93.7420559959
 20
-271.2470695745
 11
90.2241338679
 21
-270.7839263400
  0
LINE
  8
51
 10
93.7420559959
 20
-271.2470695745
 11
90.2241338679
 21
-271.7102128090
  0
LINE
  8
51
 10
-241.7608400000
 20
-271.2470695745
 11
-238.2429178720
 21
-271.7102128090
  0
LINE
  8
51
 10
-241.7608400000
 20
-271.2470695745
 11
-238.2429178720
 21
-270.7839263400
  0
LINE
  8
51
 10
93.7420559959
 20
-271.2470695745
 11
-241.7608400000
 21
-271.2470695745
  0
LINE
  8
51
  6
GAP
 10
93.7420559959
 20
-2.5399999619
 11
93.7420559959
 21
-274.2470695745
  0
LINE
  8
51
  6
GAP
 10
-241.7608400000
 20
-2.5399999619
 11
-241.7608400000
 21
-274.2470695745
  0
TEXT
  8
51
  7
helv_s
 10
-112.9354188179
 20
-264.6470695745
 40
20.0000000000
  1
335.5
 72
     5
 11
-35.0833680886
 21
-264.6470695745
  0
ENDBLK
  8
51
  0
BLOCK
  8
51
  2
*D3
 70
     1
 10
0.0000000000
 20
0.0000000000
  0
LINE
  8
51
 10
194.7068852554
 20
230.7414967894
 11
194.2437420209
 21
227.2235746614
  0
LINE
  8
51
 10
194.7068852554
 20
230.7414967894
 11
195.1700284899
 21
227.2235746614
  0
LINE
  8
51
 10
194.7068852554
 20
-230.7405652765
 11
195.1700284899
 21
-227.2226431485
  0
LINE
  8
51
 10
194.7068852554
 20
-230.7405652765
 11
194.2437420209
 21
-227.2226431485
  0
LINE
  8
51
 10
194.7068852554
 20
230.7414967894
 11
194.7068852554
 21
-230.7405652765
  0
LINE
  8
51
  6
GAP
 10
-71.4693925400
 20
230.7414967894
 11
197.7068852554
 21
230.7414967894
  0
LINE
  8
51
  6
GAP
 10
-71.4693925400
 20
-230.7405652765
 11
197.7068852554
 21
-230.7405652765
  0
TEXT
  8
51
  7
helv_s
 10
188.1068826639
 20
-34.3255591099
 40
20.0000000000
  1
461.5
 50
89.9999956743
 72
     5
 11
188.1068878469
 21
34.3264916194
  0
ENDBLK
  8
51
  0
BLOCK
  8
51
  2
*D4
 70
     1
 10
0.0000000000
 20
0.0000000000
  0
LINE
  8
51
 10
143.2381360169
 20
230.7414967894
 11
142.7749927824
 21
227.2235746614
  0
LINE
  8
51
 10
143.2381360169
 20
230.7414967894
 11
143.7012792514
 21
227.2235746614
  0
LINE
  8
51
 10
143.2381360169
 20
210.7408385900
 11
143.7012792514
 21
214.2587607180
  0
LINE
  8
51
 10
143.2381360169
 20
210.7408385900
 11
142.7749927824
 21
214.2587607180
  0
LINE
  8
51
 10
143.2381360169
 20
230.7414967894
 11
143.2381360169
 21
210.7408385900
  0
LINE
  8
51
 10
143.2381360169
 20
230.7414967894
 11
143.2381360169
 21
337.7343644197
  0
LINE
  8
51
  6
GAP
 10
-71.4693925400
 20
230.7414967894
 11
146.2381360169
 21
230.7414967894
  0
LINE
  8
51
  6
GAP
 10
-71.4693925400
 20
210.7408385900
 11
146.2381360169
 21
210.7408385900
  0
TEXT
  8
51
  7
helv_s
 10
136.6381327308
 20
240.6823134338
 40
20.0000000000
  1
20.001
 50
89.9999956743
 72
     5
 11
136.6381393030
 21
327.7343641630
  0
ENDBLK
  8
51
  0
ENDSEC
  0
SECTION
  2
ENTITIES
  0
TEXT
  8
52
  7
helv_s
 10
-165.3044208887
 20
103.9223297854
 40
50.0000000000
  1
A3181
 72
     5
 11
14.3257059345
 21
103.9223297854
  0
DIMENSION
  8
51
  2
*D0
 10
154.5298418005
 20
-210.7399032832
 11
154.5298418005
 21
4.6890666511E-04
 13
-74.0093925019
 23
210.7408385900
 14
-74.0093925019
 24
-210.7399032832
 50
-90.0000000000
  0
DIMENSION
  8
51
  2
*D1
 70
     1
 10
-261.7608400000
 20
-307.5485087874
 11
-74.0093934531
 21
-307.5485087874
 13
113.7420559962
 23
0.0000000000
 14
-261.7608400000
 24
-2.2737367544E-13
 50
180.0000000000
  0
DIMENSION
  8
51
  2
*D2
 70
     1
 10
-241.7608400000
 20
-271.2470695745
 11
-74.0093934533
 21
-271.2470695745
 13
93.7420559959
 23
-1.1368683772E-13
 14
-241.7608400000
 24
-5.6843418861E-14
 50
180.0000000000
  0
DIMENSION
  8
51
  2
*D3
 10
194.7068852554
 20
-230.7405652765
 11
194.7068852554
 21
4.6700971512E-04
 13
-74.0093925019
 23
230.7414967894
 14
-74.0093925019
 24
-230.7405652765
 50
-90.0000000000
  0
DIMENSION
  8
51
  2
*D4
 10
143.2381360169
 20
210.7408385900
 11
143.2381360169
 21
284.2083395534
 13
-74.0093925019
 23
230.7414967894
 14
-74.0093925019
 24
210.7408385900
 50
-90.0000000000
  0
ARC
  8
1
 62
     3
 10
-95.6666730000
 20
42.6196170000
 40
177.1292360000
 50
36.6952760000
 51
39.4358310000
  0
ARC
  8
1
 62
     3
 10
-86.8967480000
 20
49.8325040000
 40
165.7741790000
 50
39.4358310000
 51
42.3640270000
  0
ARC
  8
1
 62
     3
 10
-73.1839640000
 20
-68.0761050000
 40
162.7120250000
 50
283.5065550000
 51
289.7908630000
  0
ARC
  8
1
 62
     3
 10
-77.9860900000
 20
59.3342320000
 40
152.7292370000
 50
51.1525910000
 51
56.0021220000
  0
ARC
  8
1
 62
     3
 10
-75.5331820000
 20
62.9711090000
 40
148.3424800000
 50
56.0021220000
 51
60.9948830000
  0
ARC
  8
1
 62
     3
 10
7.6666260000
 20
-0.4492800000
 40
249.4449030000
 50
171.2129550000
 51
175.5548780000
  0
ARC
  8
1
 62
     3
 10
-49.7487170000
 20
39.2166770000
 40
179.1868290000
 50
131.2966570000
 51
134.7343420000
  0
ARC
  8
1
 62
     3
 10
-70.7652180000
 20
-66.8803170000
 40
164.3719850000
 50
238.7583400000
 51
242.2838400000
  0
ARC
  8
1
 62
     3
 10
7.7166560000
 20
0.1828650000
 40
269.4331780000
 50
197.3769820000
 51
201.1130280000
  0
ARC
  8
1
 62
     3
 10
-103.4272200000
 20
36.8360790000
 40
206.8078420000
 50
34.0242870000
 51
36.6952760000
  0
ARC
  8
1
 62
     3
 10
9.5364180000
 20
-0.7383060000
 40
271.3369010000
 50
166.5183540000
 51
171.2129550000
  0
ARC
  8
1
 62
     3
 10
-156.9550810000
 20
1.1216500000
 40
270.7325610000
 50
353.0143370000
 51
355.2570880000
  0
ARC
  8
1
 62
     3
 10
7.0639810000
 20
3.6358000000E-02
 40
268.7447280000
 50
158.1096740000
 51
161.8156340000
  0
ARC
  8
1
 62
     3
 10
-4.2321790000
 20
4.9317100000
 40
256.4268620000
 50
150.8788350000
 51
154.2909510000
  0
ARC
  8
1
 62
     3
 10
-14.3860840000
 20
10.5882150000
 40
244.8037020000
 50
147.2904120000
 51
150.8788350000
  0
ARC
  8
1
 62
     3
 10
-28.2020960000
 20
-20.0183980000
 40
228.0728480000
 50
214.9013020000
 51
218.2549860000
  0
ARC
  8
1
 62
     3
 10
-19.8337630000
 20
14.0868500000
 40
238.3293170000
 50
144.3032200000
 51
147.2904120000
  0
ARC
  8
1
 62
     3
 10
-29.9037390000
 20
21.3220040000
 40
225.9296460000
 50
141.1362480000
 51
144.3032200000
  0
ARC
  8
1
 62
     3
 10
-35.0997590000
 20
25.5092390000
 40
219.2564490000
 50
138.0443850000
 51
141.1362480000
  0
ARC
  8
1
 62
     3
 10
-44.8718200000
 20
34.2943440000
 40
206.1160050000
 50
134.7343420000
 51
138.0443850000
  0
ARC
  8
1
 62
     3
 10
-179.9162020000
 20
-4.1301140000
 40
273.8528610000
 50
18.3126180000
 51
20.1936520000
  0
ARC
  8
1
 62
     3
 10
-49.7487170000
 20
39.2166770000
 40
199.1868290000
 50
131.2966570000
 51
134.7343420000
  0
ARC
  8
1
 62
     3
 10
-172.0142970000
 20
-1.2237730000
 40
265.4334240000
 50
20.1936520000
 51
22.1343410000
  0
ARC
  8
1
 62
     3
 10
-58.7579900000
 20
49.4729250000
 40
185.5355420000
 50
127.5756660000
 51
131.2966570000
  0
ARC
  8
1
 62
     3
 10
-167.3485920000
 20
0.6740310000
 40
260.3965140000
 50
22.1343410000
 51
24.1125280000
  0
ARC
  8
1
 62
     3
 10
-155.0216820000
 20
6.1913600000
 40
246.8911950000
 50
24.1125280000
 51
26.1989010000
  0
ARC
  8
1
 62
     3
 10
-75.0287050000
 20
-63.8395250000
 40
147.3378760000
 50
295.4520190000
 51
300.9959910000
  0
ARC
  8
1
 62
     3
 10
-150.0484400000
 20
0.5486120000
 40
243.8021890000
 50
355.2570880000
 51
357.5640780000
  0
ARC
  8
1
 62
     3
 10
-179.9162020000
 20
-4.1301140000
 40
293.8528610000
 50
18.3126180000
 51
20.1936520000
  0
ARC
  8
1
 62
     3
 10
-72.7857970000
 20
-70.0221080000
 40
160.7231150000
 50
268.5703380000
 51
277.1610300000
  0
ARC
  8
1
 62
     3
 10
-74.5405240000
 20
64.7615340000
 40
146.2952890000
 50
60.9948830000
 51
67.2606680000
  0
ARC
  8
1
 62
     3
 10
-138.0601720000
 20
1.3860000000E-03
 40
231.8022280000
 50
359.9996570000
 51
363.1365980000
  0
ARC
  8
1
 62
     3
 10
-72.5617780000
 20
70.3444820000
 40
160.4688670000
 50
112.1420620000
 51
116.3904010000
  0
ARC
  8
1
 62
     3
 10
-183.2216790000
 20
-5.2241040000
 40
277.3346700000
 50
15.0524690000
 51
18.3126180000
  0
ARC
  8
1
 62
     3
 10
-156.9550810000
 20
1.1216500000
 40
250.7325610000
 50
353.0143370000
 51
355.2570880000
  0
ARC
  8
1
 62
     3
 10
-169.4139600000
 20
2.6482430000
 40
263.2846190000
 50
350.8784840000
 51
353.0143370000
  0
ARC
  8
1
 62
     3
 10
9.1140150000
 20
-0.6370390000
 40
250.9025290000
 50
161.8156340000
 51
166.5183540000
  0
ARC
  8
1
 62
     3
 10
-137.1197530000
 20
-1.3800000000E-03
 40
230.8618080000
 50
357.5640780000
 51
360.0003430000
  0
ARC
  8
1
 62
     3
 10
-128.3411290000
 20
20.4379800000
 40
236.6392750000
 50
28.7809600000
 51
31.6285040000
  0
ARC
  8
1
 62
     3
 10
-154.9529180000
 20
-0.9243150000
 40
248.7203180000
 50
3.1365980000
 51
6.0602590000
  0
ARC
  8
1
 62
     3
 10
-14.3860840000
 20
10.5882150000
 40
224.8037020000
 50
147.2904120000
 51
150.8788350000
  0
ARC
  8
1
 62
     3
 10
-164.0244530000
 20
-1.8874190000
 40
257.8428350000
 50
6.0602590000
 51
8.9992810000
  0
ARC
  8
1
 62
     3
 10
-62.5641900000
 20
54.4197200000
 40
159.2939130000
 50
124.1946580000
 51
127.5756660000
  0
ARC
  8
1
 62
     3
 10
-178.0450900000
 20
-4.1078890000
 40
272.0382130000
 50
8.9992810000
 51
11.7850020000
  0
ARC
  8
1
 62
     3
 10
-182.6215600000
 20
-5.0627130000
 40
276.7132280000
 50
11.7850020000
 51
15.0524690000
  0
ARC
  8
1
 62
     3
 10
-71.4082110000
 20
68.0196580000
 40
143.0641560000
 50
116.3904010000
 51
120.5617400000
  0
ARC
  8
1
 62
     3
 10
-72.5617780000
 20
70.3444820000
 40
140.4688670000
 50
112.1420620000
 51
116.3904010000
  0
ARC
  8
1
 62
     3
 10
-12.3740180000
 20
-9.3794260000
 40
247.1504250000
 50
208.2678310000
 51
211.7456920000
  0
ARC
  8
1
 62
     3
 10
-72.8561700000
 20
71.0679580000
 40
139.6877890000
 50
106.1042430000
 51
112.1420620000
  0
ARC
  8
1
 62
     3
 10
-73.1679760000
 20
72.1479330000
 40
138.5637030000
 50
100.0175350000
 51
106.1042430000
  0
ARC
  8
1
 62
     3
 10
7.6666260000
 20
-0.4492800000
 40
269.4449030000
 50
171.2129550000
 51
175.5548780000
  0
ARC
  8
1
 62
     3
 10
-123.7422680000
 20
-23.2506040000
 40
231.2484450000
 50
326.5491550000
 51
328.8725500000
  0
ARC
  8
1
 62
     3
 10
-72.7847850000
 20
-69.9815550000
 40
160.7636810000
 50
259.9821130000
 51
268.5703380000
  0
ARC
  8
1
 62
     3
 10
-76.1054560000
 20
-62.0472250000
 40
169.4287450000
 50
300.9959910000
 51
305.4109710000
  0
ARC
  8
1
 62
     3
 10
-80.1016830000
 20
56.7074190000
 40
176.1020520000
 50
46.6663800000
 51
51.1525910000
  0
ARC
  8
1
 62
     3
 10
9.4739020000
 20
0.7327770000
 40
251.2744600000
 50
193.0540150000
 51
197.3769820000
  0
ARC
  8
1
 62
     3
 10
-80.6209270000
 20
-56.1036020000
 40
176.8981810000
 50
309.7022280000
 51
314.0911710000
  0
ARC
  8
1
 62
     3
 10
-84.6841430000
 20
51.8503450000
 40
182.7796340000
 50
42.3640270000
 51
46.6663800000
  0
ARC
  8
1
 62
     3
 10
-72.8561700000
 20
71.0679580000
 40
159.6877890000
 50
106.1042430000
 51
112.1420620000
  0
ARC
  8
1
 62
     3
 10
-178.0450900000
 20
-4.1078890000
 40
292.0382130000
 50
8.9992810000
 51
11.7850020000
  0
ARC
  8
1
 62
     3
 10
-73.1702210000
 20
-72.1606420000
 40
158.5507970000
 50
252.9021100000
 51
259.9824530000
  0
ARC
  8
1
 62
     3
 10
-48.3335240000
 20
-37.7540480000
 40
201.2217470000
 50
224.6822220000
 51
227.9310040000
  0
ARC
  8
1
 62
     3
 10
-155.0216820000
 20
6.1913600000
 40
266.8911950000
 50
24.1125280000
 51
26.1989010000
  0
ARC
  8
1
 62
     3
 10
1.8872510000
 20
-3.0000000000E-06
 40
263.6480910000
 50
175.5548780000
 51
180.0000000000
  0
ARC
  8
1
 62
     3
 10
-169.4139600000
 20
2.6482430000
 40
283.2846190000
 50
350.8784840000
 51
353.0143370000
  0
ARC
  8
1
 62
     3
 10
-177.6644520000
 20
3.3707840000
 40
291.4774950000
 50
339.1347830000
 51
342.1254610000
  0
ARC
  8
1
 62
     3
 10
-62.5641900000
 20
54.4197200000
 40
179.2939130000
 50
124.1946580000
 51
127.5756660000
  0
ARC
  8
1
 62
     3
 10
1.5265480000
 20
-2.2073170000
 40
262.7976370000
 50
201.1130280000
 51
204.9511040000
  0
ARC
  8
1
 62
     3
 10
9.1140150000
 20
-0.6370390000
 40
270.9025290000
 50
161.8156340000
 51
166.5183540000
  0
ARC
  8
1
 62
     3
 10
-167.3485920000
 20
0.6740310000
 40
280.3965140000
 50
22.1343410000
 51
24.1125280000
  0
ARC
  8
1
 62
     3
 10
-137.1197530000
 20
-1.3800000000E-03
 40
250.8618080000
 50
357.5640780000
 51
360.0003150000
  0
ARC
  8
1
 62
     3
 10
-98.2340920000
 20
-40.6598180000
 40
200.3586950000
 50
321.2457060000
 51
323.9756540000
  0
ARC
  8
1
 62
     3
 10
-154.9529180000
 20
-0.9243150000
 40
268.7203180000
 50
3.1365980000
 51
6.0602590000
  0
ARC
  8
1
 62
     3
 10
-164.0244530000
 20
-1.8874190000
 40
277.8428350000
 50
6.0602590000
 51
8.9992810000
  0
ARC
  8
1
 62
     3
 10
-73.7159530000
 20
-66.5977080000
 40
164.2832260000
 50
289.7908630000
 51
295.4520190000
  0
ARC
  8
1
 62
     3
 10
0.2435600000
 20
2.7768120000
 40
261.3943380000
 50
154.2909510000
 51
158.1096740000
  0
ARC
  8
1
 62
     3
 10
7.6296850000
 20
0.4444860000
 40
269.4076620000
 50
184.4160060000
 51
188.7298980000
  0
ARC
  8
1
 62
     3
 10
-72.4740440000
 20
-70.1329210000
 40
160.6978160000
 50
242.2838400000
 51
245.9013430000
  0
ARC
  8
1
 62
     3
 10
-95.6666730000
 20
42.6196170000
 40
197.1292360000
 50
36.6952760000
 51
39.4358310000
  0
ARC
  8
1
 62
     3
 10
-61.0382070000
 20
-52.3838400000
 40
181.8376740000
 50
231.4372650000
 51
234.9565520000
  0
ARC
  8
1
 62
     3
 10
-73.1702210000
 20
-72.1606420000
 40
138.5507970000
 50
252.9021100000
 51
259.9824530000
  0
ARC
  8
1
 62
     3
 10
-33.6875580000
 20
-24.3435610000
 40
221.0873400000
 50
218.2549860000
 51
221.3598160000
  0
ARC
  8
1
 62
     3
 10
-172.0142970000
 20
-1.2237730000
 40
285.4334240000
 50
20.1936520000
 51
22.1343410000
  0
ARC
  8
1
 62
     3
 10
-72.9581820000
 20
68.8845110000
 40
141.8736230000
 50
73.6670750000
 51
81.7906960000
  0
ARC
  8
1
 62
     3
 10
-72.7907950000
 20
70.0447580000
 40
140.7013640000
 50
81.7906960000
 51
89.9817700000
  0
ARC
  8
1
 62
     3
 10
-156.2490410000
 20
-5.5874530000
 40
268.2590820000
 50
333.8011020000
 51
336.5537020000
  0
ARC
  8
1
 62
     3
 10
-72.7907460000
 20
70.1998460000
 40
140.5462760000
 50
89.9817700000
 51
95.0064030000
  0
ARC
  8
1
 62
     3
 10
-72.7586750000
 20
69.8337420000
 40
140.9137820000
 50
95.0064030000
 51
100.0179480000
  0
ARC
  8
1
 62
     3
 10
-130.1899130000
 20
-19.3569220000
 40
218.7805690000
 50
328.8725500000
 51
331.4481340000
  0
ARC
  8
1
 62
     3
 10
-148.3772030000
 20
-9.4607020000
 40
239.4859470000
 50
331.4481340000
 51
333.8011040000
  0
ARC
  8
1
 62
     3
 10
-72.4740440000
 20
-70.1329210000
 40
140.6978160000
 50
242.2838400000
 51
245.9013430000
  0
ARC
  8
1
 62
     3
 10
-70.7652180000
 20
-66.8803170000
 40
144.3719850000
 50
238.7583400000
 51
242.2838400000
  0
ARC
  8
1
 62
     3
 10
-67.9478970000
 20
-62.2359910000
 40
149.8040260000
 50
234.9565520000
 51
238.7583400000
  0
ARC
  8
1
 62
     3
 10
-61.0382070000
 20
-52.3838400000
 40
161.8376740000
 50
231.4372650000
 51
234.9565520000
  0
ARC
  8
1
 62
     3
 10
-57.2551070000
 20
-47.6385070000
 40
167.9064480000
 50
227.9310040000
 51
231.4372650000
  0
ARC
  8
1
 62
     3
 10
-72.8617580000
 20
-69.4175130000
 40
161.3324630000
 50
277.1610300000
 51
283.5065550000
  0
ARC
  8
1
 62
     3
 10
-48.3335240000
 20
-37.7540480000
 40
181.2217470000
 50
224.6822220000
 51
227.9310040000
  0
ARC
  8
1
 62
     3
 10
-43.5766540000
 20
-33.0496530000
 40
187.9119740000
 50
221.3598160000
 51
224.6822220000
  0
ARC
  8
1
 62
     3
 10
-33.6875580000
 20
-24.3435610000
 40
201.0873400000
 50
218.2549860000
 51
221.3598160000
  0
ARC
  8
1
 62
     3
 10
-28.2020960000
 20
-20.0183980000
 40
208.0728480000
 50
214.9013020000
 51
218.2549860000
  0
ARC
  8
1
 62
     3
 10
-17.4847520000
 20
-12.5415130000
 40
221.1405670000
 50
211.7456920000
 51
214.9013020000
  0
ARC
  8
1
 62
     3
 10
-12.3740180000
 20
-9.3794260000
 40
227.1504250000
 50
208.2678310000
 51
211.7456920000
  0
ARC
  8
1
 62
     3
 10
-2.6488000000
 20
-4.1499770000
 40
238.1924820000
 50
204.9511040000
 51
208.2678310000
  0
ARC
  8
1
 62
     3
 10
1.5265480000
 20
-2.2073170000
 40
242.7976370000
 50
201.1130280000
 51
204.9511040000
  0
ARC
  8
1
 62
     3
 10
7.7166560000
 20
0.1828650000
 40
249.4331780000
 50
197.3769820000
 51
201.1130280000
  0
ARC
  8
1
 62
     3
 10
-121.2184440000
 20
24.8247710000
 40
228.2740750000
 50
31.6285040000
 51
34.0242870000
  0
ARC
  8
1
 62
     3
 10
9.4087620000
 20
0.7176740000
 40
271.2075920000
 50
188.7298980000
 51
193.0540150000
  0
ARC
  8
1
 62
     3
 10
7.6296850000
 20
0.4444860000
 40
249.4076620000
 50
184.4160060000
 51
188.7298980000
  0
ARC
  8
1
 62
     3
 10
1.8741230000
 20
3.0000000000E-06
 40
243.6349620000
 50
180.0000000000
 51
184.4160060000
  0
ARC
  8
1
 62
     3
 10
-175.9275090000
 20
3.6940530000
 40
289.8815910000
 50
347.9167900000
 51
350.8784840000
  0
ARC
  8
1
 62
     3
 10
9.5364180000
 20
-0.7383060000
 40
251.3369010000
 50
166.5183540000
 51
171.2129550000
  0
ARC
  8
1
 62
     3
 10
-17.4847520000
 20
-12.5415130000
 40
241.1405670000
 50
211.7456920000
 51
214.9013020000
  0
ARC
  8
1
 62
     3
 10
-183.2216790000
 20
-5.2241040000
 40
297.3346700000
 50
15.0524690000
 51
18.3126180000
  0
ARC
  8
1
 62
     3
 10
-72.7060260000
 20
-70.6515570000
 40
140.1296620000
 50
245.9013430000
 51
252.9021100000
  0
ARC
  8
1
 62
     3
 10
-130.1899130000
 20
-19.3569220000
 40
238.7805690000
 50
328.8725500000
 51
331.4481340000
  0
ARC
  8
1
 62
     3
 10
-71.4082110000
 20
68.0196580000
 40
163.0641560000
 50
116.3904010000
 51
120.5617400000
  0
ARC
  8
1
 62
     3
 10
-78.6042390000
 20
-58.5325210000
 40
173.7411760000
 50
305.4109710000
 51
309.7022280000
  0
ARC
  8
1
 62
     3
 10
-73.1679760000
 20
72.1479330000
 40
158.5637030000
 50
100.0175350000
 51
106.1042430000
  0
ARC
  8
1
 62
     3
 10
-72.7907460000
 20
70.1998460000
 40
160.5462760000
 50
89.9817700000
 51
95.0064030000
  0
ARC
  8
1
 62
     3
 10
-72.7907950000
 20
70.0447580000
 40
160.7013640000
 50
81.7906960000
 51
89.9817700000
  0
ARC
  8
1
 62
     3
 10
-72.9581820000
 20
68.8845110000
 40
161.8736230000
 50
73.6670750000
 51
81.7906960000
  0
ARC
  8
1
 62
     3
 10
-67.9478970000
 20
-62.2359910000
 40
169.8040260000
 50
234.9565520000
 51
238.7583400000
  0
ARC
  8
1
 62
     3
 10
-73.2967640000
 20
67.7291140000
 40
163.0776090000
 50
67.2606680000
 51
73.6670750000
  0
ARC
  8
1
 62
     3
 10
-74.5405240000
 20
64.7615340000
 40
166.2952890000
 50
60.9948830000
 51
67.2606680000
  0
ARC
  8
1
 62
     3
 10
-75.5331820000
 20
62.9711090000
 40
168.3424800000
 50
56.0021220000
 51
60.9948830000
  0
ARC
  8
1
 62
     3
 10
-77.9860900000
 20
59.3342320000
 40
172.7292370000
 50
51.1525910000
 51
56.0021220000
  0
ARC
  8
1
 62
     3
 10
-171.3902200000
 20
0.9792510000
 40
264.7629270000
 50
336.5537020000
 51
339.1347830000
  0
ARC
  8
1
 62
     3
 10
-177.6644520000
 20
3.3707840000
 40
271.4774950000
 50
339.1347830000
 51
342.1254610000
  0
ARC
  8
1
 62
     3
 10
-184.2623440000
 20
5.4986070000
 40
278.4100130000
 50
342.1254610000
 51
345.0417020000
  0
ARC
  8
1
 62
     3
 10
-183.8804830000
 20
5.3965860000
 40
278.0147580000
 50
345.0417020000
 51
347.9167900000
  0
ARC
  8
1
 62
     3
 10
-175.9275090000
 20
3.6940530000
 40
269.8815910000
 50
347.9167900000
 51
350.8784840000
  0
ARC
  8
1
 62
     3
 10
-147.8713590000
 20
9.7095960000
 40
258.9221860000
 50
26.1988990000
 51
28.7809600000
  0
ARC
  8
1
 62
     3
 10
1.8741230000
 20
3.0000000000E-06
 40
263.6349620000
 50
180.0000010000
 51
184.4160060000
  0
ARC
  8
1
 62
     3
 10
-184.2623440000
 20
5.4986070000
 40
298.4100130000
 50
342.1254610000
 51
345.0417020000
  0
ARC
  8
1
 62
     3
 10
-2.6488000000
 20
-4.1499770000
 40
258.1924820000
 50
204.9511040000
 51
208.2678310000
  0
ARC
  8
1
 62
     3
 10
-72.7847850000
 20
-69.9815550000
 40
140.7636810000
 50
259.9821130000
 51
268.5703380000
  0
ARC
  8
1
 62
     3
 10
-72.7857970000
 20
-70.0221080000
 40
140.7231150000
 50
268.5703380000
 51
277.1610300000
  0
ARC
  8
1
 62
     3
 10
-106.6076710000
 20
-34.5706190000
 40
210.7122050000
 50
323.9756540000
 51
326.5491550000
  0
ARC
  8
1
 62
     3
 10
-72.8617580000
 20
-69.4175130000
 40
141.3324630000
 50
277.1610300000
 51
283.5065550000
  0
ARC
  8
1
 62
     3
 10
-73.1839640000
 20
-68.0761050000
 40
142.7120250000
 50
283.5065550000
 51
289.7908630000
  0
ARC
  8
1
 62
     3
 10
-138.0601720000
 20
1.3860000000E-03
 40
251.8022280000
 50
359.9996850000
 51
363.1365980000
  0
ARC
  8
1
 62
     3
 10
-29.9037390000
 20
21.3220040000
 40
205.9296460000
 50
141.1362480000
 51
144.3032200000
  0
ARC
  8
1
 62
     3
 10
-19.8337630000
 20
14.0868500000
 40
218.3293170000
 50
144.3032200000
 51
147.2904120000
  0
ARC
  8
1
 62
     3
 10
-44.8718200000
 20
34.2943440000
 40
186.1160050000
 50
134.7343420000
 51
138.0443850000
  0
ARC
  8
1
 62
     3
 10
-58.7579900000
 20
49.4729250000
 40
165.5355420000
 50
127.5756660000
 51
131.2966570000
  0
ARC
  8
1
 62
     3
 10
-72.7060260000
 20
-70.6515570000
 40
160.1296620000
 50
245.9013430000
 51
252.9021100000
  0
ARC
  8
1
 62
     3
 10
-86.8967480000
 20
49.8325040000
 40
185.7741790000
 50
39.4358310000
 51
42.3640270000
  0
ARC
  8
1
 62
     3
 10
-43.5766540000
 20
-33.0496530000
 40
207.9119740000
 50
221.3598160000
 51
224.6822220000
  0
ARC
  8
1
 62
     3
 10
-103.4272200000
 20
36.8360790000
 40
186.8078420000
 50
34.0242870000
 51
36.6952760000
  0
ARC
  8
1
 62
     3
 10
-171.3902200000
 20
0.9792510000
 40
284.7629270000
 50
336.5537020000
 51
339.1347830000
  0
ARC
  8
1
 62
     3
 10
-76.1054560000
 20
-62.0472250000
 40
149.4287450000
 50
300.9959910000
 51
305.4109710000
  0
ARC
  8
1
 62
     3
 10
-78.6042390000
 20
-58.5325210000
 40
153.7411760000
 50
305.4109710000
 51
309.7022280000
  0
ARC
  8
1
 62
     3
 10
-80.6209270000
 20
-56.1036020000
 40
156.8981810000
 50
309.7022280000
 51
314.0911710000
  0
ARC
  8
1
 62
     3
 10
-85.3864970000
 20
-51.1843980000
 40
163.7472120000
 50
314.0911710000
 51
318.2967070000
  0
ARC
  8
1
 62
     3
 10
-87.7824490000
 20
-49.0494360000
 40
166.9563620000
 50
318.2967070000
 51
321.2457060000
  0
ARC
  8
1
 62
     3
 10
-87.7824490000
 20
-49.0494360000
 40
186.9563620000
 50
318.2967070000
 51
321.2457060000
  0
ARC
  8
1
 62
     3
 10
-98.2340920000
 20
-40.6598180000
 40
180.3586950000
 50
321.2457060000
 51
323.9756540000
  0
ARC
  8
1
 62
     3
 10
-106.6076710000
 20
-34.5706190000
 40
190.7122050000
 50
323.9756540000
 51
326.5491550000
  0
ARC
  8
1
 62
     3
 10
-147.8713590000
 20
9.7095960000
 40
238.9221860000
 50
26.1988960000
 51
28.7809600000
  0
ARC
  8
1
 62
     3
 10
7.0639810000
 20
3.6358000000E-02
 40
248.7447280000
 50
158.1096740000
 51
161.8156340000
  0
ARC
  8
1
 62
     3
 10
-128.3411290000
 20
20.4379800000
 40
216.6392750000
 50
28.7809600000
 51
31.6285040000
  0
ARC
  8
1
 62
     3
 10
0.2435600000
 20
2.7768120000
 40
241.3943380000
 50
154.2909510000
 51
158.1096740000
  0
ARC
  8
1
 62
     3
 10
-121.2184440000
 20
24.8247710000
 40
208.2740750000
 50
31.6285040000
 51
34.0242870000
  0
ARC
  8
1
 62
     3
 10
-84.6841430000
 20
51.8503450000
 40
162.7796340000
 50
42.3640270000
 51
46.6663800000
  0
ARC
  8
1
 62
     3
 10
-80.1016830000
 20
56.7074190000
 40
156.1020520000
 50
46.6663800000
 51
51.1525910000
  0
ARC
  8
1
 62
     3
 10
-57.2551070000
 20
-47.6385070000
 40
187.9064480000
 50
227.9310040000
 51
231.4372650000
  0
ARC
  8
1
 62
     3
 10
9.4739020000
 20
0.7327770000
 40
271.2744600000
 50
193.0540150000
 51
197.3769820000
  0
ARC
  8
1
 62
     3
 10
-85.3864970000
 20
-51.1843980000
 40
183.7472120000
 50
314.0911710000
 51
318.2967070000
  0
ARC
  8
1
 62
     3
 10
-4.2321790000
 20
4.9317100000
 40
236.4268620000
 50
150.8788350000
 51
154.2909510000
  0
ARC
  8
1
 62
     3
 10
-148.3772030000
 20
-9.4607020000
 40
259.4859470000
 50
331.4481340000
 51
333.8011040000
  0
ARC
  8
1
 62
     3
 10
-75.0287050000
 20
-63.8395250000
 40
167.3378760000
 50
295.4520190000
 51
300.9959910000
  0
ARC
  8
1
 62
     3
 10
-73.2967640000
 20
67.7291140000
 40
143.0776090000
 50
67.2606680000
 51
73.6670750000
  0
ARC
  8
1
 62
     3
 10
-35.0997590000
 20
25.5092390000
 40
199.2564490000
 50
138.0443850000
 51
141.1362480000
  0
ARC
  8
1
 62
     3
 10
9.4087620000
 20
0.7176740000
 40
251.2075920000
 50
188.7298980000
 51
193.0540150000
  0
ARC
  8
1
 62
     3
 10
1.8872510000
 20
-3.0000000000E-06
 40
243.6480910000
 50
175.5548780000
 51
180.0000000000
  0
ARC
  8
1
 62
     3
 10
-156.2490410000
 20
-5.5874530000
 40
248.2590820000
 50
333.8011000000
 51
336.5537020000
  0
ARC
  8
1
 62
     3
 10
-68.7756080000
 20
63.5613780000
 40
168.2416900000
 50
120.5617400000
 51
124.1946580000
  0
ARC
  8
1
 62
     3
 10
-73.7159530000
 20
-66.5977080000
 40
144.2832260000
 50
289.7908630000
 51
295.4520190000
  0
ARC
  8
1
 62
     3
 10
-123.7422680000
 20
-23.2506040000
 40
211.2484450000
 50
326.5491550000
 51
328.8725500000
  0
ARC
  8
1
 62
     3
 10
-72.7586750000
 20
69.8337420000
 40
160.9137820000
 50
95.0064030000
 51
100.0179480000
  0
ARC
  8
1
 62
     3
 10
-183.8804830000
 20
5.3965860000
 40
298.0147580000
 50
345.0417020000
 51
347.9167900000
  0
ARC
  8
1
 62
     3
 10
-68.7756080000
 20
63.5613780000
 40
148.2416900000
 50
120.5617400000
 51
124.1946580000
  0
ARC
  8
1
 62
     3
 10
-182.6215600000
 20
-5.0627130000
 40
296.7132280000
 50
11.7850020000
 51
15.0524690000
  0
ARC
  8
1
 62
     3
 10
-150.0484400000
 20
0.5486120000
 40
263.8021890000
 50
355.2570880000
 51
357.5640780000
  0
LINE
  8
1
  6
CENTERLINE
 62
     7
 10
0.0000000000
 20
69.0601356212
 11
0.0000000000
 21
-66.4694971469
  0
LINE
  8
21
  6
CENTERLINE
 10
-261.7608400000
 20
0.0000000000
 11
113.7420549962
 21
0.0000000000
  0
LINE
  8
21
  6
CENTERLINE
 10
-74.0093925019
 20
-237.5838382794
 11
-74.0093925019
 21
262.0441756221
  0
POINT
  8
0
 10
-74.0093925019
 20
230.7414967894
  0
POINT
  8
0
 10
-74.0093925019
 20
210.7408385900
  0
POINT
  8
0
 10
-74.0093925019
 20
-230.7405652765
  0
POINT
  8
0
 10
-74.0093925019
 20
-210.7399032832
  0
POINT
  8
0
 10
113.7420559962
 20
0.0000000000
  0
POINT
  8
0
 10
93.7420559959
 20
0.0000000000
  0
POINT
  8
0
 10
-241.7608400000
 20
0.0000000000
  0
POINT
  8
0
 10
-261.7608400000
 20
0.0000000000
  0
ENDSEC
  0
EOF
