  0
SECTION
  2
HEADER
  9
$ACADVER
  1
AC1015
  9
$ACADMAINTVER
 70
    20
  9
$DWGCODEPAGE
  3
ANSI_949
  9
$INSBASE
 10
0.0
 20
0.0
 30
0.0
  9
$EXTMIN
 10
22.21164809521633
 20
16.34475206226352
 30
-0.0000000000000188
  9
$EXTMAX
 10
1217.617700898625
 20
431.3584106653499
 30
0.0000000000000118
  9
$LIMMIN
 10
0.0
 20
0.0
  9
$LIMMAX
 10
594.0
 20
420.0
  9
$ORTHOMODE
 70
     1
  9
$REGENMODE
 70
     1
  9
$FILLMODE
 70
     1
  9
$QTEXTMODE
 70
     0
  9
$MIRRTEXT
 70
     0
  9
$LTSCALE
 40
0.1
  9
$ATTMODE
 70
     1
  9
$TEXTSIZE
 40
4.52575840932809
  9
$TRACEWID
 40
1.0
  9
$TEXTSTYLE
  7
Standard
  9
$CLAYER
  8
0
  9
$CELTYPE
  6
ByLayer
  9
$CECOLOR
 62
   256
  9
$CELTSCALE
 40
1.0
  9
$DISPSILH
 70
     0
  9
$DIMSCALE
 40
0.0
  9
$DIMASZ
 40
3.149999999999999
  9
$DIMEXO
 40
1.0
  9
$DIMDLI
 40
8.0
  9
$DIMRND
 40
0.0
  9
$DIMDLE
 40
0.0
  9
$DIMEXE
 40
2.0
  9
$DIMTP
 40
0.0
  9
$DIMTM
 40
0.2
  9
$DIMTXT
 40
3.149999999999999
  9
$DIMCEN
 40
0.0
  9
$DIMTSZ
 40
0.0
  9
$DIMTOL
 70
     0
  9
$DIMLIM
 70
     0
  9
$DIMTIH
 70
     0
  9
$DIMTOH
 70
     0
  9
$DIMSE1
 70
     0
  9
$DIMSE2
 70
     0
  9
$DIMTAD
 70
     1
  9
$DIMZIN
 70
     8
  9
$DIMBLK
  1

  9
$DIMASO
 70
     1
  9
$DIMSHO
 70
     1
  9
$DIMPOST
  1

  9
$DIMAPOST
  1

  9
$DIMALT
 70
     0
  9
$DIMALTD
 70
     4
  9
$DIMALTF
 40
0.0394
  9
$DIMLFAC
 40
1.0
  9
$DIMTOFL
 70
     1
  9
$DIMTVP
 40
0.0
  9
$DIMTIX
 70
     0
  9
$DIMSOXD
 70
     0
  9
$DIMSAH
 70
     0
  9
$DIMBLK1
  1

  9
$DIMBLK2
  1

  9
$DIMSTYLE
  2
ISO-25_WS
  9
$DIMCLRD
 70
     4
  9
$DIMCLRE
 70
     4
  9
$DIMCLRT
 70
     2
  9
$DIMTFAC
 40
0.7
  9
$DIMGAP
 40
0.8
  9
$DIMJUST
 70
     0
  9
$DIMSD1
 70
     0
  9
$DIMSD2
 70
     0
  9
$DIMTOLJ
 70
     1
  9
$DIMTZIN
 70
     8
  9
$DIMALTZ
 70
     0
  9
$DIMALTTZ
 70
     0
  9
$DIMUPT
 70
     0
  9
$DIMDEC
 70
     0
  9
$DIMTDEC
 70
     0
  9
$DIMALTU
 70
     8
  9
$DIMALTTD
 70
     4
  9
$DIMTXSTY
  7
ROMAN
  9
$DIMAUNIT
 70
     0
  9
$DIMADEC
 70
     0
  9
$DIMALTRND
 40
0.0
  9
$DIMAZIN
 70
     0
  9
$DIMDSEP
 70
    46
  9
$DIMATFIT
 70
     3
  9
$DIMFRAC
 70
     0
  9
$DIMLDRBLK
  1

  9
$DIMLUNIT
 70
     2
  9
$DIMLWD
 70
    -2
  9
$DIMLWE
 70
    -2
  9
$DIMTMOVE
 70
     0
  9
$LUNITS
 70
     2
  9
$LUPREC
 70
     4
  9
$SKETCHINC
 40
1.0
  9
$FILLETRAD
 40
2.0
  9
$AUNITS
 70
     0
  9
$AUPREC
 70
     0
  9
$MENU
  1
.
  9
$ELEVATION
 40
0.0
  9
$PELEVATION
 40
0.0
  9
$THICKNESS
 40
0.0
  9
$LIMCHECK
 70
     0
  9
$CHAMFERA
 40
0.0
  9
$CHAMFERB
 40
0.0
  9
$CHAMFERC
 40
0.0
  9
$CHAMFERD
 40
0.0
  9
$SKPOLY
 70
     0
  9
$TDCREATE
 40
2454746.567123658
  9
$TDUCREATE
 40
2454746.192123658
  9
$TDUPDATE
 40
2454847.476256505
  9
$TDUUPDATE
 40
2454847.101256505
  9
$TDINDWG
 40
1.6042312037
  9
$TDUSRTIMER
 40
1.6042176273
  9
$USRTIMER
 70
     1
  9
$ANGBASE
 50
0.0
  9
$ANGDIR
 70
     0
  9
$PDMODE
 70
     0
  9
$PDSIZE
 40
0.0
  9
$PLINEWID
 40
0.0
  9
$SPLFRAME
 70
     0
  9
$SPLINETYPE
 70
     6
  9
$SPLINESEGS
 70
     8
  9
$HANDSEED
  5
70FA6
  9
$SURFTAB1
 70
     6
  9
$SURFTAB2
 70
     6
  9
$SURFTYPE
 70
     6
  9
$SURFU
 70
     6
  9
$SURFV
 70
     6
  9
$UCSBASE
  2

  9
$UCSNAME
  2

  9
$UCSORG
 10
0.0
 20
0.0
 30
0.0
  9
$UCSXDIR
 10
1.0
 20
0.0
 30
0.0
  9
$UCSYDIR
 10
0.0
 20
1.0
 30
0.0
  9
$UCSORTHOREF
  2

  9
$UCSORTHOVIEW
 70
     0
  9
$UCSORGTOP
 10
0.0
 20
0.0
 30
0.0
  9
$UCSORGBOTTOM
 10
0.0
 20
0.0
 30
0.0
  9
$UCSORGLEFT
 10
0.0
 20
0.0
 30
0.0
  9
$UCSORGRIGHT
 10
0.0
 20
0.0
 30
0.0
  9
$UCSORGFRONT
 10
0.0
 20
0.0
 30
0.0
  9
$UCSORGBACK
 10
0.0
 20
0.0
 30
0.0
  9
$PUCSBASE
  2

  9
$PUCSNAME
  2

  9
$PUCSORG
 10
0.0
 20
0.0
 30
0.0
  9
$PUCSXDIR
 10
1.0
 20
0.0
 30
0.0
  9
$PUCSYDIR
 10
0.0
 20
1.0
 30
0.0
  9
$PUCSORTHOREF
  2

  9
$PUCSORTHOVIEW
 70
     0
  9
$PUCSORGTOP
 10
0.0
 20
0.0
 30
0.0
  9
$PUCSORGBOTTOM
 10
0.0
 20
0.0
 30
0.0
  9
$PUCSORGLEFT
 10
0.0
 20
0.0
 30
0.0
  9
$PUCSORGRIGHT
 10
0.0
 20
0.0
 30
0.0
  9
$PUCSORGFRONT
 10
0.0
 20
0.0
 30
0.0
  9
$PUCSORGBACK
 10
0.0
 20
0.0
 30
0.0
  9
$USERI1
 70
     0
  9
$USERI2
 70
     0
  9
$USERI3
 70
     0
  9
$USERI4
 70
     0
  9
$USERI5
 70
     0
  9
$USERR1
 40
0.0
  9
$USERR2
 40
0.0
  9
$USERR3
 40
0.0
  9
$USERR4
 40
0.0
  9
$USERR5
 40
0.0
  9
$WORLDVIEW
 70
     1
  9
$SHADEDGE
 70
     3
  9
$SHADEDIF
 70
    70
  9
$TILEMODE
 70
     1
  9
$MAXACTVP
 70
    64
  9
$PINSBASE
 10
0.0
 20
0.0
 30
0.0
  9
$PLIMCHECK
 70
     0
  9
$PEXTMIN
 10
1.000000000000000E+20
 20
1.000000000000000E+20
 30
1.000000000000000E+20
  9
$PEXTMAX
 10
-1.000000000000000E+20
 20
-1.000000000000000E+20
 30
-1.000000000000000E+20
  9
$PLIMMIN
 10
0.0
 20
0.0
  9
$PLIMMAX
 10
420.0
 20
297.0
  9
$UNITMODE
 70
     0
  9
$VISRETAIN
 70
     1
  9
$PLINEGEN
 70
     0
  9
$PSLTSCALE
 70
     1
  9
$TREEDEPTH
 70
  3020
  9
$CMLSTYLE
  2
Standard
  9
$CMLJUST
 70
     0
  9
$CMLSCALE
 40
20.0
  9
$PROXYGRAPHICS
 70
     1
  9
$MEASUREMENT
 70
     1
  9
$CELWEIGHT
370
    -1
  9
$ENDCAPS
280
     0
  9
$JOINSTYLE
280
     0
  9
$LWDISPLAY
290
     0
  9
$INSUNITS
 70
     4
  9
$HYPERLINKBASE
  1

  9
$STYLESHEET
  1
1.CTB
  9
$XEDIT
290
     1
  9
$CEPSNTYPE
380
     0
  9
$PSTYLEMODE
290
     1
  9
$FINGERPRINTGUID
  2
{EF8575CC-8DD8-48E6-8D82-C69C905C8F60}
  9
$VERSIONGUID
  2
{7097D248-77D2-47C1-8ABA-4FF555762C27}
  9
$EXTNAMES
290
     1
  9
$PSVPSCALE
 40
0.0
  9
$OLESTARTUP
290
     0
  0
ENDSEC
  0
SECTION
  2
CLASSES
  0
CLASS
  1
ACDBDICTIONARYWDFLT
  2
AcDbDictionaryWithDefault
  3
ObjectDBX Classes
 90
        0
280
     0
281
     0
  0
CLASS
  1
MATERIAL
  2
AcDbMaterial
  3
ObjectDBX Classes
 90
     1153
280
     0
281
     0
  0
CLASS
  1
VISUALSTYLE
  2
AcDbVisualStyle
  3
ObjectDBX Classes
 90
     4095
280
     0
281
     0
  0
CLASS
  1
TABLESTYLE
  2
AcDbTableStyle
  3
ObjectDBX Classes
 90
     4095
280
     0
281
     0
  0
CLASS
  1
DICTIONARYVAR
  2
AcDbDictionaryVar
  3
ObjectDBX Classes
 90
        0
280
     0
281
     0
  0
CLASS
  1
SORTENTSTABLE
  2
AcDbSortentsTable
  3
ObjectDBX Classes
 90
        0
280
     0
281
     0
  0
CLASS
  1
SCALE
  2
AcDbScale
  3
ObjectDBX Classes
 90
     1153
280
     0
281
     0
  0
CLASS
  1
MLEADERSTYLE
  2
AcDbMLeaderStyle
  3
ACDB_MLEADERSTYLE_CLASS
 90
     4095
280
     0
281
     0
  0
CLASS
  1
CELLSTYLEMAP
  2
AcDbCellStyleMap
  3
ObjectDBX Classes
 90
     1152
280
     0
281
     0
  0
CLASS
  1
DIMASSOC
  2
AcDbDimAssoc
  3
"AcDbDimAssoc|Product Desc:     AcDim ARX App For Dimension|Company:          Autodesk, Inc.|WEB Address:      www.autodesk.com"
 90
        0
280
     0
281
     0
  0
CLASS
  1
EXACXREFPANELOBJECT
  2
ExAcXREFPanelObject
  3
EXAC_ESW
 90
    33793
280
     0
281
     0
  0
CLASS
  1
NPOCOLLECTION
  2
AcDbImpNonPersistentObjectsCollection
  3
ObjectDBX Classes
 90
    33921
280
     0
281
     0
  0
CLASS
  1
ACDBPLACEHOLDER
  2
AcDbPlaceHolder
  3
ObjectDBX Classes
 90
        0
280
     0
281
     0
  0
CLASS
  1
LAYOUT
  2
AcDbLayout
  3
ObjectDBX Classes
 90
        0
280
     0
281
     0
  0
ENDSEC
  0
SECTION
  2
TABLES
  0
TABLE
  2
VPORT
  5
8
330
0
100
AcDbSymbolTable
 70
     1
  0
VPORT
  5
28
330
8
100
AcDbSymbolTableRecord
100
AcDbViewportTableRecord
  2
*Active
 70
     0
 10
0.0
 20
0.0
 11
1.0
 21
1.0
 12
619.9146744969207
 22
223.8515813638068
 13
0.0
 23
0.0
 14
10.0
 24
10.0
 15
10.0
 25
10.0
 16
0.0
 26
0.0
 36
1.0
 17
0.0
 27
0.0
 37
0.0
 40
748.1015123634135
 41
1.605858854860186
 42
50.0
 43
0.0
 44
0.0
 50
0.0
 51
0.0
 71
     0
 72
  5000
 73
     1
 74
     2
 75
     0
 76
     0
 77
     0
 78
     2
281
     0
 65
     1
110
0.0
120
0.0
130
0.0
111
1.0
121
0.0
131
0.0
112
0.0
122
1.0
132
0.0
 79
     0
146
0.0
  0
ENDTAB
  0
TABLE
  2
LTYPE
  5
5
330
0
100
AcDbSymbolTable
 70
     8
  0
LTYPE
  5
29
330
5
100
AcDbSymbolTableRecord
100
AcDbLinetypeTableRecord
  2
ByBlock
 70
     0
  3

 72
    65
 73
     0
 40
0.0
  0
LTYPE
  5
2A
330
5
100
AcDbSymbolTableRecord
100
AcDbLinetypeTableRecord
  2
ByLayer
 70
     0
  3

 72
    65
 73
     0
 40
0.0
  0
LTYPE
  5
2B
330
5
100
AcDbSymbolTableRecord
100
AcDbLinetypeTableRecord
  2
Continuous
 70
     0
  3
Solid line
 72
    65
 73
     0
 40
0.0
  0
LTYPE
  5
69
330
5
100
AcDbSymbolTableRecord
100
AcDbLinetypeTableRecord
  2
CENTER2
 70
     0
  3
Center (.5x) ___ _ ___ _ ___ _ ___ _ ___ _ ___
 72
    65
 73
     4
 40
28.575
 49
19.05
 74
     0
 49
-3.174999999999998
 74
     0
 49
3.174999999999998
 74
     0
 49
-3.174999999999998
 74
     0
  0
ENDTAB
  0
TABLE
  2
LAYER
  5
2
102
{ACAD_XDICTIONARY
360
6C
102
}
330
0
100
AcDbSymbolTable
 70
    31
  0
LAYER
  5
25
102
{ACAD_XDICTIONARY
360
65D
102
}
330
2
100
AcDbSymbolTableRecord
100
AcDbLayerTableRecord
  2
0
 70
     0
 62
     7
  6
Continuous
370
    -3
390
F
  0
LAYER
  5
743
330
2
100
AcDbSymbolTableRecord
100
AcDbLayerTableRecord
  2
DEFPOINTS
 70
     0
 62
     7
  6
Continuous
290
     0
370
    -3
390
F
  0
LAYER
  5
744
102
{ACAD_XDICTIONARY
360
745
102
}
330
2
100
AcDbSymbolTableRecord
100
AcDbLayerTableRecord
  2
1
 70
     0
 62
     7
  6
Continuous
370
    -3
390
F
  0
LAYER
  5
7B46
102
{ACAD_XDICTIONARY
360
7B47
102
}
330
2
100
AcDbSymbolTableRecord
100
AcDbLayerTableRecord
  2
2
 70
     0
 62
     7
  6
Continuous
370
    -3
390
F
  0
ENDTAB
  0
TABLE
  2
STYLE
  5
3
330
0
100
AcDbSymbolTable
 70
    12
  0
STYLE
  5
26
330
3
100
AcDbSymbolTableRecord
100
AcDbTextStyleTableRecord
  2
Standard
 70
     0
 40
0.0
 41
0.8
 50
0.0
 71
     0
 42
4.52575840932809
  3
romans.shx
  4

  0
STYLE
  5
748
330
3
100
AcDbSymbolTableRecord
100
AcDbTextStyleTableRecord
  2
RR
 70
     0
 40
0.0
 41
0.8
 50
0.0
 71
     0
 42
2.5
  3
Batang.ttf
  4

1001
ACAD
1000
Batang
1071
    33042
  0
STYLE
  5
749
330
3
100
AcDbSymbolTableRecord
100
AcDbTextStyleTableRecord
  2
ROMAN
 70
     0
 40
0.0
 41
1.0
 50
0.0
 71
     0
 42
4.0
  3
SIMPLEX.shx
  4

  0
ENDTAB
  0
TABLE
  2
VIEW
  5
6
330
0
100
AcDbSymbolTable
 70
     0
  0
ENDTAB
  0
TABLE
  2
UCS
  5
7
330
0
100
AcDbSymbolTable
 70
     0
  0
ENDTAB
  0
TABLE
  2
APPID
  5
9
330
0
100
AcDbSymbolTable
 70
    12
  0
APPID
  5
27
330
9
100
AcDbSymbolTableRecord
100
AcDbRegAppTableRecord
  2
ACAD
 70
     0
  0
APPID
  5
63
330
9
100
AcDbSymbolTableRecord
100
AcDbRegAppTableRecord
  2
AcAecLayerStandard
 70
     0
  0
APPID
  5
70
330
9
100
AcDbSymbolTableRecord
100
AcDbRegAppTableRecord
  2
ACAD_EXEMPT_FROM_CAD_STANDARDS
 70
     0
  0
APPID
  5
8B
330
9
100
AcDbSymbolTableRecord
100
AcDbRegAppTableRecord
  2
ACAD_PSEXT
 70
     0
  0
APPID
  5
659
330
9
100
AcDbSymbolTableRecord
100
AcDbRegAppTableRecord
  2
ACAD_MLEADERVER
 70
     0
  0
APPID
  5
667
330
9
100
AcDbSymbolTableRecord
100
AcDbRegAppTableRecord
  2
DCO15
 70
     0
  0
APPID
  5
AA9
330
9
100
AcDbSymbolTableRecord
100
AcDbRegAppTableRecord
  2
ACAD_DSTYLE_DIMRADIAL_EXTENSION
 70
     0
  0
APPID
  5
B16
330
9
100
AcDbSymbolTableRecord
100
AcDbRegAppTableRecord
  2
ACAD_DSTYLE_DIMJAG
 70
     0
  0
APPID
  5
B17
330
9
100
AcDbSymbolTableRecord
100
AcDbRegAppTableRecord
  2
ACAD_DSTYLE_DIMTALN
 70
     0
  0
APPID
  5
23F3
330
9
100
AcDbSymbolTableRecord
100
AcDbRegAppTableRecord
  2
AcadAnnotative
 70
     0
  0
APPID
  5
14ABE
330
9
100
AcDbSymbolTableRecord
100
AcDbRegAppTableRecord
  2
ACAD_DSTYLE_DIMEXT_LENGTH
 70
     0
  0
APPID
  5
3B4A1
330
9
100
AcDbSymbolTableRecord
100
AcDbRegAppTableRecord
  2
AcDbBlockRepETag
 70
     0
  0
ENDTAB
  0
TABLE
  2
DIMSTYLE
  5
A
330
0
100
AcDbSymbolTable
 70
     5
100
AcDbDimStyleTable
 71
     1
340
74A
  0
DIMSTYLE
105
150
102
{ACAD_REACTORS
330
2A42A
330
2A42B
330
2A42C
330
2A42D
330
2A42E
330
2A42F
330
2A430
330
2A431
330
2A432
102
}
330
A
100
AcDbSymbolTableRecord
100
AcDbDimStyleTableRecord
  2
STANDARD
 70
     0
340
26
  0
DIMSTYLE
105
74A
102
{ACAD_REACTORS
330
1244
330
1248
330
124D
330
1252
330
1254
330
1255
330
1264
330
2AAF
330
2AB0
330
2AB1
330
7FDA
330
7FF9
330
8015
330
805A
330
805C
330
805D
330
805F
330
8068
330
806E
330
8071
330
8081
330
80CA
330
80CB
330
80D0
330
80DC
330
8054
330
806F
330
8082
330
6F6F5
330
6F6F2
330
6F6EF
330
6F6EC
330
6F6E9
330
6EABD
330
6EAA5
330
6EA85
330
6EA6D
330
6EA55
330
6EA3D
330
6EA25
330
6EA0D
330
6E9F7
330
6E9DF
330
6E9C7
330
6E9AF
330
6E997
330
6E97F
330
6E967
330
6E94F
330
6E938
330
6E920
330
6E907
330
6E8EF
330
6E8D7
330
6E8BF
330
6E8A7
330
6E88F
330
6E878
330
6E860
330
6E848
330
6E830
330
6E818
330
6E800
330
6E7D2
330
6E7BA
330
6E7A2
330
6E78A
330
6E772
330
6FC7D
330
6FC93
102
}
330
A
100
AcDbSymbolTableRecord
100
AcDbDimStyleTableRecord
  2
ISO-25_WS
 70
     0
 40
0.0
 41
3.149999999999999
 42
1.0
 43
8.0
 44
2.0
 48
0.2
 73
     0
 74
     0
 77
     1
 78
     8
140
3.149999999999999
141
0.0
143
0.0394
146
0.7
147
0.8
171
     4
172
     1
176
     4
177
     4
178
     2
271
     0
272
     0
273
     8
274
     4
284
     8
340
749
1001
ACAD_DSTYLE_DIMJAG
1070
   388
1040
1.5
1001
ACAD_DSTYLE_DIMTALN
1070
   392
1070
     0
  0
ENDTAB
  0
TABLE
  2
BLOCK_RECORD
  5
1
330
0
100
AcDbSymbolTable
 70
  6942
  0
BLOCK_RECORD
  5
37
102
{ACAD_XDICTIONARY
360
9D
102
}
330
1
100
AcDbSymbolTableRecord
100
AcDbBlockTableRecord
  2
*Model_Space
340
3A
  0
BLOCK_RECORD
  5
33
330
1
100
AcDbSymbolTableRecord
100
AcDbBlockTableRecord
  2
*Paper_Space
340
36
  0
BLOCK_RECORD
  5
3B
330
1
100
AcDbSymbolTableRecord
100
AcDbBlockTableRecord
  2
*Paper_Space0
340
3E
  0
BLOCK_RECORD
  5
6E773
330
1
100
AcDbSymbolTableRecord
100
AcDbBlockTableRecord
  2
*D6892
340
0
  0
BLOCK_RECORD
  5
6E78B
330
1
100
AcDbSymbolTableRecord
100
AcDbBlockTableRecord
  2
*D6893
340
0
  0
BLOCK_RECORD
  5
6E7A3
330
1
100
AcDbSymbolTableRecord
100
AcDbBlockTableRecord
  2
*D6894
340
0
  0
BLOCK_RECORD
  5
6E7BB
330
1
100
AcDbSymbolTableRecord
100
AcDbBlockTableRecord
  2
*D6895
340
0
  0
BLOCK_RECORD
  5
6E7D3
330
1
100
AcDbSymbolTableRecord
100
AcDbBlockTableRecord
  2
*D6896
340
0
  0
BLOCK_RECORD
  5
6E801
330
1
100
AcDbSymbolTableRecord
100
AcDbBlockTableRecord
  2
*D6898
340
0
  0
BLOCK_RECORD
  5
6E819
330
1
100
AcDbSymbolTableRecord
100
AcDbBlockTableRecord
  2
*D6899
340
0
  0
BLOCK_RECORD
  5
6E831
330
1
100
AcDbSymbolTableRecord
100
AcDbBlockTableRecord
  2
*D6900
340
0
  0
BLOCK_RECORD
  5
6E849
330
1
100
AcDbSymbolTableRecord
100
AcDbBlockTableRecord
  2
*D6901
340
0
  0
BLOCK_RECORD
  5
6E861
330
1
100
AcDbSymbolTableRecord
100
AcDbBlockTableRecord
  2
*D6902
340
0
  0
BLOCK_RECORD
  5
6E879
330
1
100
AcDbSymbolTableRecord
100
AcDbBlockTableRecord
  2
*D6903
340
0
  0
BLOCK_RECORD
  5
6E890
330
1
100
AcDbSymbolTableRecord
100
AcDbBlockTableRecord
  2
*D6904
340
0
  0
BLOCK_RECORD
  5
6E8A8
330
1
100
AcDbSymbolTableRecord
100
AcDbBlockTableRecord
  2
*D6905
340
0
  0
BLOCK_RECORD
  5
6E8C0
330
1
100
AcDbSymbolTableRecord
100
AcDbBlockTableRecord
  2
*D6906
340
0
  0
BLOCK_RECORD
  5
6E8D8
330
1
100
AcDbSymbolTableRecord
100
AcDbBlockTableRecord
  2
*D6907
340
0
  0
BLOCK_RECORD
  5
6E8F0
330
1
100
AcDbSymbolTableRecord
100
AcDbBlockTableRecord
  2
*D6908
340
0
  0
BLOCK_RECORD
  5
6E908
330
1
100
AcDbSymbolTableRecord
100
AcDbBlockTableRecord
  2
*D6909
340
0
  0
BLOCK_RECORD
  5
6E921
330
1
100
AcDbSymbolTableRecord
100
AcDbBlockTableRecord
  2
*D6910
340
0
  0
BLOCK_RECORD
  5
6E939
330
1
100
AcDbSymbolTableRecord
100
AcDbBlockTableRecord
  2
*D6911
340
0
  0
BLOCK_RECORD
  5
6E950
330
1
100
AcDbSymbolTableRecord
100
AcDbBlockTableRecord
  2
*D6912
340
0
  0
BLOCK_RECORD
  5
6E968
330
1
100
AcDbSymbolTableRecord
100
AcDbBlockTableRecord
  2
*D6913
340
0
  0
BLOCK_RECORD
  5
6E980
330
1
100
AcDbSymbolTableRecord
100
AcDbBlockTableRecord
  2
*D6914
340
0
  0
BLOCK_RECORD
  5
6E998
330
1
100
AcDbSymbolTableRecord
100
AcDbBlockTableRecord
  2
*D6915
340
0
  0
BLOCK_RECORD
  5
6E9B0
330
1
100
AcDbSymbolTableRecord
100
AcDbBlockTableRecord
  2
*D6916
340
0
  0
BLOCK_RECORD
  5
6E9C8
330
1
100
AcDbSymbolTableRecord
100
AcDbBlockTableRecord
  2
*D6917
340
0
  0
BLOCK_RECORD
  5
6E9E0
330
1
100
AcDbSymbolTableRecord
100
AcDbBlockTableRecord
  2
*D6918
340
0
  0
BLOCK_RECORD
  5
6E9F8
330
1
100
AcDbSymbolTableRecord
100
AcDbBlockTableRecord
  2
*D6919
340
0
  0
BLOCK_RECORD
  5
6EA0E
330
1
100
AcDbSymbolTableRecord
100
AcDbBlockTableRecord
  2
*D6920
340
0
  0
BLOCK_RECORD
  5
6EA26
330
1
100
AcDbSymbolTableRecord
100
AcDbBlockTableRecord
  2
*D6921
340
0
  0
BLOCK_RECORD
  5
6EA3E
330
1
100
AcDbSymbolTableRecord
100
AcDbBlockTableRecord
  2
*D6922
340
0
  0
BLOCK_RECORD
  5
6EA56
330
1
100
AcDbSymbolTableRecord
100
AcDbBlockTableRecord
  2
*D6923
340
0
  0
BLOCK_RECORD
  5
6EA6E
330
1
100
AcDbSymbolTableRecord
100
AcDbBlockTableRecord
  2
*D6924
340
0
  0
BLOCK_RECORD
  5
6EA86
330
1
100
AcDbSymbolTableRecord
100
AcDbBlockTableRecord
  2
*D6925
340
0
  0
BLOCK_RECORD
  5
6EAA6
330
1
100
AcDbSymbolTableRecord
100
AcDbBlockTableRecord
  2
*D6926
340
0
  0
BLOCK_RECORD
  5
6EABE
330
1
100
AcDbSymbolTableRecord
100
AcDbBlockTableRecord
  2
*D6927
340
0
  0
BLOCK_RECORD
  5
6F6FF
330
1
100
AcDbSymbolTableRecord
100
AcDbBlockTableRecord
  2
*D6933
340
0
  0
BLOCK_RECORD
  5
6F70B
330
1
100
AcDbSymbolTableRecord
100
AcDbBlockTableRecord
  2
*D6934
340
0
  0
BLOCK_RECORD
  5
6F717
330
1
100
AcDbSymbolTableRecord
100
AcDbBlockTableRecord
  2
*D6935
340
0
  0
BLOCK_RECORD
  5
6F723
330
1
100
AcDbSymbolTableRecord
100
AcDbBlockTableRecord
  2
*D6936
340
0
  0
BLOCK_RECORD
  5
6F72F
330
1
100
AcDbSymbolTableRecord
100
AcDbBlockTableRecord
  2
*D6937
340
0
  0
BLOCK_RECORD
  5
6FC7E
330
1
100
AcDbSymbolTableRecord
100
AcDbBlockTableRecord
  2
*D6940
340
0
  0
BLOCK_RECORD
  5
6FC94
330
1
100
AcDbSymbolTableRecord
100
AcDbBlockTableRecord
  2
*D6941
340
0
  0
ENDTAB
  0
ENDSEC
  0
SECTION
  2
BLOCKS
  0
BLOCK
  5
38
330
37
100
AcDbEntity
  8
0
100
AcDbBlockBegin
  2
*Model_Space
 70
     0
 10
0.0
 20
0.0
 30
0.0
  3
*Model_Space
  1

  0
ENDBLK
  5
39
330
37
100
AcDbEntity
  8
0
100
AcDbBlockEnd
  0
BLOCK
  5
34
330
33
100
AcDbEntity
 67
     1
  8
0
100
AcDbBlockBegin
  2
*Paper_Space
 70
     0
 10
0.0
 20
0.0
 30
0.0
  3
*Paper_Space
  1

  0
ENDBLK
  5
35
330
33
100
AcDbEntity
 67
     1
  8
0
100
AcDbBlockEnd
  0
BLOCK
  5
3C
330
3B
100
AcDbEntity
 67
     1
  8
0
100
AcDbBlockBegin
  2
*Paper_Space0
 70
     0
 10
0.0
 20
0.0
 30
0.0
  3
*Paper_Space0
  1

  0
ENDBLK
  5
3D
330
3B
100
AcDbEntity
 67
     1
  8
0
100
AcDbBlockEnd
  0
BLOCK
  5
6E774
330
6E773
100
AcDbEntity
  8
0
100
AcDbBlockBegin
  2
*D6892
 70
     1
 10
0.0
 20
0.0
 30
0.0
  3
*D6892
  1

  0
LINE
  5
7099C
330
6E773
100
AcDbEntity
  8
0
 62
     4
370
    -2
100
AcDbLine
 10
235.9635312194298
 20
270.4934471444015
 30
0.0
 11
235.9635312194298
 21
281.7288258039077
 31
0.0
  0
LINE
  5
7099D
330
6E773
100
AcDbEntity
  8
0
 62
     4
370
    -2
100
AcDbLine
 10
290.9635312194298
 20
270.4934471444015
 30
0.0
 11
290.9635312194298
 21
281.7288258039077
 31
0.0
  0
LINE
  5
7099E
330
6E773
100
AcDbEntity
  8
0
 62
     4
370
    -2
100
AcDbLine
 10
239.1135312194298
 20
279.7288258039078
 30
0.0
 11
287.8135312194298
 21
279.7288258039078
 31
0.0
  0
SOLID
  5
7099F
330
6E773
100
AcDbEntity
  8
0
 62
     4
100
AcDbTrace
 10
239.1135312194298
 20
280.2538258039077
 30
0.0
 11
239.1135312194298
 21
279.2038258039077
 31
0.0
 12
235.9635312194298
 22
279.7288258039078
 32
0.0
 13
235.9635312194298
 23
279.7288258039078
 33
0.0
  0
SOLID
  5
709A0
330
6E773
100
AcDbEntity
  8
0
 62
     4
100
AcDbTrace
 10
287.8135312194298
 20
280.2538258039077
 30
0.0
 11
287.8135312194298
 21
279.2038258039077
 31
0.0
 12
290.9635312194298
 22
279.7288258039078
 32
0.0
 13
290.9635312194298
 23
279.7288258039078
 33
0.0
  0
MTEXT
  5
709A1
330
6E773
100
AcDbEntity
  8
0
 62
     2
100
AcDbMText
 10
263.4635312194298
 20
282.1038258039077
 30
0.0
 40
3.149999999999999
 41
0.0
 71
     5
 72
     1
  1
\A1;55
  7
ROMAN
 73
     1
 44
1.0
1001
ACAD
1000
MTEXTBEGIN
1070
    73
1070
     1
1070
    44
1040
1.0
1070
    74
1070
     0
1000
MTEXTEND
  0
POINT
  5
709A2
330
6E773
100
AcDbEntity
  8
DEFPOINTS
 62
     0
100
AcDbPoint
 10
235.9635312194298
 20
269.4934471444014
 30
0.0
  0
POINT
  5
709A3
330
6E773
100
AcDbEntity
  8
DEFPOINTS
 62
     0
100
AcDbPoint
 10
290.9635312194298
 20
269.4934471444014
 30
0.0
  0
POINT
  5
709A4
330
6E773
100
AcDbEntity
  8
DEFPOINTS
 62
     0
100
AcDbPoint
 10
290.9635312194298
 20
279.7288258039078
 30
0.0
  0
ENDBLK
  5
6E775
330
6E773
100
AcDbEntity
  8
0
100
AcDbBlockEnd
  0
BLOCK
  5
6E78C
330
6E78B
100
AcDbEntity
  8
0
100
AcDbBlockBegin
  2
*D6893
 70
     1
 10
0.0
 20
0.0
 30
0.0
  3
*D6893
  1

  0
LINE
  5
709A5
330
6E78B
100
AcDbEntity
  8
0
 62
     4
370
    -2
100
AcDbLine
 10
228.4635312194307
 20
264.9934471444013
 30
0.0
 11
228.4635312194307
 21
291.9617329782952
 31
0.0
  0
LINE
  5
709A6
330
6E78B
100
AcDbEntity
  8
0
 62
     4
370
    -2
100
AcDbLine
 10
298.4635312194307
 20
264.9934471444013
 30
0.0
 11
298.4635312194307
 21
291.9617329782952
 31
0.0
  0
LINE
  5
709A7
330
6E78B
100
AcDbEntity
  8
0
 62
     4
370
    -2
100
AcDbLine
 10
231.6135312194307
 20
289.9617329782952
 30
0.0
 11
295.3135312194307
 21
289.9617329782952
 31
0.0
  0
SOLID
  5
709A8
330
6E78B
100
AcDbEntity
  8
0
 62
     4
100
AcDbTrace
 10
231.6135312194307
 20
290.4867329782952
 30
0.0
 11
231.6135312194307
 21
289.4367329782952
 31
0.0
 12
228.4635312194307
 22
289.9617329782952
 32
0.0
 13
228.4635312194307
 23
289.9617329782952
 33
0.0
  0
SOLID
  5
709A9
330
6E78B
100
AcDbEntity
  8
0
 62
     4
100
AcDbTrace
 10
295.3135312194307
 20
290.4867329782952
 30
0.0
 11
295.3135312194307
 21
289.4367329782952
 31
0.0
 12
298.4635312194307
 22
289.9617329782952
 32
0.0
 13
298.4635312194307
 23
289.9617329782952
 33
0.0
  0
MTEXT
  5
709AA
330
6E78B
100
AcDbEntity
  8
0
 62
     2
100
AcDbMText
 10
263.4635312194307
 20
292.3367329782952
 30
0.0
 40
3.149999999999999
 41
0.0
 71
     5
 72
     1
  1
\A1;70
  7
ROMAN
 73
     1
 44
1.0
1001
ACAD
1000
MTEXTBEGIN
1070
    73
1070
     1
1070
    44
1040
1.0
1070
    74
1070
     0
1000
MTEXTEND
  0
POINT
  5
709AB
330
6E78B
100
AcDbEntity
  8
DEFPOINTS
 62
     0
100
AcDbPoint
 10
228.4635312194307
 20
263.9934471444013
 30
0.0
  0
POINT
  5
709AC
330
6E78B
100
AcDbEntity
  8
DEFPOINTS
 62
     0
100
AcDbPoint
 10
298.4635312194307
 20
263.9934471444013
 30
0.0
  0
POINT
  5
709AD
330
6E78B
100
AcDbEntity
  8
DEFPOINTS
 62
     0
100
AcDbPoint
 10
298.4635312194307
 20
289.9617329782952
 30
0.0
  0
ENDBLK
  5
6E78D
330
6E78B
100
AcDbEntity
  8
0
100
AcDbBlockEnd
  0
BLOCK
  5
6E7A4
330
6E7A3
100
AcDbEntity
  8
0
100
AcDbBlockBegin
  2
*D6894
 70
     1
 10
0.0
 20
0.0
 30
0.0
  3
*D6894
  1

  0
LINE
  5
70B10
330
6E7A3
100
AcDbEntity
  8
0
 62
     4
370
    -2
100
AcDbLine
 10
296.3635312194298
 20
264.4934471444013
 30
0.0
 11
309.3446073119377
 21
264.4934471444013
 31
0.0
  0
LINE
  5
70B11
330
6E7A3
100
AcDbEntity
  8
0
 62
     4
370
    -2
100
AcDbLine
 10
296.9635312194299
 20
222.4934471444013
 30
0.0
 11
309.3446073119377
 21
222.4934471444013
 31
0.0
  0
LINE
  5
70B12
330
6E7A3
100
AcDbEntity
  8
0
 62
     4
370
    -2
100
AcDbLine
 10
307.3446073119377
 20
261.3434471444013
 30
0.0
 11
307.3446073119377
 21
225.6434471444013
 31
0.0
  0
SOLID
  5
70B13
330
6E7A3
100
AcDbEntity
  8
0
 62
     4
100
AcDbTrace
 10
306.8196073119377
 20
261.3434471444013
 30
0.0
 11
307.8696073119377
 21
261.3434471444013
 31
0.0
 12
307.3446073119377
 22
264.4934471444013
 32
0.0
 13
307.3446073119377
 23
264.4934471444013
 33
0.0
  0
SOLID
  5
70B14
330
6E7A3
100
AcDbEntity
  8
0
 62
     4
100
AcDbTrace
 10
306.8196073119377
 20
225.6434471444013
 30
0.0
 11
307.8696073119377
 21
225.6434471444013
 31
0.0
 12
307.3446073119377
 22
222.4934471444013
 32
0.0
 13
307.3446073119377
 23
222.4934471444013
 33
0.0
  0
MTEXT
  5
70B15
330
6E7A3
100
AcDbEntity
  8
0
 62
     2
100
AcDbMText
 10
304.9696073119376
 20
243.4934471444013
 30
0.0
 40
3.149999999999999
 41
0.0
 71
     5
 72
     1
  1
\A1;42
  7
ROMAN
 11
0.0000000000000001
 21
1.0
 31
0.0
 73
     1
 44
1.0
1001
ACAD
1000
MTEXTBEGIN
1070
    73
1070
     1
1070
    44
1040
1.0
1070
    74
1070
     0
1000
MTEXTEND
  0
POINT
  5
70B16
330
6E7A3
100
AcDbEntity
  8
DEFPOINTS
 62
     0
100
AcDbPoint
 10
295.3635312194298
 20
264.4934471444013
 30
0.0
  0
POINT
  5
70B17
330
6E7A3
100
AcDbEntity
  8
DEFPOINTS
 62
     0
100
AcDbPoint
 10
295.9635312194299
 20
222.4934471444013
 30
0.0
  0
POINT
  5
70B18
330
6E7A3
100
AcDbEntity
  8
DEFPOINTS
 62
     0
100
AcDbPoint
 10
307.3446073119377
 20
222.4934471444013
 30
0.0
  0
ENDBLK
  5
6E7A5
330
6E7A3
100
AcDbEntity
  8
0
100
AcDbBlockEnd
  0
BLOCK
  5
6E7BC
330
6E7BB
100
AcDbEntity
  8
0
100
AcDbBlockBegin
  2
*D6895
 70
     1
 10
0.0
 20
0.0
 30
0.0
  3
*D6895
  1

  0
LINE
  5
709B7
330
6E7BB
100
AcDbEntity
  8
0
 62
     4
370
    -2
100
AcDbLine
 10
290.9635312194298
 20
272.4934471444013
 30
0.0
 11
320.0013842416217
 21
272.4934471444013
 31
0.0
  0
LINE
  5
709B8
330
6E7BB
100
AcDbEntity
  8
0
 62
     4
370
    -2
100
AcDbLine
 10
290.9635312194298
 20
214.4934471444015
 30
0.0
 11
320.0013842416217
 21
214.4934471444014
 31
0.0
  0
LINE
  5
709B9
330
6E7BB
100
AcDbEntity
  8
0
 62
     4
370
    -2
100
AcDbLine
 10
318.0013842416217
 20
269.3434471444013
 30
0.0
 11
318.0013842416217
 21
217.6434471444014
 31
0.0
  0
SOLID
  5
709BA
330
6E7BB
100
AcDbEntity
  8
0
 62
     4
100
AcDbTrace
 10
317.4763842416218
 20
269.3434471444013
 30
0.0
 11
318.5263842416217
 21
269.3434471444013
 31
0.0
 12
318.0013842416217
 22
272.4934471444013
 32
0.0
 13
318.0013842416217
 23
272.4934471444013
 33
0.0
  0
SOLID
  5
709BB
330
6E7BB
100
AcDbEntity
  8
0
 62
     4
100
AcDbTrace
 10
317.4763842416218
 20
217.6434471444014
 30
0.0
 11
318.5263842416217
 21
217.6434471444014
 31
0.0
 12
318.0013842416217
 22
214.4934471444015
 32
0.0
 13
318.0013842416217
 23
214.4934471444015
 33
0.0
  0
MTEXT
  5
709BC
330
6E7BB
100
AcDbEntity
  8
0
 62
     2
100
AcDbMText
 10
315.6263842416217
 20
243.4934471444014
 30
0.0
 40
3.149999999999999
 41
0.0
 71
     5
 72
     1
  1
\A1;58
  7
ROMAN
 11
0.0000000000000001
 21
1.0
 31
0.0
 73
     1
 44
1.0
1001
ACAD
1000
MTEXTBEGIN
1070
    73
1070
     1
1070
    44
1040
1.0
1070
    74
1070
     0
1000
MTEXTEND
  0
POINT
  5
709BD
330
6E7BB
100
AcDbEntity
  8
DEFPOINTS
 62
     0
100
AcDbPoint
 10
289.9635312194298
 20
272.4934471444013
 30
0.0
  0
POINT
  5
709BE
330
6E7BB
100
AcDbEntity
  8
DEFPOINTS
 62
     0
100
AcDbPoint
 10
289.9635312194298
 20
214.4934471444015
 30
0.0
  0
POINT
  5
709BF
330
6E7BB
100
AcDbEntity
  8
DEFPOINTS
 62
     0
100
AcDbPoint
 10
318.0013842416217
 20
214.4934471444015
 30
0.0
  0
ENDBLK
  5
6E7BD
330
6E7BB
100
AcDbEntity
  8
0
100
AcDbBlockEnd
  0
BLOCK
  5
6E7D4
330
6E7D3
100
AcDbEntity
  8
0
100
AcDbBlockBegin
  2
*D6896
 70
     1
 10
0.0
 20
0.0
 30
0.0
  3
*D6896
  1

  0
LINE
  5
709C0
330
6E7D3
100
AcDbEntity
  8
0
 62
     4
370
    -2
100
AcDbLine
 10
299.4635312194298
 20
178.4934471444014
 30
0.0
 11
311.2813969037498
 21
178.4934471444014
 31
0.0
  0
LINE
  5
709C1
330
6E7D3
100
AcDbEntity
  8
0
 62
     4
370
    -2
100
AcDbLine
 10
235.4635312194298
 20
93.49345114440154
 30
0.0
 11
311.2813969037497
 21
93.49345114440152
 31
0.0
  0
LINE
  5
709C2
330
6E7D3
100
AcDbEntity
  8
0
 62
     4
370
    -2
100
AcDbLine
 10
309.2813969037498
 20
175.3434471444014
 30
0.0
 11
309.2813969037497
 21
96.64345114440154
 31
0.0
  0
SOLID
  5
709C3
330
6E7D3
100
AcDbEntity
  8
0
 62
     4
100
AcDbTrace
 10
308.7563969037498
 20
175.3434471444014
 30
0.0
 11
309.8063969037498
 21
175.3434471444014
 31
0.0
 12
309.2813969037498
 22
178.4934471444014
 32
0.0
 13
309.2813969037498
 23
178.4934471444014
 33
0.0
  0
SOLID
  5
709C4
330
6E7D3
100
AcDbEntity
  8
0
 62
     4
100
AcDbTrace
 10
308.7563969037498
 20
96.64345114440154
 30
0.0
 11
309.8063969037497
 21
96.64345114440154
 31
0.0
 12
309.2813969037497
 22
93.49345114440152
 32
0.0
 13
309.2813969037497
 23
93.49345114440152
 33
0.0
  0
MTEXT
  5
709C5
330
6E7D3
100
AcDbEntity
  8
0
 62
     2
100
AcDbMText
 10
306.9063969037497
 20
135.9934491444015
 30
0.0
 40
3.149999999999999
 41
0.0
 71
     5
 72
     1
  1
\A1;85
  7
ROMAN
 11
0.0000000000000001
 21
1.0
 31
0.0
 73
     1
 44
1.0
1001
ACAD
1000
MTEXTBEGIN
1070
    73
1070
     1
1070
    44
1040
1.0
1070
    74
1070
     0
1000
MTEXTEND
  0
POINT
  5
709C6
330
6E7D3
100
AcDbEntity
  8
DEFPOINTS
 62
     0
100
AcDbPoint
 10
298.4635312194298
 20
178.4934471444014
 30
0.0
  0
POINT
  5
709C7
330
6E7D3
100
AcDbEntity
  8
DEFPOINTS
 62
     0
100
AcDbPoint
 10
234.4635312194298
 20
93.49345114440154
 30
0.0
  0
POINT
  5
709C8
330
6E7D3
100
AcDbEntity
  8
DEFPOINTS
 62
     0
100
AcDbPoint
 10
309.2813969037497
 20
93.49345114440152
 30
0.0
  0
ENDBLK
  5
6E7D5
330
6E7D3
100
AcDbEntity
  8
0
100
AcDbBlockEnd
  0
BLOCK
  5
6E802
330
6E801
100
AcDbEntity
  8
0
100
AcDbBlockBegin
  2
*D6898
 70
     1
 10
0.0
 20
0.0
 30
0.0
  3
*D6898
  1

  0
LINE
  5
709C9
330
6E801
100
AcDbEntity
  8
0
 62
     4
370
    -2
100
AcDbLine
 10
409.5988405366326
 20
274.2763066778315
 30
0.0
 11
409.5988405366326
 21
285.8575983861281
 31
0.0
  0
LINE
  5
709CA
330
6E801
100
AcDbEntity
  8
0
 62
     4
370
    -2
100
AcDbLine
 10
464.5988405366327
 20
274.2763066778315
 30
0.0
 11
464.5988405366327
 21
285.8575983861281
 31
0.0
  0
LINE
  5
709CB
330
6E801
100
AcDbEntity
  8
0
 62
     4
370
    -2
100
AcDbLine
 10
412.7488405366326
 20
283.8575983861281
 30
0.0
 11
461.4488405366326
 21
283.8575983861281
 31
0.0
  0
SOLID
  5
709CC
330
6E801
100
AcDbEntity
  8
0
 62
     4
100
AcDbTrace
 10
412.7488405366326
 20
284.3825983861281
 30
0.0
 11
412.7488405366326
 21
283.3325983861281
 31
0.0
 12
409.5988405366326
 22
283.8575983861281
 32
0.0
 13
409.5988405366326
 23
283.8575983861281
 33
0.0
  0
SOLID
  5
709CD
330
6E801
100
AcDbEntity
  8
0
 62
     4
100
AcDbTrace
 10
461.4488405366326
 20
284.3825983861281
 30
0.0
 11
461.4488405366326
 21
283.3325983861281
 31
0.0
 12
464.5988405366327
 22
283.8575983861281
 32
0.0
 13
464.5988405366327
 23
283.8575983861281
 33
0.0
  0
MTEXT
  5
709CE
330
6E801
100
AcDbEntity
  8
0
 62
     2
100
AcDbMText
 10
437.0988405366326
 20
286.2325983861281
 30
0.0
 40
3.149999999999999
 41
0.0
 71
     5
 72
     1
  1
\A1;55
  7
ROMAN
 73
     1
 44
1.0
1001
ACAD
1000
MTEXTBEGIN
1070
    73
1070
     1
1070
    44
1040
1.0
1070
    74
1070
     0
1000
MTEXTEND
  0
POINT
  5
709CF
330
6E801
100
AcDbEntity
  8
DEFPOINTS
 62
     0
100
AcDbPoint
 10
409.5988405366326
 20
273.2763066778316
 30
0.0
  0
POINT
  5
709D0
330
6E801
100
AcDbEntity
  8
DEFPOINTS
 62
     0
100
AcDbPoint
 10
464.5988405366327
 20
273.2763066778316
 30
0.0
  0
POINT
  5
709D1
330
6E801
100
AcDbEntity
  8
DEFPOINTS
 62
     0
100
AcDbPoint
 10
464.5988405366327
 20
283.8575983861281
 30
0.0
  0
ENDBLK
  5
6E803
330
6E801
100
AcDbEntity
  8
0
100
AcDbBlockEnd
  0
BLOCK
  5
6E81A
330
6E819
100
AcDbEntity
  8
0
100
AcDbBlockBegin
  2
*D6899
 70
     1
 10
0.0
 20
0.0
 30
0.0
  3
*D6899
  1

  0
LINE
  5
709D2
330
6E819
100
AcDbEntity
  8
0
 62
     4
370
    -2
100
AcDbLine
 10
402.0988405366327
 20
268.7763066778316
 30
0.0
 11
402.0988405366327
 21
295.5798914209929
 31
0.0
  0
LINE
  5
709D3
330
6E819
100
AcDbEntity
  8
0
 62
     4
370
    -2
100
AcDbLine
 10
472.0988405366326
 20
268.7763066778316
 30
0.0
 11
472.0988405366326
 21
295.5798914209929
 31
0.0
  0
LINE
  5
709D4
330
6E819
100
AcDbEntity
  8
0
 62
     4
370
    -2
100
AcDbLine
 10
405.2488405366326
 20
293.5798914209929
 30
0.0
 11
468.9488405366327
 21
293.5798914209929
 31
0.0
  0
SOLID
  5
709D5
330
6E819
100
AcDbEntity
  8
0
 62
     4
100
AcDbTrace
 10
405.2488405366326
 20
294.1048914209929
 30
0.0
 11
405.2488405366326
 21
293.0548914209929
 31
0.0
 12
402.0988405366327
 22
293.5798914209929
 32
0.0
 13
402.0988405366327
 23
293.5798914209929
 33
0.0
  0
SOLID
  5
709D6
330
6E819
100
AcDbEntity
  8
0
 62
     4
100
AcDbTrace
 10
468.9488405366327
 20
294.1048914209929
 30
0.0
 11
468.9488405366327
 21
293.0548914209929
 31
0.0
 12
472.0988405366326
 22
293.5798914209929
 32
0.0
 13
472.0988405366326
 23
293.5798914209929
 33
0.0
  0
MTEXT
  5
709D7
330
6E819
100
AcDbEntity
  8
0
 62
     2
100
AcDbMText
 10
437.0988405366326
 20
295.9548914209929
 30
0.0
 40
3.149999999999999
 41
0.0
 71
     5
 72
     1
  1
\A1;70
  7
ROMAN
 73
     1
 44
1.0
1001
ACAD
1000
MTEXTBEGIN
1070
    73
1070
     1
1070
    44
1040
1.0
1070
    74
1070
     0
1000
MTEXTEND
  0
POINT
  5
709D8
330
6E819
100
AcDbEntity
  8
DEFPOINTS
 62
     0
100
AcDbPoint
 10
402.0988405366327
 20
267.7763066778315
 30
0.0
  0
POINT
  5
709D9
330
6E819
100
AcDbEntity
  8
DEFPOINTS
 62
     0
100
AcDbPoint
 10
472.0988405366326
 20
267.7763066778315
 30
0.0
  0
POINT
  5
709DA
330
6E819
100
AcDbEntity
  8
DEFPOINTS
 62
     0
100
AcDbPoint
 10
472.0988405366326
 20
293.5798914209929
 30
0.0
  0
ENDBLK
  5
6E81B
330
6E819
100
AcDbEntity
  8
0
100
AcDbBlockEnd
  0
BLOCK
  5
6E832
330
6E831
100
AcDbEntity
  8
0
100
AcDbBlockBegin
  2
*D6900
 70
     1
 10
0.0
 20
0.0
 30
0.0
  3
*D6900
  1

  0
LINE
  5
709DB
330
6E831
100
AcDbEntity
  8
0
 62
     4
370
    -2
100
AcDbLine
 10
470.5988405366326
 20
268.2763066778315
 30
0.0
 11
483.7012338306124
 21
268.2763066778315
 31
0.0
  0
LINE
  5
709DC
330
6E831
100
AcDbEntity
  8
0
 62
     4
370
    -2
100
AcDbLine
 10
470.5988405366326
 20
226.2763066778315
 30
0.0
 11
483.7012338306124
 21
226.2763066778315
 31
0.0
  0
LINE
  5
709DD
330
6E831
100
AcDbEntity
  8
0
 62
     4
370
    -2
100
AcDbLine
 10
481.7012338306124
 20
265.1263066778316
 30
0.0
 11
481.7012338306124
 21
229.4263066778316
 31
0.0
  0
SOLID
  5
709DE
330
6E831
100
AcDbEntity
  8
0
 62
     4
100
AcDbTrace
 10
481.1762338306124
 20
265.1263066778316
 30
0.0
 11
482.2262338306123
 21
265.1263066778316
 31
0.0
 12
481.7012338306124
 22
268.2763066778315
 32
0.0
 13
481.7012338306124
 23
268.2763066778315
 33
0.0
  0
SOLID
  5
709DF
330
6E831
100
AcDbEntity
  8
0
 62
     4
100
AcDbTrace
 10
481.1762338306124
 20
229.4263066778316
 30
0.0
 11
482.2262338306123
 21
229.4263066778316
 31
0.0
 12
481.7012338306124
 22
226.2763066778315
 32
0.0
 13
481.7012338306124
 23
226.2763066778315
 33
0.0
  0
MTEXT
  5
709E0
330
6E831
100
AcDbEntity
  8
0
 62
     2
100
AcDbMText
 10
479.3262338306123
 20
247.2763066778316
 30
0.0
 40
3.149999999999999
 41
0.0
 71
     5
 72
     1
  1
\A1;42
  7
ROMAN
 11
0.0000000000000001
 21
1.0
 31
0.0
 73
     1
 44
1.0
1001
ACAD
1000
MTEXTBEGIN
1070
    73
1070
     1
1070
    44
1040
1.0
1070
    74
1070
     0
1000
MTEXTEND
  0
POINT
  5
709E1
330
6E831
100
AcDbEntity
  8
DEFPOINTS
 62
     0
100
AcDbPoint
 10
469.5988405366327
 20
268.2763066778315
 30
0.0
  0
POINT
  5
709E2
330
6E831
100
AcDbEntity
  8
DEFPOINTS
 62
     0
100
AcDbPoint
 10
469.5988405366327
 20
226.2763066778315
 30
0.0
  0
POINT
  5
709E3
330
6E831
100
AcDbEntity
  8
DEFPOINTS
 62
     0
100
AcDbPoint
 10
481.7012338306124
 20
226.2763066778315
 30
0.0
  0
ENDBLK
  5
6E833
330
6E831
100
AcDbEntity
  8
0
100
AcDbBlockEnd
  0
BLOCK
  5
6E84A
330
6E849
100
AcDbEntity
  8
0
100
AcDbBlockBegin
  2
*D6901
 70
     1
 10
0.0
 20
0.0
 30
0.0
  3
*D6901
  1

  0
LINE
  5
709E4
330
6E849
100
AcDbEntity
  8
0
 62
     4
370
    -2
100
AcDbLine
 10
464.5988405366327
 20
276.2763066778315
 30
0.0
 11
495.5571798694538
 21
276.2763066778315
 31
0.0
  0
LINE
  5
709E5
330
6E849
100
AcDbEntity
  8
0
 62
     4
370
    -2
100
AcDbLine
 10
464.5988405366327
 20
218.2763066778315
 30
0.0
 11
495.5571798694538
 21
218.2763066778315
 31
0.0
  0
LINE
  5
709E6
330
6E849
100
AcDbEntity
  8
0
 62
     4
370
    -2
100
AcDbLine
 10
493.5571798694538
 20
273.1263066778315
 30
0.0
 11
493.5571798694538
 21
221.4263066778316
 31
0.0
  0
SOLID
  5
709E7
330
6E849
100
AcDbEntity
  8
0
 62
     4
100
AcDbTrace
 10
493.0321798694539
 20
273.1263066778315
 30
0.0
 11
494.0821798694538
 21
273.1263066778315
 31
0.0
 12
493.5571798694538
 22
276.2763066778315
 32
0.0
 13
493.5571798694538
 23
276.2763066778315
 33
0.0
  0
SOLID
  5
709E8
330
6E849
100
AcDbEntity
  8
0
 62
     4
100
AcDbTrace
 10
493.0321798694539
 20
221.4263066778316
 30
0.0
 11
494.0821798694538
 21
221.4263066778316
 31
0.0
 12
493.5571798694538
 22
218.2763066778315
 32
0.0
 13
493.5571798694538
 23
218.2763066778315
 33
0.0
  0
MTEXT
  5
709E9
330
6E849
100
AcDbEntity
  8
0
 62
     2
100
AcDbMText
 10
491.1821798694538
 20
247.2763066778316
 30
0.0
 40
3.149999999999999
 41
0.0
 71
     5
 72
     1
  1
\A1;58
  7
ROMAN
 11
0.0000000000000001
 21
1.0
 31
0.0
 73
     1
 44
1.0
1001
ACAD
1000
MTEXTBEGIN
1070
    73
1070
     1
1070
    44
1040
1.0
1070
    74
1070
     0
1000
MTEXTEND
  0
POINT
  5
709EA
330
6E849
100
AcDbEntity
  8
DEFPOINTS
 62
     0
100
AcDbPoint
 10
463.5988405366326
 20
276.2763066778315
 30
0.0
  0
POINT
  5
709EB
330
6E849
100
AcDbEntity
  8
DEFPOINTS
 62
     0
100
AcDbPoint
 10
463.5988405366326
 20
218.2763066778315
 30
0.0
  0
POINT
  5
709EC
330
6E849
100
AcDbEntity
  8
DEFPOINTS
 62
     0
100
AcDbPoint
 10
493.5571798694538
 20
218.2763066778315
 30
0.0
  0
ENDBLK
  5
6E84B
330
6E849
100
AcDbEntity
  8
0
100
AcDbBlockEnd
  0
BLOCK
  5
6E862
330
6E861
100
AcDbEntity
  8
0
100
AcDbBlockBegin
  2
*D6902
 70
     1
 10
0.0
 20
0.0
 30
0.0
  3
*D6902
  1

  0
LINE
  5
709ED
330
6E861
100
AcDbEntity
  8
0
 62
     4
370
    -2
100
AcDbLine
 10
473.0988405366327
 20
182.2763066778313
 30
0.0
 11
486.6842486736238
 21
182.2763066778313
 31
0.0
  0
LINE
  5
709EE
330
6E861
100
AcDbEntity
  8
0
 62
     4
370
    -2
100
AcDbLine
 10
410.0988405366327
 20
89.2763066778316
 30
0.0
 11
486.6842486736238
 21
89.27630667783157
 31
0.0
  0
LINE
  5
709EF
330
6E861
100
AcDbEntity
  8
0
 62
     4
370
    -2
100
AcDbLine
 10
484.6842486736239
 20
179.1263066778313
 30
0.0
 11
484.6842486736238
 21
92.42630667783158
 31
0.0
  0
SOLID
  5
709F0
330
6E861
100
AcDbEntity
  8
0
 62
     4
100
AcDbTrace
 10
484.1592486736239
 20
179.1263066778313
 30
0.0
 11
485.2092486736238
 21
179.1263066778313
 31
0.0
 12
484.6842486736239
 22
182.2763066778313
 32
0.0
 13
484.6842486736239
 23
182.2763066778313
 33
0.0
  0
SOLID
  5
709F1
330
6E861
100
AcDbEntity
  8
0
 62
     4
100
AcDbTrace
 10
484.1592486736239
 20
92.42630667783158
 30
0.0
 11
485.2092486736238
 21
92.42630667783158
 31
0.0
 12
484.6842486736238
 22
89.27630667783157
 32
0.0
 13
484.6842486736238
 23
89.27630667783157
 33
0.0
  0
MTEXT
  5
709F2
330
6E861
100
AcDbEntity
  8
0
 62
     2
100
AcDbMText
 10
482.3092486736238
 20
135.7763066778315
 30
0.0
 40
3.149999999999999
 41
0.0
 71
     5
 72
     1
  1
\A1;93
  7
ROMAN
 11
0.0000000000000001
 21
1.0
 31
0.0
 73
     1
 44
1.0
1001
ACAD
1000
MTEXTBEGIN
1070
    73
1070
     1
1070
    44
1040
1.0
1070
    74
1070
     0
1000
MTEXTEND
  0
POINT
  5
709F3
330
6E861
100
AcDbEntity
  8
DEFPOINTS
 62
     0
100
AcDbPoint
 10
472.0988405366326
 20
182.2763066778313
 30
0.0
  0
POINT
  5
709F4
330
6E861
100
AcDbEntity
  8
DEFPOINTS
 62
     0
100
AcDbPoint
 10
409.0988405366326
 20
89.2763066778316
 30
0.0
  0
POINT
  5
709F5
330
6E861
100
AcDbEntity
  8
DEFPOINTS
 62
     0
100
AcDbPoint
 10
484.6842486736238
 20
89.27630667783157
 30
0.0
  0
ENDBLK
  5
6E863
330
6E861
100
AcDbEntity
  8
0
100
AcDbBlockEnd
  0
BLOCK
  5
6E87A
330
6E879
100
AcDbEntity
  8
0
100
AcDbBlockBegin
  2
*D6903
 70
     1
 10
0.0
 20
0.0
 30
0.0
  3
*D6903
  1

  0
LINE
  5
70B21
330
6E879
100
AcDbEntity
  8
0
 62
     4
370
    -2
100
AcDbLine
 10
360.8352052262962
 20
156.0019937072681
 30
0.0
 11
374.3270672985425
 21
147.8320965200302
 31
0.0
  0
LINE
  5
70B22
330
6E879
100
AcDbEntity
  8
0
 62
     4
370
    -2
100
AcDbLine
 10
443.8706137747227
 20
105.7205168356331
 30
0.0
 11
446.5651054278588
 21
104.0888873644664
 31
0.0
  0
MTEXT
  5
70B23
102
{ACAD_XDICTIONARY
360
70F9C
102
}
330
6E879
100
AcDbEntity
  8
0
 62
     2
100
AcDbMText
 10
366.1499092382791
 20
155.5602117870704
 30
0.0
 40
3.149999999999999
 41
0.0
 71
     5
 72
     1
  1
\A1;\U+220575
  7
ROMAN
 11
0.855394175598775
 21
-0.5179776098941846
 31
0.0
 73
     1
 44
1.0
1001
ACAD
1000
MTEXTBEGIN
1070
    73
1070
     1
1070
    44
1040
1.0
1070
    74
1070
     0
1000
MTEXTEND
  0
LINE
  5
70B24
330
6E879
100
AcDbEntity
  8
0
 62
     4
370
    -2
100
AcDbLine
 10
441.1761221215866
 20
107.3521463067998
 30
0.0
 11
377.0215589516787
 21
146.2004670488635
 31
0.0
  0
SOLID
  5
70B25
330
6E879
100
AcDbEntity
  8
0
 62
     4
100
AcDbTrace
 10
444.1425520199171
 20
106.1695987778224
 30
0.0
 11
443.5986755295283
 21
105.2714348934437
 31
0.0
 12
441.1761221215866
 22
107.3521463067998
 32
0.0
 13
441.1761221215866
 23
107.3521463067998
 33
0.0
  0
SOLID
  5
70B26
330
6E879
100
AcDbEntity
  8
0
 62
     4
100
AcDbTrace
 10
374.599005543737
 20
148.2811784622195
 30
0.0
 11
374.0551290533481
 21
147.3830145778408
 31
0.0
 12
377.0215589516787
 22
146.2004670488635
 32
0.0
 13
377.0215589516787
 23
146.2004670488635
 33
0.0
  0
POINT
  5
70B27
330
6E879
100
AcDbEntity
  8
DEFPOINTS
 62
     0
100
AcDbPoint
 10
377.0215589516787
 20
146.2004670488635
 30
0.0
  0
POINT
  5
70B28
330
6E879
100
AcDbEntity
  8
DEFPOINTS
 62
     0
100
AcDbPoint
 10
441.1761221215866
 20
107.3521463067998
 30
0.0
  0
ENDBLK
  5
6E87B
330
6E879
100
AcDbEntity
  8
0
100
AcDbBlockEnd
  0
BLOCK
  5
6E891
330
6E890
100
AcDbEntity
  8
0
100
AcDbBlockBegin
  2
*D6904
 70
     1
 10
0.0
 20
0.0
 30
0.0
  3
*D6904
  1

  0
LINE
  5
709FE
330
6E890
100
AcDbEntity
  8
2
  6
CENTER2
 62
     4
370
    -2
100
AcDbLine
 10
610.3293239227348
 20
324.4028693137462
 30
0.0
 11
610.3293239227348
 21
343.7869511265562
 31
0.0
  0
LINE
  5
709FF
330
6E890
100
AcDbEntity
  8
2
  6
CENTER2
 62
     4
370
    -2
100
AcDbLine
 10
678.3293239227325
 20
324.4028693137462
 30
0.0
 11
678.3293239227325
 21
343.7869511265562
 31
0.0
  0
LINE
  5
70A00
330
6E890
100
AcDbEntity
  8
2
  6
CENTER2
 62
     4
370
    -2
100
AcDbLine
 10
613.4793239227348
 20
341.7869511265562
 30
0.0
 11
675.1793239227326
 21
341.7869511265562
 31
0.0
  0
SOLID
  5
70A01
330
6E890
100
AcDbEntity
  8
2
  6
CENTER2
 62
     4
100
AcDbTrace
 10
613.4793239227348
 20
342.3119511265562
 30
0.0
 11
613.4793239227348
 21
341.2619511265563
 31
0.0
 12
610.3293239227348
 22
341.7869511265562
 32
0.0
 13
610.3293239227348
 23
341.7869511265562
 33
0.0
  0
SOLID
  5
70A02
330
6E890
100
AcDbEntity
  8
2
  6
CENTER2
 62
     4
100
AcDbTrace
 10
675.1793239227326
 20
342.3119511265562
 30
0.0
 11
675.1793239227326
 21
341.2619511265563
 31
0.0
 12
678.3293239227325
 22
341.7869511265562
 32
0.0
 13
678.3293239227325
 23
341.7869511265562
 33
0.0
  0
MTEXT
  5
70A03
330
6E890
100
AcDbEntity
  8
2
  6
CENTER2
 62
     2
100
AcDbMText
 10
644.3293239227337
 20
344.1619511265562
 30
0.0
 40
3.149999999999999
 41
0.0
 71
     5
 72
     1
  1
\A1;68
  7
ROMAN
 73
     1
 44
1.0
1001
ACAD
1000
MTEXTBEGIN
1070
    73
1070
     1
1070
    44
1040
1.0
1070
    74
1070
     0
1000
MTEXTEND
  0
POINT
  5
70A04
330
6E890
100
AcDbEntity
  8
DEFPOINTS
  6
CENTER2
 62
     0
100
AcDbPoint
 10
610.3293239227348
 20
323.4028693137462
 30
0.0
  0
POINT
  5
70A05
330
6E890
100
AcDbEntity
  8
DEFPOINTS
  6
CENTER2
 62
     0
100
AcDbPoint
 10
678.3293239227325
 20
323.4028693137462
 30
0.0
  0
POINT
  5
70A06
330
6E890
100
AcDbEntity
  8
DEFPOINTS
  6
CENTER2
 62
     0
100
AcDbPoint
 10
678.3293239227325
 20
341.7869511265562
 30
0.0
  0
ENDBLK
  5
6E892
330
6E890
100
AcDbEntity
  8
0
100
AcDbBlockEnd
  0
BLOCK
  5
6E8A9
330
6E8A8
100
AcDbEntity
  8
0
100
AcDbBlockBegin
  2
*D6905
 70
     1
 10
0.0
 20
0.0
 30
0.0
  3
*D6905
  1

  0
LINE
  5
70A07
330
6E8A8
100
AcDbEntity
  8
0
 62
     4
370
    -2
100
AcDbLine
 10
608.8293239227348
 20
325.9028693137462
 30
0.0
 11
608.8293239227348
 21
351.4186270016481
 31
0.0
  0
LINE
  5
70A08
330
6E8A8
100
AcDbEntity
  8
0
 62
     4
370
    -2
100
AcDbLine
 10
679.8293239227326
 20
325.9028693137462
 30
0.0
 11
679.8293239227326
 21
351.4186270016481
 31
0.0
  0
LINE
  5
70A09
330
6E8A8
100
AcDbEntity
  8
0
 62
     4
370
    -2
100
AcDbLine
 10
611.9793239227348
 20
349.4186270016481
 30
0.0
 11
676.6793239227325
 21
349.4186270016481
 31
0.0
  0
SOLID
  5
70A0A
330
6E8A8
100
AcDbEntity
  8
0
 62
     4
100
AcDbTrace
 10
611.9793239227348
 20
349.9436270016481
 30
0.0
 11
611.9793239227348
 21
348.8936270016481
 31
0.0
 12
608.8293239227348
 22
349.4186270016481
 32
0.0
 13
608.8293239227348
 23
349.4186270016481
 33
0.0
  0
SOLID
  5
70A0B
330
6E8A8
100
AcDbEntity
  8
0
 62
     4
100
AcDbTrace
 10
676.6793239227325
 20
349.9436270016481
 30
0.0
 11
676.6793239227325
 21
348.8936270016481
 31
0.0
 12
679.8293239227326
 22
349.4186270016481
 32
0.0
 13
679.8293239227326
 23
349.4186270016481
 33
0.0
  0
MTEXT
  5
70A0C
330
6E8A8
100
AcDbEntity
  8
0
 62
     2
100
AcDbMText
 10
644.3293239227337
 20
351.7936270016481
 30
0.0
 40
3.149999999999999
 41
0.0
 71
     5
 72
     1
  1
\A1;71
  7
ROMAN
 73
     1
 44
1.0
1001
ACAD
1000
MTEXTBEGIN
1070
    73
1070
     1
1070
    44
1040
1.0
1070
    74
1070
     0
1000
MTEXTEND
  0
POINT
  5
70A0D
330
6E8A8
100
AcDbEntity
  8
DEFPOINTS
 62
     0
100
AcDbPoint
 10
608.8293239227348
 20
324.9028693137463
 30
0.0
  0
POINT
  5
70A0E
330
6E8A8
100
AcDbEntity
  8
DEFPOINTS
 62
     0
100
AcDbPoint
 10
679.8293239227326
 20
324.9028693137463
 30
0.0
  0
POINT
  5
70A0F
330
6E8A8
100
AcDbEntity
  8
DEFPOINTS
 62
     0
100
AcDbPoint
 10
679.8293239227326
 20
349.4186270016481
 30
0.0
  0
ENDBLK
  5
6E8AA
330
6E8A8
100
AcDbEntity
  8
0
100
AcDbBlockEnd
  0
BLOCK
  5
6E8C1
330
6E8C0
100
AcDbEntity
  8
0
100
AcDbBlockBegin
  2
*D6906
 70
     1
 10
0.0
 20
0.0
 30
0.0
  3
*D6906
  1

  0
LINE
  5
70B31
330
6E8C0
100
AcDbEntity
  8
0
 62
     4
370
    -2
100
AcDbLine
 10
599.3293389227359
 20
322.4028755969318
 30
0.0
 11
599.3293389227359
 21
359.3238227574661
 31
0.0
  0
LINE
  5
70B32
330
6E8C0
100
AcDbEntity
  8
0
 62
     4
370
    -2
100
AcDbLine
 10
689.3293089227348
 20
322.402869313746
 30
0.0
 11
689.3293089227348
 21
359.3238227574661
 31
0.0
  0
LINE
  5
70B33
330
6E8C0
100
AcDbEntity
  8
0
 62
     4
370
    -2
100
AcDbLine
 10
602.4793389227359
 20
357.3238227574661
 30
0.0
 11
686.1793089227348
 21
357.3238227574661
 31
0.0
  0
SOLID
  5
70B34
330
6E8C0
100
AcDbEntity
  8
0
 62
     4
100
AcDbTrace
 10
602.4793389227359
 20
357.8488227574661
 30
0.0
 11
602.4793389227359
 21
356.7988227574661
 31
0.0
 12
599.3293389227359
 22
357.3238227574661
 32
0.0
 13
599.3293389227359
 23
357.3238227574661
 33
0.0
  0
SOLID
  5
70B35
330
6E8C0
100
AcDbEntity
  8
0
 62
     4
100
AcDbTrace
 10
686.1793089227348
 20
357.8488227574661
 30
0.0
 11
686.1793089227348
 21
356.7988227574661
 31
0.0
 12
689.3293089227348
 22
357.3238227574661
 32
0.0
 13
689.3293089227348
 23
357.3238227574661
 33
0.0
  0
MTEXT
  5
70B36
330
6E8C0
100
AcDbEntity
  8
0
 62
     2
100
AcDbMText
 10
644.3293239227354
 20
359.6988227574661
 30
0.0
 40
3.149999999999999
 41
0.0
 71
     5
 72
     1
  1
\A1;90
  7
ROMAN
 73
     1
 44
1.0
1001
ACAD
1000
MTEXTBEGIN
1070
    73
1070
     1
1070
    44
1040
1.0
1070
    74
1070
     0
1000
MTEXTEND
  0
POINT
  5
70B37
330
6E8C0
100
AcDbEntity
  8
DEFPOINTS
 62
     0
100
AcDbPoint
 10
599.3293389227359
 20
321.4028755969319
 30
0.0
  0
POINT
  5
70B38
330
6E8C0
100
AcDbEntity
  8
DEFPOINTS
 62
     0
100
AcDbPoint
 10
689.3293089227348
 20
321.402869313746
 30
0.0
  0
POINT
  5
70B39
330
6E8C0
100
AcDbEntity
  8
DEFPOINTS
 62
     0
100
AcDbPoint
 10
689.3293089227348
 20
357.3238227574661
 30
0.0
  0
ENDBLK
  5
6E8C2
330
6E8C0
100
AcDbEntity
  8
0
100
AcDbBlockEnd
  0
BLOCK
  5
6E8D9
330
6E8D8
100
AcDbEntity
  8
0
100
AcDbBlockBegin
  2
*D6907
 70
     1
 10
0.0
 20
0.0
 30
0.0
  3
*D6907
  1

  0
LINE
  5
70A19
330
6E8D8
100
AcDbEntity
  8
2
  6
CENTER2
 62
     4
370
    -2
100
AcDbLine
 10
682.3293239227325
 20
320.4028693137463
 30
0.0
 11
706.1856535069627
 21
320.4028693137463
 31
0.0
  0
LINE
  5
70A1A
330
6E8D8
100
AcDbEntity
  8
2
  6
CENTER2
 62
     4
370
    -2
100
AcDbLine
 10
682.3293239227325
 20
252.4028693137463
 30
0.0
 11
706.1856535069625
 21
252.4028693137463
 31
0.0
  0
LINE
  5
70A1B
330
6E8D8
100
AcDbEntity
  8
2
  6
CENTER2
 62
     4
370
    -2
100
AcDbLine
 10
704.1856535069626
 20
317.2528693137463
 30
0.0
 11
704.1856535069626
 21
255.5528693137463
 31
0.0
  0
SOLID
  5
70A1C
330
6E8D8
100
AcDbEntity
  8
2
  6
CENTER2
 62
     4
100
AcDbTrace
 10
703.6606535069627
 20
317.2528693137463
 30
0.0
 11
704.7106535069627
 21
317.2528693137463
 31
0.0
 12
704.1856535069626
 22
320.4028693137463
 32
0.0
 13
704.1856535069626
 23
320.4028693137463
 33
0.0
  0
SOLID
  5
70A1D
330
6E8D8
100
AcDbEntity
  8
2
  6
CENTER2
 62
     4
100
AcDbTrace
 10
703.6606535069625
 20
255.5528693137463
 30
0.0
 11
704.7106535069625
 21
255.5528693137463
 31
0.0
 12
704.1856535069626
 22
252.4028693137463
 32
0.0
 13
704.1856535069626
 23
252.4028693137463
 33
0.0
  0
MTEXT
  5
70A1E
330
6E8D8
100
AcDbEntity
  8
2
  6
CENTER2
 62
     2
100
AcDbMText
 10
701.8106535069626
 20
286.4028693137464
 30
0.0
 40
3.149999999999999
 41
0.0
 71
     5
 72
     1
  1
\A1;68
  7
ROMAN
 11
0.0000000000000001
 21
1.0
 31
0.0
 73
     1
 44
1.0
1001
ACAD
1000
MTEXTBEGIN
1070
    73
1070
     1
1070
    44
1040
1.0
1070
    74
1070
     0
1000
MTEXTEND
  0
POINT
  5
70A1F
330
6E8D8
100
AcDbEntity
  8
DEFPOINTS
  6
CENTER2
 62
     0
100
AcDbPoint
 10
681.3293239227325
 20
320.4028693137463
 30
0.0
  0
POINT
  5
70A20
330
6E8D8
100
AcDbEntity
  8
DEFPOINTS
  6
CENTER2
 62
     0
100
AcDbPoint
 10
681.3293239227325
 20
252.4028693137463
 30
0.0
  0
POINT
  5
70A21
330
6E8D8
100
AcDbEntity
  8
DEFPOINTS
  6
CENTER2
 62
     0
100
AcDbPoint
 10
704.1856535069626
 20
252.4028693137463
 30
0.0
  0
ENDBLK
  5
6E8DA
330
6E8D8
100
AcDbEntity
  8
0
100
AcDbBlockEnd
  0
BLOCK
  5
6E8F1
330
6E8F0
100
AcDbEntity
  8
0
100
AcDbBlockBegin
  2
*D6908
 70
     1
 10
0.0
 20
0.0
 30
0.0
  3
*D6908
  1

  0
LINE
  5
70A22
330
6E8F0
100
AcDbEntity
  8
0
 62
     4
370
    -2
100
AcDbLine
 10
683.8293239227326
 20
321.9028693137462
 30
0.0
 11
716.1948864551231
 21
321.9028693137462
 31
0.0
  0
LINE
  5
70A23
330
6E8F0
100
AcDbEntity
  8
0
 62
     4
370
    -2
100
AcDbLine
 10
683.8293239227326
 20
250.9028693137462
 30
0.0
 11
716.1948864551229
 21
250.9028693137461
 31
0.0
  0
LINE
  5
70A24
330
6E8F0
100
AcDbEntity
  8
0
 62
     4
370
    -2
100
AcDbLine
 10
714.194886455123
 20
318.7528693137462
 30
0.0
 11
714.1948864551229
 21
254.0528693137462
 31
0.0
  0
SOLID
  5
70A25
330
6E8F0
100
AcDbEntity
  8
0
 62
     4
100
AcDbTrace
 10
713.6698864551231
 20
318.7528693137462
 30
0.0
 11
714.719886455123
 21
318.7528693137462
 31
0.0
 12
714.194886455123
 22
321.9028693137462
 32
0.0
 13
714.194886455123
 23
321.9028693137462
 33
0.0
  0
SOLID
  5
70A26
330
6E8F0
100
AcDbEntity
  8
0
 62
     4
100
AcDbTrace
 10
713.6698864551229
 20
254.0528693137462
 30
0.0
 11
714.7198864551229
 21
254.0528693137462
 31
0.0
 12
714.1948864551229
 22
250.9028693137461
 32
0.0
 13
714.1948864551229
 23
250.9028693137461
 33
0.0
  0
MTEXT
  5
70A27
330
6E8F0
100
AcDbEntity
  8
0
 62
     2
100
AcDbMText
 10
711.819886455123
 20
286.4028693137463
 30
0.0
 40
3.149999999999999
 41
0.0
 71
     5
 72
     1
  1
\A1;71
  7
ROMAN
 11
0.0000000000000001
 21
1.0
 31
0.0
 73
     1
 44
1.0
1001
ACAD
1000
MTEXTBEGIN
1070
    73
1070
     1
1070
    44
1040
1.0
1070
    74
1070
     0
1000
MTEXTEND
  0
POINT
  5
70A28
330
6E8F0
100
AcDbEntity
  8
DEFPOINTS
 62
     0
100
AcDbPoint
 10
682.8293239227325
 20
321.9028693137462
 30
0.0
  0
POINT
  5
70A29
330
6E8F0
100
AcDbEntity
  8
DEFPOINTS
 62
     0
100
AcDbPoint
 10
682.8293239227325
 20
250.9028693137462
 30
0.0
  0
POINT
  5
70A2A
330
6E8F0
100
AcDbEntity
  8
DEFPOINTS
 62
     0
100
AcDbPoint
 10
714.1948864551229
 20
250.9028693137461
 30
0.0
  0
ENDBLK
  5
6E8F2
330
6E8F0
100
AcDbEntity
  8
0
100
AcDbBlockEnd
  0
BLOCK
  5
6E909
330
6E908
100
AcDbEntity
  8
0
100
AcDbBlockBegin
  2
*D6909
 70
     1
 10
0.0
 20
0.0
 30
0.0
  3
*D6909
  1

  0
LINE
  5
70A2B
330
6E908
100
AcDbEntity
  8
0
 62
     4
370
    -2
100
AcDbLine
 10
680.3293089227347
 20
331.4028693137462
 30
0.0
 11
726.7762341420137
 21
331.4028693137462
 31
0.0
  0
LINE
  5
70A2C
330
6E908
100
AcDbEntity
  8
0
 62
     4
370
    -2
100
AcDbLine
 10
680.3293120643236
 20
241.4028693137469
 30
0.0
 11
726.7762341420136
 21
241.4028693137468
 31
0.0
  0
LINE
  5
70A2D
330
6E908
100
AcDbEntity
  8
0
 62
     4
370
    -2
100
AcDbLine
 10
724.7762341420138
 20
328.2528693137463
 30
0.0
 11
724.7762341420136
 21
244.5528693137468
 31
0.0
  0
SOLID
  5
70A2E
330
6E908
100
AcDbEntity
  8
0
 62
     4
100
AcDbTrace
 10
724.2512341420138
 20
328.2528693137463
 30
0.0
 11
725.3012341420137
 21
328.2528693137463
 31
0.0
 12
724.7762341420138
 22
331.4028693137462
 32
0.0
 13
724.7762341420138
 23
331.4028693137462
 33
0.0
  0
SOLID
  5
70A2F
330
6E908
100
AcDbEntity
  8
0
 62
     4
100
AcDbTrace
 10
724.2512341420137
 20
244.5528693137468
 30
0.0
 11
725.3012341420136
 21
244.5528693137468
 31
0.0
 12
724.7762341420136
 22
241.4028693137468
 32
0.0
 13
724.7762341420136
 23
241.4028693137468
 33
0.0
  0
MTEXT
  5
70A30
330
6E908
100
AcDbEntity
  8
0
 62
     2
100
AcDbMText
 10
722.4012341420136
 20
286.4028693137466
 30
0.0
 40
3.149999999999999
 41
0.0
 71
     5
 72
     1
  1
\A1;90
  7
ROMAN
 11
0.0000000000000001
 21
1.0
 31
0.0
 73
     1
 44
1.0
1001
ACAD
1000
MTEXTBEGIN
1070
    73
1070
     1
1070
    44
1040
1.0
1070
    74
1070
     0
1000
MTEXTEND
  0
POINT
  5
70A31
330
6E908
100
AcDbEntity
  8
DEFPOINTS
 62
     0
100
AcDbPoint
 10
679.3293089227347
 20
331.4028693137462
 30
0.0
  0
POINT
  5
70A32
330
6E908
100
AcDbEntity
  8
DEFPOINTS
 62
     0
100
AcDbPoint
 10
679.3293120643236
 20
241.4028693137469
 30
0.0
  0
POINT
  5
70A33
330
6E908
100
AcDbEntity
  8
DEFPOINTS
 62
     0
100
AcDbPoint
 10
724.7762341420136
 20
241.4028693137468
 30
0.0
  0
ENDBLK
  5
6E90A
330
6E908
100
AcDbEntity
  8
0
100
AcDbBlockEnd
  0
BLOCK
  5
6E922
330
6E921
100
AcDbEntity
  8
0
100
AcDbBlockBegin
  2
*D6910
 70
     1
 10
0.0
 20
0.0
 30
0.0
  3
*D6910
  1

  0
LINE
  5
70A34
330
6E921
100
AcDbEntity
  8
0
 62
     4
370
    -2
100
AcDbLine
 10
690.3293239227338
 20
209.0517603756151
 30
0.0
 11
706.0912379969138
 21
209.0517603756151
 31
0.0
  0
LINE
  5
70A35
330
6E921
100
AcDbEntity
  8
0
 62
     4
370
    -2
100
AcDbLine
 10
610.3293239227348
 20
77.05175637561524
 30
0.0
 11
706.0912379969138
 21
77.05175637561523
 31
0.0
  0
LINE
  5
70A36
330
6E921
100
AcDbEntity
  8
0
 62
     4
370
    -2
100
AcDbLine
 10
704.0912379969138
 20
205.9017603756151
 30
0.0
 11
704.0912379969138
 21
80.20175637561523
 31
0.0
  0
SOLID
  5
70A37
330
6E921
100
AcDbEntity
  8
0
 62
     4
100
AcDbTrace
 10
703.5662379969139
 20
205.9017603756151
 30
0.0
 11
704.6162379969138
 21
205.9017603756151
 31
0.0
 12
704.0912379969138
 22
209.0517603756151
 32
0.0
 13
704.0912379969138
 23
209.0517603756151
 33
0.0
  0
SOLID
  5
70A38
330
6E921
100
AcDbEntity
  8
0
 62
     4
100
AcDbTrace
 10
703.5662379969139
 20
80.20175637561523
 30
0.0
 11
704.6162379969138
 21
80.20175637561523
 31
0.0
 12
704.0912379969138
 22
77.05175637561523
 32
0.0
 13
704.0912379969138
 23
77.05175637561523
 33
0.0
  0
MTEXT
  5
70A39
330
6E921
100
AcDbEntity
  8
0
 62
     2
100
AcDbMText
 10
701.7162379969138
 20
143.0517583756152
 30
0.0
 40
3.149999999999999
 41
0.0
 71
     5
 72
     1
  1
\A1;132
  7
ROMAN
 11
0.0000000000000001
 21
1.0
 31
0.0
 73
     1
 44
1.0
1001
ACAD
1000
MTEXTBEGIN
1070
    73
1070
     1
1070
    44
1040
1.0
1070
    74
1070
     0
1000
MTEXTEND
  0
POINT
  5
70A3A
330
6E921
100
AcDbEntity
  8
DEFPOINTS
 62
     0
100
AcDbPoint
 10
689.3293239227339
 20
209.0517603756151
 30
0.0
  0
POINT
  5
70A3B
330
6E921
100
AcDbEntity
  8
DEFPOINTS
 62
     0
100
AcDbPoint
 10
609.3293239227348
 20
77.05175637561524
 30
0.0
  0
POINT
  5
70A3C
330
6E921
100
AcDbEntity
  8
DEFPOINTS
 62
     0
100
AcDbPoint
 10
704.0912379969138
 20
77.05175637561523
 30
0.0
  0
ENDBLK
  5
6E923
330
6E921
100
AcDbEntity
  8
0
100
AcDbBlockEnd
  0
BLOCK
  5
6E93A
330
6E939
100
AcDbEntity
  8
0
100
AcDbBlockBegin
  2
*D6911
 70
     1
 10
0.0
 20
0.0
 30
0.0
  3
*D6911
  1

  0
LINE
  5
70B29
330
6E939
100
AcDbEntity
  8
0
 62
     4
370
    -2
100
AcDbLine
 10
546.9425024869885
 20
154.7274902184322
 30
0.0
 11
560.7453018846583
 21
148.6043595822555
 31
0.0
  0
LINE
  5
70B2A
330
6E939
100
AcDbEntity
  8
0
 62
     4
370
    -2
100
AcDbLine
 10
657.9133459608121
 20
105.4991451689745
 30
0.0
 11
660.7927378881406
 21
104.2218033475204
 31
0.0
  0
MTEXT
  5
70B2B
102
{ACAD_XDICTIONARY
360
70F9E
102
}
330
6E939
100
AcDbEntity
  8
0
 62
     2
100
AcDbMText
 10
553.3672814050016
 20
154.4755659150091
 30
0.0
 40
3.149999999999999
 41
0.0
 71
     5
 72
     1
  1
\A1;\U+2205100
  7
ROMAN
 11
0.9140926753423725
 21
-0.4055053401441513
 31
0.0
 73
     1
 44
1.0
1001
ACAD
1000
MTEXTBEGIN
1070
    73
1070
     1
1070
    44
1040
1.0
1070
    74
1070
     0
1000
MTEXTEND
  0
LINE
  5
70B2C
330
6E939
100
AcDbEntity
  8
0
 62
     4
370
    -2
100
AcDbLine
 10
655.0339540334837
 20
106.7764869904286
 30
0.0
 11
563.6246938119868
 21
147.3270177608014
 31
0.0
  0
SOLID
  5
70B2D
330
6E939
100
AcDbEntity
  8
0
 62
     4
100
AcDbTrace
 10
658.1262362643879
 20
105.9790438235292
 30
0.0
 11
657.7004556572366
 21
105.0192465144198
 31
0.0
 12
655.0339540334837
 22
106.7764869904286
 32
0.0
 13
655.0339540334837
 23
106.7764869904286
 33
0.0
  0
SOLID
  5
70B2E
330
6E939
100
AcDbEntity
  8
0
 62
     4
100
AcDbTrace
 10
560.958192188234
 20
149.0842582368103
 30
0.0
 11
560.5324115810828
 21
148.1244609277008
 31
0.0
 12
563.6246938119868
 22
147.3270177608014
 32
0.0
 13
563.6246938119868
 23
147.3270177608014
 33
0.0
  0
POINT
  5
70B2F
330
6E939
100
AcDbEntity
  8
DEFPOINTS
 62
     0
100
AcDbPoint
 10
563.6246938119868
 20
147.3270177608014
 30
0.0
  0
POINT
  5
70B30
330
6E939
100
AcDbEntity
  8
DEFPOINTS
 62
     0
100
AcDbPoint
 10
655.0339540334837
 20
106.7764869904286
 30
0.0
  0
ENDBLK
  5
6E93B
330
6E939
100
AcDbEntity
  8
0
100
AcDbBlockEnd
  0
BLOCK
  5
6E951
330
6E950
100
AcDbEntity
  8
0
100
AcDbBlockBegin
  2
*D6912
 70
     1
 10
0.0
 20
0.0
 30
0.0
  3
*D6912
  1

  0
LINE
  5
70A45
330
6E950
100
AcDbEntity
  8
2
  6
CENTER2
 62
     4
370
    -2
100
AcDbLine
 10
834.7081770090406
 20
383.0728690616373
 30
0.0
 11
834.7081770090406
 21
408.3753546081295
 31
0.0
  0
LINE
  5
70A46
330
6E950
100
AcDbEntity
  8
2
  6
CENTER2
 62
     4
370
    -2
100
AcDbLine
 10
909.7081770090396
 20
383.0728690616373
 30
0.0
 11
909.7081770090396
 21
408.3753546081295
 31
0.0
  0
LINE
  5
70A47
330
6E950
100
AcDbEntity
  8
2
  6
CENTER2
 62
     4
370
    -2
100
AcDbLine
 10
837.8581770090406
 20
406.3753546081295
 30
0.0
 11
906.5581770090396
 21
406.3753546081295
 31
0.0
  0
SOLID
  5
70A48
330
6E950
100
AcDbEntity
  8
2
  6
CENTER2
 62
     4
100
AcDbTrace
 10
837.8581770090406
 20
406.9003546081295
 30
0.0
 11
837.8581770090406
 21
405.8503546081295
 31
0.0
 12
834.7081770090406
 22
406.3753546081295
 32
0.0
 13
834.7081770090406
 23
406.3753546081295
 33
0.0
  0
SOLID
  5
70A49
330
6E950
100
AcDbEntity
  8
2
  6
CENTER2
 62
     4
100
AcDbTrace
 10
906.5581770090396
 20
406.9003546081295
 30
0.0
 11
906.5581770090396
 21
405.8503546081295
 31
0.0
 12
909.7081770090396
 22
406.3753546081295
 32
0.0
 13
909.7081770090396
 23
406.3753546081295
 33
0.0
  0
MTEXT
  5
70A4A
330
6E950
100
AcDbEntity
  8
2
  6
CENTER2
 62
     2
100
AcDbMText
 10
872.2081770090401
 20
408.7503546081295
 30
0.0
 40
3.149999999999999
 41
0.0
 71
     5
 72
     1
  1
\A1;75
  7
ROMAN
 73
     1
 44
1.0
1001
ACAD
1000
MTEXTBEGIN
1070
    73
1070
     1
1070
    44
1040
1.0
1070
    74
1070
     0
1000
MTEXTEND
  0
POINT
  5
70A4B
330
6E950
100
AcDbEntity
  8
DEFPOINTS
  6
CENTER2
 62
     0
100
AcDbPoint
 10
834.7081770090406
 20
382.0728690616373
 30
0.0
  0
POINT
  5
70A4C
330
6E950
100
AcDbEntity
  8
DEFPOINTS
  6
CENTER2
 62
     0
100
AcDbPoint
 10
909.7081770090396
 20
382.0728690616373
 30
0.0
  0
POINT
  5
70A4D
330
6E950
100
AcDbEntity
  8
DEFPOINTS
  6
CENTER2
 62
     0
100
AcDbPoint
 10
909.7081770090396
 20
406.3753546081295
 30
0.0
  0
ENDBLK
  5
6E952
330
6E950
100
AcDbEntity
  8
0
100
AcDbBlockEnd
  0
BLOCK
  5
6E969
330
6E968
100
AcDbEntity
  8
0
100
AcDbBlockBegin
  2
*D6913
 70
     1
 10
0.0
 20
0.0
 30
0.0
  3
*D6913
  1

  0
LINE
  5
70A4E
330
6E968
100
AcDbEntity
  8
0
 62
     4
370
    -2
100
AcDbLine
 10
832.2081770090406
 20
385.5728690616373
 30
0.0
 11
832.2081770090406
 21
418.6850729982711
 31
0.0
  0
LINE
  5
70A4F
330
6E968
100
AcDbEntity
  8
0
 62
     4
370
    -2
100
AcDbLine
 10
912.2081770090405
 20
385.5728690616373
 30
0.0
 11
912.2081770090405
 21
418.6850729982711
 31
0.0
  0
LINE
  5
70A50
330
6E968
100
AcDbEntity
  8
0
 62
     4
370
    -2
100
AcDbLine
 10
835.3581770090405
 20
416.6850729982711
 30
0.0
 11
909.0581770090405
 21
416.6850729982711
 31
0.0
  0
SOLID
  5
70A51
330
6E968
100
AcDbEntity
  8
0
 62
     4
100
AcDbTrace
 10
835.3581770090405
 20
417.2100729982711
 30
0.0
 11
835.3581770090405
 21
416.1600729982711
 31
0.0
 12
832.2081770090406
 22
416.6850729982711
 32
0.0
 13
832.2081770090406
 23
416.6850729982711
 33
0.0
  0
SOLID
  5
70A52
330
6E968
100
AcDbEntity
  8
0
 62
     4
100
AcDbTrace
 10
909.0581770090405
 20
417.2100729982711
 30
0.0
 11
909.0581770090405
 21
416.1600729982711
 31
0.0
 12
912.2081770090405
 22
416.6850729982711
 32
0.0
 13
912.2081770090405
 23
416.6850729982711
 33
0.0
  0
MTEXT
  5
70A53
330
6E968
100
AcDbEntity
  8
0
 62
     2
100
AcDbMText
 10
872.2081770090406
 20
419.0600729982711
 30
0.0
 40
3.149999999999999
 41
0.0
 71
     5
 72
     1
  1
\A1;80
  7
ROMAN
 73
     1
 44
1.0
1001
ACAD
1000
MTEXTBEGIN
1070
    73
1070
     1
1070
    44
1040
1.0
1070
    74
1070
     0
1000
MTEXTEND
  0
POINT
  5
70A54
330
6E968
100
AcDbEntity
  8
DEFPOINTS
 62
     0
100
AcDbPoint
 10
832.2081770090406
 20
384.5728690616373
 30
0.0
  0
POINT
  5
70A55
330
6E968
100
AcDbEntity
  8
DEFPOINTS
 62
     0
100
AcDbPoint
 10
912.2081770090405
 20
384.5728690616373
 30
0.0
  0
POINT
  5
70A56
330
6E968
100
AcDbEntity
  8
DEFPOINTS
 62
     0
100
AcDbPoint
 10
912.2081770090405
 20
416.6850729982711
 30
0.0
  0
ENDBLK
  5
6E96A
330
6E968
100
AcDbEntity
  8
0
100
AcDbBlockEnd
  0
BLOCK
  5
6E981
330
6E980
100
AcDbEntity
  8
0
100
AcDbBlockBegin
  2
*D6914
 70
     1
 10
0.0
 20
0.0
 30
0.0
  3
*D6914
  1

  0
LINE
  5
70A57
330
6E980
100
AcDbEntity
  8
2
 62
     4
370
    -2
100
AcDbLine
 10
913.7081770090397
 20
379.0728690616373
 30
0.0
 11
945.0806498094268
 21
379.0728690616373
 31
0.0
  0
LINE
  5
70A58
330
6E980
100
AcDbEntity
  8
2
 62
     4
370
    -2
100
AcDbLine
 10
913.7081770090397
 20
304.0728690616373
 30
0.0
 11
945.0806498094268
 21
304.0728690616373
 31
0.0
  0
LINE
  5
70A59
330
6E980
100
AcDbEntity
  8
2
 62
     4
370
    -2
100
AcDbLine
 10
943.0806498094268
 20
375.9228690616374
 30
0.0
 11
943.0806498094268
 21
307.2228690616373
 31
0.0
  0
SOLID
  5
70A5A
330
6E980
100
AcDbEntity
  8
2
 62
     4
100
AcDbTrace
 10
942.5556498094268
 20
375.9228690616374
 30
0.0
 11
943.6056498094268
 21
375.9228690616374
 31
0.0
 12
943.0806498094268
 22
379.0728690616373
 32
0.0
 13
943.0806498094268
 23
379.0728690616373
 33
0.0
  0
SOLID
  5
70A5B
330
6E980
100
AcDbEntity
  8
2
 62
     4
100
AcDbTrace
 10
942.5556498094268
 20
307.2228690616373
 30
0.0
 11
943.6056498094268
 21
307.2228690616373
 31
0.0
 12
943.0806498094268
 22
304.0728690616373
 32
0.0
 13
943.0806498094268
 23
304.0728690616373
 33
0.0
  0
MTEXT
  5
70A5C
330
6E980
100
AcDbEntity
  8
2
 62
     2
100
AcDbMText
 10
940.7056498094267
 20
341.5728690616375
 30
0.0
 40
3.149999999999999
 41
0.0
 71
     5
 72
     1
  1
\A1;75
  7
ROMAN
 11
0.0000000000000001
 21
1.0
 31
0.0
 73
     1
 44
1.0
1001
ACAD
1000
MTEXTBEGIN
1070
    73
1070
     1
1070
    44
1040
1.0
1070
    74
1070
     0
1000
MTEXTEND
  0
POINT
  5
70A5D
330
6E980
100
AcDbEntity
  8
DEFPOINTS
 62
     0
100
AcDbPoint
 10
912.7081770090397
 20
379.0728690616373
 30
0.0
  0
POINT
  5
70A5E
330
6E980
100
AcDbEntity
  8
DEFPOINTS
 62
     0
100
AcDbPoint
 10
912.7081770090397
 20
304.0728690616373
 30
0.0
  0
POINT
  5
70A5F
330
6E980
100
AcDbEntity
  8
DEFPOINTS
 62
     0
100
AcDbPoint
 10
943.0806498094268
 20
304.0728690616373
 30
0.0
  0
ENDBLK
  5
6E982
330
6E980
100
AcDbEntity
  8
0
100
AcDbBlockEnd
  0
BLOCK
  5
6E999
330
6E998
100
AcDbEntity
  8
0
100
AcDbBlockBegin
  2
*D6915
 70
     1
 10
0.0
 20
0.0
 30
0.0
  3
*D6915
  1

  0
LINE
  5
70A60
330
6E998
100
AcDbEntity
  8
0
 62
     4
370
    -2
100
AcDbLine
 10
916.2081770090397
 20
381.5728690616373
 30
0.0
 11
957.1834807664769
 21
381.5728690616373
 31
0.0
  0
LINE
  5
70A61
330
6E998
100
AcDbEntity
  8
0
 62
     4
370
    -2
100
AcDbLine
 10
916.2081770090397
 20
301.5728690616376
 30
0.0
 11
957.1834807664769
 21
301.5728690616376
 31
0.0
  0
LINE
  5
70A62
330
6E998
100
AcDbEntity
  8
0
 62
     4
370
    -2
100
AcDbLine
 10
955.183480766477
 20
378.4228690616374
 30
0.0
 11
955.183480766477
 21
304.7228690616375
 31
0.0
  0
SOLID
  5
70A63
330
6E998
100
AcDbEntity
  8
0
 62
     4
100
AcDbTrace
 10
954.6584807664769
 20
378.4228690616374
 30
0.0
 11
955.708480766477
 21
378.4228690616374
 31
0.0
 12
955.183480766477
 22
381.5728690616373
 32
0.0
 13
955.183480766477
 23
381.5728690616373
 33
0.0
  0
SOLID
  5
70A64
330
6E998
100
AcDbEntity
  8
0
 62
     4
100
AcDbTrace
 10
954.6584807664769
 20
304.7228690616375
 30
0.0
 11
955.708480766477
 21
304.7228690616375
 31
0.0
 12
955.183480766477
 22
301.5728690616376
 32
0.0
 13
955.183480766477
 23
301.5728690616376
 33
0.0
  0
MTEXT
  5
70A65
330
6E998
100
AcDbEntity
  8
0
 62
     2
100
AcDbMText
 10
952.8084807664768
 20
341.5728690616376
 30
0.0
 40
3.149999999999999
 41
0.0
 71
     5
 72
     1
  1
\A1;80
  7
ROMAN
 11
0.0000000000000001
 21
1.0
 31
0.0
 73
     1
 44
1.0
1001
ACAD
1000
MTEXTBEGIN
1070
    73
1070
     1
1070
    44
1040
1.0
1070
    74
1070
     0
1000
MTEXTEND
  0
POINT
  5
70A66
330
6E998
100
AcDbEntity
  8
DEFPOINTS
 62
     0
100
AcDbPoint
 10
915.2081770090397
 20
381.5728690616373
 30
0.0
  0
POINT
  5
70A67
330
6E998
100
AcDbEntity
  8
DEFPOINTS
 62
     0
100
AcDbPoint
 10
915.2081770090397
 20
301.5728690616376
 30
0.0
  0
POINT
  5
70A68
330
6E998
100
AcDbEntity
  8
DEFPOINTS
 62
     0
100
AcDbPoint
 10
955.183480766477
 20
301.5728690616376
 30
0.0
  0
ENDBLK
  5
6E99A
330
6E998
100
AcDbEntity
  8
0
100
AcDbBlockEnd
  0
BLOCK
  5
6E9B1
330
6E9B0
100
AcDbEntity
  8
0
100
AcDbBlockBegin
  2
*D6916
 70
     1
 10
0.0
 20
0.0
 30
0.0
  3
*D6916
  1

  0
LINE
  5
70B42
330
6E9B0
100
AcDbEntity
  8
0
 62
     4
370
    -2
100
AcDbLine
 10
821.2081960090428
 20
382.5728759731415
 30
0.0
 11
821.2081960090428
 21
429.3799071099279
 31
0.0
  0
LINE
  5
70B43
330
6E9B0
100
AcDbEntity
  8
0
 62
     4
370
    -2
100
AcDbLine
 10
923.2081620090395
 20
382.5728690616372
 30
0.0
 11
923.2081620090395
 21
429.3799071099279
 31
0.0
  0
LINE
  5
70B44
330
6E9B0
100
AcDbEntity
  8
0
 62
     4
370
    -2
100
AcDbLine
 10
824.3581960090427
 20
427.3799071099279
 30
0.0
 11
920.0581620090394
 21
427.3799071099279
 31
0.0
  0
SOLID
  5
70B45
330
6E9B0
100
AcDbEntity
  8
0
 62
     4
100
AcDbTrace
 10
824.3581960090427
 20
427.9049071099279
 30
0.0
 11
824.3581960090427
 21
426.8549071099279
 31
0.0
 12
821.2081960090428
 22
427.3799071099279
 32
0.0
 13
821.2081960090428
 23
427.3799071099279
 33
0.0
  0
SOLID
  5
70B46
330
6E9B0
100
AcDbEntity
  8
0
 62
     4
100
AcDbTrace
 10
920.0581620090394
 20
427.9049071099279
 30
0.0
 11
920.0581620090394
 21
426.8549071099279
 31
0.0
 12
923.2081620090395
 22
427.3799071099279
 32
0.0
 13
923.2081620090395
 23
427.3799071099279
 33
0.0
  0
MTEXT
  5
70B47
330
6E9B0
100
AcDbEntity
  8
0
 62
     2
100
AcDbMText
 10
872.2081790090411
 20
429.7549071099279
 30
0.0
 40
3.149999999999999
 41
0.0
 71
     5
 72
     1
  1
\A1;102
  7
ROMAN
 73
     1
 44
1.0
1001
ACAD
1000
MTEXTBEGIN
1070
    73
1070
     1
1070
    44
1040
1.0
1070
    74
1070
     0
1000
MTEXTEND
  0
POINT
  5
70B48
330
6E9B0
100
AcDbEntity
  8
DEFPOINTS
 62
     0
100
AcDbPoint
 10
821.2081960090428
 20
381.5728759731415
 30
0.0
  0
POINT
  5
70B49
330
6E9B0
100
AcDbEntity
  8
DEFPOINTS
 62
     0
100
AcDbPoint
 10
923.2081620090395
 20
381.5728690616372
 30
0.0
  0
POINT
  5
70B4A
330
6E9B0
100
AcDbEntity
  8
DEFPOINTS
 62
     0
100
AcDbPoint
 10
923.2081620090395
 20
427.3799071099279
 30
0.0
  0
ENDBLK
  5
6E9B2
330
6E9B0
100
AcDbEntity
  8
0
100
AcDbBlockEnd
  0
BLOCK
  5
6E9C9
330
6E9C8
100
AcDbEntity
  8
0
100
AcDbBlockBegin
  2
*D6917
 70
     1
 10
0.0
 20
0.0
 30
0.0
  3
*D6917
  1

  0
LINE
  5
70A72
330
6E9C8
100
AcDbEntity
  8
0
 62
     4
370
    -2
100
AcDbLine
 10
913.2081620090396
 20
392.5728690616373
 30
0.0
 11
968.4682444156116
 21
392.5728690616373
 31
0.0
  0
LINE
  5
70A73
330
6E9C8
100
AcDbEntity
  8
0
 62
     4
370
    -2
100
AcDbLine
 10
913.2081654647898
 20
290.5728690616381
 30
0.0
 11
968.4682444156116
 21
290.5728690616381
 31
0.0
  0
LINE
  5
70A74
330
6E9C8
100
AcDbEntity
  8
0
 62
     4
370
    -2
100
AcDbLine
 10
966.4682444156117
 20
389.4228690616373
 30
0.0
 11
966.4682444156117
 21
293.7228690616381
 31
0.0
  0
SOLID
  5
70A75
330
6E9C8
100
AcDbEntity
  8
0
 62
     4
100
AcDbTrace
 10
965.9432444156117
 20
389.4228690616373
 30
0.0
 11
966.9932444156117
 21
389.4228690616373
 31
0.0
 12
966.4682444156117
 22
392.5728690616373
 32
0.0
 13
966.4682444156117
 23
392.5728690616373
 33
0.0
  0
SOLID
  5
70A76
330
6E9C8
100
AcDbEntity
  8
0
 62
     4
100
AcDbTrace
 10
965.9432444156117
 20
293.7228690616381
 30
0.0
 11
966.9932444156117
 21
293.7228690616381
 31
0.0
 12
966.4682444156117
 22
290.5728690616381
 32
0.0
 13
966.4682444156117
 23
290.5728690616381
 33
0.0
  0
MTEXT
  5
70A77
330
6E9C8
100
AcDbEntity
  8
0
 62
     2
100
AcDbMText
 10
964.0932444156115
 20
341.5728690616379
 30
0.0
 40
3.149999999999999
 41
0.0
 71
     5
 72
     1
  1
\A1;102
  7
ROMAN
 11
0.0000000000000001
 21
1.0
 31
0.0
 73
     1
 44
1.0
1001
ACAD
1000
MTEXTBEGIN
1070
    73
1070
     1
1070
    44
1040
1.0
1070
    74
1070
     0
1000
MTEXTEND
  0
POINT
  5
70A78
330
6E9C8
100
AcDbEntity
  8
DEFPOINTS
 62
     0
100
AcDbPoint
 10
912.2081620090396
 20
392.5728690616373
 30
0.0
  0
POINT
  5
70A79
330
6E9C8
100
AcDbEntity
  8
DEFPOINTS
 62
     0
100
AcDbPoint
 10
912.2081654647898
 20
290.5728690616381
 30
0.0
  0
POINT
  5
70A7A
330
6E9C8
100
AcDbEntity
  8
DEFPOINTS
 62
     0
100
AcDbPoint
 10
966.4682444156117
 20
290.5728690616381
 30
0.0
  0
ENDBLK
  5
6E9CA
330
6E9C8
100
AcDbEntity
  8
0
100
AcDbBlockEnd
  0
BLOCK
  5
6E9E1
330
6E9E0
100
AcDbEntity
  8
0
100
AcDbBlockBegin
  2
*D6918
 70
     1
 10
0.0
 20
0.0
 30
0.0
  3
*D6918
  1

  0
LINE
  5
70A7B
330
6E9E0
100
AcDbEntity
  8
0
 62
     4
370
    -2
100
AcDbLine
 10
924.2081770090406
 20
233.0594626257346
 30
0.0
 11
940.1768001283196
 21
233.0594626257346
 31
0.0
  0
LINE
  5
70A7C
330
6E9E0
100
AcDbEntity
  8
0
 62
     4
370
    -2
100
AcDbLine
 10
835.2081770090396
 20
65.05946262573456
 30
0.0
 11
940.1768001283196
 21
65.05946262573454
 31
0.0
  0
LINE
  5
70A7D
330
6E9E0
100
AcDbEntity
  8
0
 62
     4
370
    -2
100
AcDbLine
 10
938.1768001283196
 20
229.9094626257346
 30
0.0
 11
938.1768001283196
 21
68.20946262573454
 31
0.0
  0
SOLID
  5
70A7E
330
6E9E0
100
AcDbEntity
  8
0
 62
     4
100
AcDbTrace
 10
937.6518001283196
 20
229.9094626257346
 30
0.0
 11
938.7018001283196
 21
229.9094626257346
 31
0.0
 12
938.1768001283196
 22
233.0594626257346
 32
0.0
 13
938.1768001283196
 23
233.0594626257346
 33
0.0
  0
SOLID
  5
70A7F
330
6E9E0
100
AcDbEntity
  8
0
 62
     4
100
AcDbTrace
 10
937.6518001283196
 20
68.20946262573454
 30
0.0
 11
938.7018001283196
 21
68.20946262573454
 31
0.0
 12
938.1768001283196
 22
65.05946262573454
 32
0.0
 13
938.1768001283196
 23
65.05946262573454
 33
0.0
  0
MTEXT
  5
70A80
330
6E9E0
100
AcDbEntity
  8
0
 62
     2
100
AcDbMText
 10
935.8018001283197
 20
149.0594626257347
 30
0.0
 40
3.149999999999999
 41
0.0
 71
     5
 72
     1
  1
\A1;168
  7
ROMAN
 11
0.0000000000000001
 21
1.0
 31
0.0
 73
     1
 44
1.0
1001
ACAD
1000
MTEXTBEGIN
1070
    73
1070
     1
1070
    44
1040
1.0
1070
    74
1070
     0
1000
MTEXTEND
  0
POINT
  5
70A81
330
6E9E0
100
AcDbEntity
  8
DEFPOINTS
 62
     0
100
AcDbPoint
 10
923.2081770090406
 20
233.0594626257346
 30
0.0
  0
POINT
  5
70A82
330
6E9E0
100
AcDbEntity
  8
DEFPOINTS
 62
     0
100
AcDbPoint
 10
834.2081770090397
 20
65.05946262573456
 30
0.0
  0
POINT
  5
70A83
330
6E9E0
100
AcDbEntity
  8
DEFPOINTS
 62
     0
100
AcDbPoint
 10
938.1768001283196
 20
65.05946262573454
 30
0.0
  0
ENDBLK
  5
6E9E2
330
6E9E0
100
AcDbEntity
  8
0
100
AcDbBlockEnd
  0
BLOCK
  5
6E9F9
330
6E9F8
100
AcDbEntity
  8
0
100
AcDbBlockBegin
  2
*D6919
 70
     1
 10
0.0
 20
0.0
 30
0.0
  3
*D6919
  1

  0
LINE
  5
70B3A
330
6E9F8
100
AcDbEntity
  8
0
 62
     4
370
    -2
100
AcDbLine
 10
760.7867558511355
 20
161.1728143650904
 30
0.0
 11
774.5163342967622
 21
154.8872216559353
 31
0.0
  0
LINE
  5
70B3B
330
6E9F8
100
AcDbEntity
  8
0
 62
     4
370
    -2
100
AcDbLine
 10
893.9000197213164
 20
100.2317035955341
 30
0.0
 11
896.7641370791792
 21
98.92047067938598
 31
0.0
  0
MTEXT
  5
70B3C
102
{ACAD_XDICTIONARY
360
70FA0
102
}
330
6E9F8
100
AcDbEntity
  8
0
 62
     2
100
AcDbMText
 10
767.2081143873517
 20
160.8450880320547
 30
0.0
 40
3.149999999999999
 41
0.0
 71
     5
 72
     1
  1
\A1;\U+2205125
  7
ROMAN
 11
0.90924360567064
 21
-0.4162644178248408
 31
0.0
 73
     1
 44
1.0
1001
ACAD
1000
MTEXTBEGIN
1070
    73
1070
     1
1070
    44
1040
1.0
1070
    74
1070
     0
1000
MTEXTEND
  0
LINE
  5
70B3D
330
6E9F8
100
AcDbEntity
  8
0
 62
     4
370
    -2
100
AcDbLine
 10
891.0359023634541
 20
101.5429365116824
 30
0.0
 11
777.3804516546247
 21
153.5759887397871
 31
0.0
  0
SOLID
  5
70B3E
330
6E9F8
100
AcDbEntity
  8
0
 62
     4
100
AcDbTrace
 10
894.1185585406746
 20
100.7090564885112
 30
0.0
 11
893.6814809019585
 21
99.75435070255707
 31
0.0
 12
891.0359023634541
 22
101.5429365116824
 32
0.0
 13
891.0359023634541
 23
101.5429365116824
 33
0.0
  0
SOLID
  5
70B3F
330
6E9F8
100
AcDbEntity
  8
0
 62
     4
100
AcDbTrace
 10
774.7348731161203
 20
155.3645745489124
 30
0.0
 11
774.2977954774041
 21
154.4098687629582
 31
0.0
 12
777.3804516546247
 22
153.5759887397871
 32
0.0
 13
777.3804516546247
 23
153.5759887397871
 33
0.0
  0
POINT
  5
70B40
330
6E9F8
100
AcDbEntity
  8
DEFPOINTS
 62
     0
100
AcDbPoint
 10
777.3804516546247
 20
153.5759887397871
 30
0.0
  0
POINT
  5
70B41
330
6E9F8
100
AcDbEntity
  8
DEFPOINTS
 62
     0
100
AcDbPoint
 10
891.0359023634541
 20
101.5429365116824
 30
0.0
  0
ENDBLK
  5
6E9FA
330
6E9F8
100
AcDbEntity
  8
0
100
AcDbBlockEnd
  0
BLOCK
  5
6EA0F
330
6EA0E
100
AcDbEntity
  8
0
100
AcDbBlockBegin
  2
*D6920
 70
     1
 10
0.0
 20
0.0
 30
0.0
  3
*D6920
  1

  0
LINE
  5
70A8C
330
6EA0E
100
AcDbEntity
  8
2
  6
ByBlock
 62
     4
370
    -2
100
AcDbLine
 10
1088.706483606991
 20
375.8608445737345
 30
0.0
 11
1088.706483606991
 21
401.2326931012308
 31
0.0
  0
LINE
  5
70A8D
330
6EA0E
100
AcDbEntity
  8
2
  6
ByBlock
 62
     4
370
    -2
100
AcDbLine
 10
1163.706483606992
 20
375.8608445737345
 30
0.0
 11
1163.706483606992
 21
401.2326931012308
 31
0.0
  0
LINE
  5
70A8E
330
6EA0E
100
AcDbEntity
  8
2
  6
ByBlock
 62
     4
370
    -2
100
AcDbLine
 10
1091.856483606991
 20
399.2326931012309
 30
0.0
 11
1160.556483606992
 21
399.2326931012309
 31
0.0
  0
SOLID
  5
70A8F
330
6EA0E
100
AcDbEntity
  8
2
  6
ByBlock
 62
     4
100
AcDbTrace
 10
1091.856483606991
 20
399.7576931012309
 30
0.0
 11
1091.856483606991
 21
398.7076931012309
 31
0.0
 12
1088.706483606991
 22
399.2326931012309
 32
0.0
 13
1088.706483606991
 23
399.2326931012309
 33
0.0
  0
SOLID
  5
70A90
330
6EA0E
100
AcDbEntity
  8
2
  6
ByBlock
 62
     4
100
AcDbTrace
 10
1160.556483606992
 20
399.7576931012309
 30
0.0
 11
1160.556483606992
 21
398.7076931012309
 31
0.0
 12
1163.706483606992
 22
399.2326931012309
 32
0.0
 13
1163.706483606992
 23
399.2326931012309
 33
0.0
  0
MTEXT
  5
70A91
330
6EA0E
100
AcDbEntity
  8
2
  6
ByBlock
 62
     2
100
AcDbMText
 10
1126.206483606992
 20
401.6076931012309
 30
0.0
 40
3.149999999999999
 41
0.0
 71
     5
 72
     1
  1
\A1;75
  7
ROMAN
 73
     1
 44
1.0
1001
ACAD
1000
MTEXTBEGIN
1070
    73
1070
     1
1070
    44
1040
1.0
1070
    74
1070
     0
1000
MTEXTEND
  0
POINT
  5
70A92
330
6EA0E
100
AcDbEntity
  8
DEFPOINTS
  6
ByBlock
 62
     0
100
AcDbPoint
 10
1088.706483606991
 20
374.8608445737346
 30
0.0
  0
POINT
  5
70A93
330
6EA0E
100
AcDbEntity
  8
DEFPOINTS
  6
ByBlock
 62
     0
100
AcDbPoint
 10
1163.706483606992
 20
374.8608445737346
 30
0.0
  0
POINT
  5
70A94
330
6EA0E
100
AcDbEntity
  8
DEFPOINTS
  6
ByBlock
 62
     0
100
AcDbPoint
 10
1163.706483606992
 20
399.2326931012309
 30
0.0
  0
ENDBLK
  5
6EA10
330
6EA0E
100
AcDbEntity
  8
0
100
AcDbBlockEnd
  0
BLOCK
  5
6EA27
330
6EA26
100
AcDbEntity
  8
0
100
AcDbBlockBegin
  2
*D6921
 70
     1
 10
0.0
 20
0.0
 30
0.0
  3
*D6921
  1

  0
LINE
  5
70A95
330
6EA26
100
AcDbEntity
  8
0
 62
     4
370
    -2
100
AcDbLine
 10
1086.206483606991
 20
378.3608445737347
 30
0.0
 11
1086.206483606991
 21
410.867468985747
 31
0.0
  0
LINE
  5
70A96
330
6EA26
100
AcDbEntity
  8
0
 62
     4
370
    -2
100
AcDbLine
 10
1166.206483606992
 20
378.3608445737347
 30
0.0
 11
1166.206483606992
 21
410.867468985747
 31
0.0
  0
LINE
  5
70A97
330
6EA26
100
AcDbEntity
  8
0
 62
     4
370
    -2
100
AcDbLine
 10
1089.356483606991
 20
408.8674689857469
 30
0.0
 11
1163.056483606992
 21
408.8674689857469
 31
0.0
  0
SOLID
  5
70A98
330
6EA26
100
AcDbEntity
  8
0
 62
     4
100
AcDbTrace
 10
1089.356483606991
 20
409.392468985747
 30
0.0
 11
1089.356483606991
 21
408.342468985747
 31
0.0
 12
1086.206483606991
 22
408.8674689857469
 32
0.0
 13
1086.206483606991
 23
408.8674689857469
 33
0.0
  0
SOLID
  5
70A99
330
6EA26
100
AcDbEntity
  8
0
 62
     4
100
AcDbTrace
 10
1163.056483606992
 20
409.392468985747
 30
0.0
 11
1163.056483606992
 21
408.342468985747
 31
0.0
 12
1166.206483606992
 22
408.8674689857469
 32
0.0
 13
1166.206483606992
 23
408.8674689857469
 33
0.0
  0
MTEXT
  5
70A9A
330
6EA26
100
AcDbEntity
  8
0
 62
     2
100
AcDbMText
 10
1126.206483606992
 20
411.2424689857469
 30
0.0
 40
3.149999999999999
 41
0.0
 71
     5
 72
     1
  1
\A1;80
  7
ROMAN
 73
     1
 44
1.0
1001
ACAD
1000
MTEXTBEGIN
1070
    73
1070
     1
1070
    44
1040
1.0
1070
    74
1070
     0
1000
MTEXTEND
  0
POINT
  5
70A9B
330
6EA26
100
AcDbEntity
  8
DEFPOINTS
 62
     0
100
AcDbPoint
 10
1086.206483606991
 20
377.3608445737346
 30
0.0
  0
POINT
  5
70A9C
330
6EA26
100
AcDbEntity
  8
DEFPOINTS
 62
     0
100
AcDbPoint
 10
1166.206483606992
 20
377.3608445737346
 30
0.0
  0
POINT
  5
70A9D
330
6EA26
100
AcDbEntity
  8
DEFPOINTS
 62
     0
100
AcDbPoint
 10
1166.206483606992
 20
408.8674689857469
 30
0.0
  0
ENDBLK
  5
6EA28
330
6EA26
100
AcDbEntity
  8
0
100
AcDbBlockEnd
  0
BLOCK
  5
6EA3F
330
6EA3E
100
AcDbEntity
  8
0
100
AcDbBlockBegin
  2
*D6922
 70
     1
 10
0.0
 20
0.0
 30
0.0
  3
*D6922
  1

  0
LINE
  5
70B5C
330
6EA3E
100
AcDbEntity
  8
0
 62
     4
370
    -2
100
AcDbLine
 10
1075.206502606994
 20
375.3608514852387
 30
0.0
 11
1075.206502606994
 21
420.9839829398092
 31
0.0
  0
LINE
  5
70B5D
330
6EA3E
100
AcDbEntity
  8
0
 62
     4
370
    -2
100
AcDbLine
 10
1177.206468606992
 20
375.3608445737344
 30
0.0
 11
1177.206468606992
 21
420.9839829398092
 31
0.0
  0
LINE
  5
70B5E
330
6EA3E
100
AcDbEntity
  8
0
 62
     4
370
    -2
100
AcDbLine
 10
1078.356502606994
 20
418.9839829398092
 30
0.0
 11
1174.056468606992
 21
418.9839829398092
 31
0.0
  0
SOLID
  5
70B5F
330
6EA3E
100
AcDbEntity
  8
0
 62
     4
100
AcDbTrace
 10
1078.356502606994
 20
419.5089829398091
 30
0.0
 11
1078.356502606994
 21
418.4589829398092
 31
0.0
 12
1075.206502606994
 22
418.9839829398092
 32
0.0
 13
1075.206502606994
 23
418.9839829398092
 33
0.0
  0
SOLID
  5
70B60
330
6EA3E
100
AcDbEntity
  8
0
 62
     4
100
AcDbTrace
 10
1174.056468606992
 20
419.5089829398091
 30
0.0
 11
1174.056468606992
 21
418.4589829398092
 31
0.0
 12
1177.206468606992
 22
418.9839829398092
 32
0.0
 13
1177.206468606992
 23
418.9839829398092
 33
0.0
  0
MTEXT
  5
70B61
330
6EA3E
100
AcDbEntity
  8
0
 62
     2
100
AcDbMText
 10
1126.206485606993
 20
421.3589829398092
 30
0.0
 40
3.149999999999999
 41
0.0
 71
     5
 72
     1
  1
\A1;102
  7
ROMAN
 73
     1
 44
1.0
1001
ACAD
1000
MTEXTBEGIN
1070
    73
1070
     1
1070
    44
1040
1.0
1070
    74
1070
     0
1000
MTEXTEND
  0
POINT
  5
70B62
330
6EA3E
100
AcDbEntity
  8
DEFPOINTS
 62
     0
100
AcDbPoint
 10
1075.206502606994
 20
374.3608514852387
 30
0.0
  0
POINT
  5
70B63
330
6EA3E
100
AcDbEntity
  8
DEFPOINTS
 62
     0
100
AcDbPoint
 10
1177.206468606992
 20
374.3608445737344
 30
0.0
  0
POINT
  5
70B64
330
6EA3E
100
AcDbEntity
  8
DEFPOINTS
 62
     0
100
AcDbPoint
 10
1177.206468606992
 20
418.9839829398092
 30
0.0
  0
ENDBLK
  5
6EA40
330
6EA3E
100
AcDbEntity
  8
0
100
AcDbBlockEnd
  0
BLOCK
  5
6EA57
330
6EA56
100
AcDbEntity
  8
0
100
AcDbBlockBegin
  2
*D6923
 70
     1
 10
0.0
 20
0.0
 30
0.0
  3
*D6923
  1

  0
LINE
  5
70AA7
330
6EA56
100
AcDbEntity
  8
0
 62
     4
370
    -2
100
AcDbLine
 10
1167.706483606992
 20
371.8608445737348
 30
0.0
 11
1197.430108563864
 21
371.8608445737348
 31
0.0
  0
LINE
  5
70AA8
330
6EA56
100
AcDbEntity
  8
0
 62
     4
370
    -2
100
AcDbLine
 10
1167.706483606992
 20
296.8608445737347
 30
0.0
 11
1197.430108563864
 21
296.8608445737347
 31
0.0
  0
LINE
  5
70AA9
330
6EA56
100
AcDbEntity
  8
0
 62
     4
370
    -2
100
AcDbLine
 10
1195.430108563864
 20
368.7108445737348
 30
0.0
 11
1195.430108563864
 21
300.0108445737347
 31
0.0
  0
SOLID
  5
70AAA
330
6EA56
100
AcDbEntity
  8
0
 62
     4
100
AcDbTrace
 10
1194.905108563864
 20
368.7108445737348
 30
0.0
 11
1195.955108563864
 21
368.7108445737348
 31
0.0
 12
1195.430108563864
 22
371.8608445737348
 32
0.0
 13
1195.430108563864
 23
371.8608445737348
 33
0.0
  0
SOLID
  5
70AAB
330
6EA56
100
AcDbEntity
  8
0
 62
     4
100
AcDbTrace
 10
1194.905108563864
 20
300.0108445737347
 30
0.0
 11
1195.955108563864
 21
300.0108445737347
 31
0.0
 12
1195.430108563864
 22
296.8608445737347
 32
0.0
 13
1195.430108563864
 23
296.8608445737347
 33
0.0
  0
MTEXT
  5
70AAC
330
6EA56
100
AcDbEntity
  8
0
 62
     2
100
AcDbMText
 10
1193.055108563864
 20
334.3608445737349
 30
0.0
 40
3.149999999999999
 41
0.0
 71
     5
 72
     1
  1
\A1;75
  7
ROMAN
 11
0.0000000000000001
 21
1.0
 31
0.0
 73
     1
 44
1.0
1001
ACAD
1000
MTEXTBEGIN
1070
    73
1070
     1
1070
    44
1040
1.0
1070
    74
1070
     0
1000
MTEXTEND
  0
POINT
  5
70AAD
330
6EA56
100
AcDbEntity
  8
DEFPOINTS
 62
     0
100
AcDbPoint
 10
1166.706483606992
 20
371.8608445737348
 30
0.0
  0
POINT
  5
70AAE
330
6EA56
100
AcDbEntity
  8
DEFPOINTS
 62
     0
100
AcDbPoint
 10
1166.706483606992
 20
296.8608445737347
 30
0.0
  0
POINT
  5
70AAF
330
6EA56
100
AcDbEntity
  8
DEFPOINTS
 62
     0
100
AcDbPoint
 10
1195.430108563864
 20
296.8608445737347
 30
0.0
  0
ENDBLK
  5
6EA58
330
6EA56
100
AcDbEntity
  8
0
100
AcDbBlockEnd
  0
BLOCK
  5
6EA6F
330
6EA6E
100
AcDbEntity
  8
0
100
AcDbBlockBegin
  2
*D6924
 70
     1
 10
0.0
 20
0.0
 30
0.0
  3
*D6924
  1

  0
LINE
  5
70AB0
330
6EA6E
100
AcDbEntity
  8
0
 62
     4
370
    -2
100
AcDbLine
 10
1170.206483606992
 20
374.3608445737345
 30
0.0
 11
1207.552514339716
 21
374.3608445737345
 31
0.0
  0
LINE
  5
70AB1
330
6EA6E
100
AcDbEntity
  8
0
 62
     4
370
    -2
100
AcDbLine
 10
1170.206483606992
 20
294.3608445737345
 30
0.0
 11
1207.552514339716
 21
294.3608445737345
 31
0.0
  0
LINE
  5
70AB2
330
6EA6E
100
AcDbEntity
  8
0
 62
     4
370
    -2
100
AcDbLine
 10
1205.552514339716
 20
371.2108445737346
 30
0.0
 11
1205.552514339716
 21
297.5108445737345
 31
0.0
  0
SOLID
  5
70AB3
330
6EA6E
100
AcDbEntity
  8
0
 62
     4
100
AcDbTrace
 10
1205.027514339716
 20
371.2108445737346
 30
0.0
 11
1206.077514339716
 21
371.2108445737346
 31
0.0
 12
1205.552514339716
 22
374.3608445737345
 32
0.0
 13
1205.552514339716
 23
374.3608445737345
 33
0.0
  0
SOLID
  5
70AB4
330
6EA6E
100
AcDbEntity
  8
0
 62
     4
100
AcDbTrace
 10
1205.027514339716
 20
297.5108445737345
 30
0.0
 11
1206.077514339716
 21
297.5108445737345
 31
0.0
 12
1205.552514339716
 22
294.3608445737345
 32
0.0
 13
1205.552514339716
 23
294.3608445737345
 33
0.0
  0
MTEXT
  5
70AB5
330
6EA6E
100
AcDbEntity
  8
0
 62
     2
100
AcDbMText
 10
1203.177514339716
 20
334.3608445737348
 30
0.0
 40
3.149999999999999
 41
0.0
 71
     5
 72
     1
  1
\A1;80
  7
ROMAN
 11
0.0000000000000001
 21
1.0
 31
0.0
 73
     1
 44
1.0
1001
ACAD
1000
MTEXTBEGIN
1070
    73
1070
     1
1070
    44
1040
1.0
1070
    74
1070
     0
1000
MTEXTEND
  0
POINT
  5
70AB6
330
6EA6E
100
AcDbEntity
  8
DEFPOINTS
 62
     0
100
AcDbPoint
 10
1169.206483606992
 20
374.3608445737345
 30
0.0
  0
POINT
  5
70AB7
330
6EA6E
100
AcDbEntity
  8
DEFPOINTS
 62
     0
100
AcDbPoint
 10
1169.206483606992
 20
294.3608445737345
 30
0.0
  0
POINT
  5
70AB8
330
6EA6E
100
AcDbEntity
  8
DEFPOINTS
 62
     0
100
AcDbPoint
 10
1205.552514339716
 20
294.3608445737345
 30
0.0
  0
ENDBLK
  5
6EA70
330
6EA6E
100
AcDbEntity
  8
0
100
AcDbBlockEnd
  0
BLOCK
  5
6EA87
330
6EA86
100
AcDbEntity
  8
0
100
AcDbBlockBegin
  2
*D6925
 70
     1
 10
0.0
 20
0.0
 30
0.0
  3
*D6925
  1

  0
LINE
  5
70B53
330
6EA86
100
AcDbEntity
  8
0
 62
     4
370
    -2
100
AcDbLine
 10
1167.206461503503
 20
385.3608445737322
 30
0.0
 11
1217.564502958511
 21
385.3608445737322
 31
0.0
  0
LINE
  5
70B54
330
6EA86
100
AcDbEntity
  8
0
 62
     4
370
    -2
100
AcDbLine
 10
1167.206468606991
 20
283.3608445737343
 30
0.0
 11
1217.564502958511
 21
283.3608445737343
 31
0.0
  0
LINE
  5
70B55
330
6EA86
100
AcDbEntity
  8
0
 62
     4
370
    -2
100
AcDbLine
 10
1215.564502958511
 20
382.2108445737323
 30
0.0
 11
1215.564502958511
 21
286.5108445737343
 31
0.0
  0
SOLID
  5
70B56
330
6EA86
100
AcDbEntity
  8
0
 62
     4
100
AcDbTrace
 10
1215.039502958511
 20
382.2108445737323
 30
0.0
 11
1216.089502958511
 21
382.2108445737323
 31
0.0
 12
1215.564502958511
 22
385.3608445737322
 32
0.0
 13
1215.564502958511
 23
385.3608445737322
 33
0.0
  0
SOLID
  5
70B57
330
6EA86
100
AcDbEntity
  8
0
 62
     4
100
AcDbTrace
 10
1215.039502958511
 20
286.5108445737343
 30
0.0
 11
1216.089502958511
 21
286.5108445737343
 31
0.0
 12
1215.564502958511
 22
283.3608445737343
 32
0.0
 13
1215.564502958511
 23
283.3608445737343
 33
0.0
  0
MTEXT
  5
70B58
330
6EA86
100
AcDbEntity
  8
0
 62
     2
100
AcDbMText
 10
1213.189502958511
 20
334.3608445737335
 30
0.0
 40
3.149999999999999
 41
0.0
 71
     5
 72
     1
  1
\A1;102
  7
ROMAN
 11
0.0000000000000001
 21
1.0
 31
0.0
 73
     1
 44
1.0
1001
ACAD
1000
MTEXTBEGIN
1070
    73
1070
     1
1070
    44
1040
1.0
1070
    74
1070
     0
1000
MTEXTEND
  0
POINT
  5
70B59
330
6EA86
100
AcDbEntity
  8
DEFPOINTS
 62
     0
100
AcDbPoint
 10
1166.206461503503
 20
385.3608445737322
 30
0.0
  0
POINT
  5
70B5A
330
6EA86
100
AcDbEntity
  8
DEFPOINTS
 62
     0
100
AcDbPoint
 10
1166.206468606991
 20
283.3608445737343
 30
0.0
  0
POINT
  5
70B5B
330
6EA86
100
AcDbEntity
  8
DEFPOINTS
 62
     0
100
AcDbPoint
 10
1215.564502958511
 20
283.3608445737343
 30
0.0
  0
ENDBLK
  5
6EA88
330
6EA86
100
AcDbEntity
  8
0
100
AcDbBlockEnd
  0
BLOCK
  5
6EAA7
330
6EAA6
100
AcDbEntity
  8
0
100
AcDbBlockBegin
  2
*D6926
 70
     1
 10
0.0
 20
0.0
 30
0.0
  3
*D6926
  1

  0
LINE
  5
70AC2
330
6EAA6
100
AcDbEntity
  8
0
 62
     4
370
    -2
100
AcDbLine
 10
1178.206483606992
 20
242.5594696257345
 30
0.0
 11
1196.55645891028
 21
242.5594696257345
 31
0.0
  0
LINE
  5
70AC3
330
6EAA6
100
AcDbEntity
  8
0
 62
     4
370
    -2
100
AcDbLine
 10
1086.206483606991
 20
52.55947062573449
 30
0.0
 11
1196.55645891028
 21
52.55947062573446
 31
0.0
  0
LINE
  5
70AC4
330
6EAA6
100
AcDbEntity
  8
0
 62
     4
370
    -2
100
AcDbLine
 10
1194.55645891028
 20
239.4094696257345
 30
0.0
 11
1194.55645891028
 21
55.70947062573446
 31
0.0
  0
SOLID
  5
70AC5
330
6EAA6
100
AcDbEntity
  8
0
 62
     4
100
AcDbTrace
 10
1194.03145891028
 20
239.4094696257345
 30
0.0
 11
1195.08145891028
 21
239.4094696257345
 31
0.0
 12
1194.55645891028
 22
242.5594696257345
 32
0.0
 13
1194.55645891028
 23
242.5594696257345
 33
0.0
  0
SOLID
  5
70AC6
330
6EAA6
100
AcDbEntity
  8
0
 62
     4
100
AcDbTrace
 10
1194.03145891028
 20
55.70947062573446
 30
0.0
 11
1195.08145891028
 21
55.70947062573446
 31
0.0
 12
1194.55645891028
 22
52.55947062573446
 32
0.0
 13
1194.55645891028
 23
52.55947062573446
 33
0.0
  0
MTEXT
  5
70AC7
330
6EAA6
100
AcDbEntity
  8
0
 62
     2
100
AcDbMText
 10
1192.18145891028
 20
147.5594701257347
 30
0.0
 40
3.149999999999999
 41
0.0
 71
     5
 72
     1
  1
\A1;190
  7
ROMAN
 11
0.0000000000000001
 21
1.0
 31
0.0
 73
     1
 44
1.0
1001
ACAD
1000
MTEXTBEGIN
1070
    73
1070
     1
1070
    44
1040
1.0
1070
    74
1070
     0
1000
MTEXTEND
  0
POINT
  5
70AC8
330
6EAA6
100
AcDbEntity
  8
DEFPOINTS
 62
     0
100
AcDbPoint
 10
1177.206483606992
 20
242.5594696257345
 30
0.0
  0
POINT
  5
70AC9
330
6EAA6
100
AcDbEntity
  8
DEFPOINTS
 62
     0
100
AcDbPoint
 10
1085.206483606991
 20
52.55947062573449
 30
0.0
  0
POINT
  5
70ACA
330
6EAA6
100
AcDbEntity
  8
DEFPOINTS
 62
     0
100
AcDbPoint
 10
1194.55645891028
 20
52.55947062573446
 30
0.0
  0
ENDBLK
  5
6EAA8
330
6EAA6
100
AcDbEntity
  8
0
100
AcDbBlockEnd
  0
BLOCK
  5
6EABF
330
6EABE
100
AcDbEntity
  8
0
100
AcDbBlockBegin
  2
*D6927
 70
     1
 10
0.0
 20
0.0
 30
0.0
  3
*D6927
  1

  0
LINE
  5
70B4B
330
6EABE
100
AcDbEntity
  8
0
 62
     4
370
    -2
100
AcDbLine
 10
995.4803568785475
 20
166.4694921995299
 30
0.0
 11
1013.507890581761
 21
158.6517929951766
 31
0.0
  0
LINE
  5
70B4C
330
6EABE
100
AcDbEntity
  8
0
 62
     4
370
    -2
100
AcDbLine
 10
1156.90507663222
 20
96.46713225629293
 30
0.0
 11
1159.79503941084
 21
95.21389040485747
 31
0.0
  0
MTEXT
  5
70B4D
102
{ACAD_XDICTIONARY
360
70FA2
102
}
330
6EABE
100
AcDbEntity
  8
0
 62
     2
100
AcDbMText
 10
1001.907016243441
 20
166.2712514175924
 30
0.0
 40
3.149999999999999
 41
0.0
 71
     5
 72
     1
  1
\A1;\U+2205150
  7
ROMAN
 11
0.9174485011493002
 21
-0.3978545560112416
 31
0.0
 73
     1
 44
1.0
1001
ACAD
1000
MTEXTBEGIN
1070
    73
1070
     1
1070
    44
1040
1.0
1070
    74
1070
     0
1000
MTEXTEND
  0
LINE
  5
70B4E
330
6EABE
100
AcDbEntity
  8
0
 62
     4
370
    -2
100
AcDbLine
 10
1154.0151138536
 20
97.72037410772833
 30
0.0
 11
1016.397853360382
 21
157.3985511437412
 31
0.0
  0
SOLID
  5
70B4F
330
6EABE
100
AcDbEntity
  8
0
 62
     4
100
AcDbTrace
 10
1157.113950274126
 20
96.9487927193963
 30
0.0
 11
1156.696202990314
 21
95.98547179318961
 31
0.0
 12
1154.0151138536
 22
97.72037410772833
 32
0.0
 13
1154.0151138536
 23
97.72037410772833
 33
0.0
  0
SOLID
  5
70B50
330
6EABE
100
AcDbEntity
  8
0
 62
     4
100
AcDbTrace
 10
1013.716764223667
 20
159.13345345828
 30
0.0
 11
1013.299016939856
 21
158.1701325320733
 31
0.0
 12
1016.397853360382
 22
157.3985511437412
 32
0.0
 13
1016.397853360382
 23
157.3985511437412
 33
0.0
  0
POINT
  5
70B51
330
6EABE
100
AcDbEntity
  8
DEFPOINTS
 62
     0
100
AcDbPoint
 10
1016.397853360382
 20
157.3985511437412
 30
0.0
  0
POINT
  5
70B52
330
6EABE
100
AcDbEntity
  8
DEFPOINTS
 62
     0
100
AcDbPoint
 10
1154.0151138536
 20
97.72037410772833
 30
0.0
  0
ENDBLK
  5
6EAC0
330
6EABE
100
AcDbEntity
  8
0
100
AcDbBlockEnd
  0
BLOCK
  5
6F700
330
6F6FF
100
AcDbEntity
  8
0
100
AcDbBlockBegin
  2
*D6933
 70
     1
 10
0.0
 20
0.0
 30
0.0
  3
*D6933
  1

  0
LINE
  5
70AD3
330
6F6FF
100
AcDbEntity
  8
0
 62
     4
370
    -2
100
AcDbLine
 10
75.74388994928563
 20
270.4934471444015
 30
0.0
 11
75.74388994928563
 21
281.7288258039077
 31
0.0
  0
LINE
  5
70AD4
330
6F6FF
100
AcDbEntity
  8
0
 62
     4
370
    -2
100
AcDbLine
 10
130.7438899492856
 20
270.4934471444015
 30
0.0
 11
130.7438899492856
 21
281.7288258039077
 31
0.0
  0
LINE
  5
70AD5
330
6F6FF
100
AcDbEntity
  8
0
 62
     4
370
    -2
100
AcDbLine
 10
78.89388994928563
 20
279.7288258039078
 30
0.0
 11
127.5938899492856
 21
279.7288258039078
 31
0.0
  0
SOLID
  5
70AD6
330
6F6FF
100
AcDbEntity
  8
0
 62
     4
100
AcDbTrace
 10
78.89388994928563
 20
280.2538258039077
 30
0.0
 11
78.89388994928563
 21
279.2038258039077
 31
0.0
 12
75.74388994928563
 22
279.7288258039078
 32
0.0
 13
75.74388994928563
 23
279.7288258039078
 33
0.0
  0
SOLID
  5
70AD7
330
6F6FF
100
AcDbEntity
  8
0
 62
     4
100
AcDbTrace
 10
127.5938899492856
 20
280.2538258039077
 30
0.0
 11
127.5938899492856
 21
279.2038258039077
 31
0.0
 12
130.7438899492856
 22
279.7288258039078
 32
0.0
 13
130.7438899492856
 23
279.7288258039078
 33
0.0
  0
MTEXT
  5
70AD8
330
6F6FF
100
AcDbEntity
  8
0
 62
     2
100
AcDbMText
 10
103.2438899492856
 20
282.1038258039077
 30
0.0
 40
3.149999999999999
 41
0.0
 71
     5
 72
     1
  1
\A1;55
  7
ROMAN
 73
     1
 44
1.0
1001
ACAD
1000
MTEXTBEGIN
1070
    73
1070
     1
1070
    44
1040
1.0
1070
    74
1070
     0
1000
MTEXTEND
  0
POINT
  5
70AD9
330
6F6FF
100
AcDbEntity
  8
DEFPOINTS
 62
     0
100
AcDbPoint
 10
75.74388994928563
 20
269.4934471444014
 30
0.0
  0
POINT
  5
70ADA
330
6F6FF
100
AcDbEntity
  8
DEFPOINTS
 62
     0
100
AcDbPoint
 10
130.7438899492856
 20
269.4934471444014
 30
0.0
  0
POINT
  5
70ADB
330
6F6FF
100
AcDbEntity
  8
DEFPOINTS
 62
     0
100
AcDbPoint
 10
130.7438899492856
 20
279.7288258039078
 30
0.0
  0
ENDBLK
  5
6F701
330
6F6FF
100
AcDbEntity
  8
0
100
AcDbBlockEnd
  0
BLOCK
  5
6F70C
330
6F70B
100
AcDbEntity
  8
0
100
AcDbBlockBegin
  2
*D6934
 70
     1
 10
0.0
 20
0.0
 30
0.0
  3
*D6934
  1

  0
LINE
  5
70ADC
330
6F70B
100
AcDbEntity
  8
0
 62
     4
370
    -2
100
AcDbLine
 10
68.24388994928654
 20
264.9934471444013
 30
0.0
 11
68.24388994928654
 21
291.9617329782952
 31
0.0
  0
LINE
  5
70ADD
330
6F70B
100
AcDbEntity
  8
0
 62
     4
370
    -2
100
AcDbLine
 10
138.2438899492865
 20
264.9934471444013
 30
0.0
 11
138.2438899492865
 21
291.9617329782952
 31
0.0
  0
LINE
  5
70ADE
330
6F70B
100
AcDbEntity
  8
0
 62
     4
370
    -2
100
AcDbLine
 10
71.39388994928655
 20
289.9617329782952
 30
0.0
 11
135.0938899492865
 21
289.9617329782952
 31
0.0
  0
SOLID
  5
70ADF
330
6F70B
100
AcDbEntity
  8
0
 62
     4
100
AcDbTrace
 10
71.39388994928655
 20
290.4867329782952
 30
0.0
 11
71.39388994928655
 21
289.4367329782952
 31
0.0
 12
68.24388994928654
 22
289.9617329782952
 32
0.0
 13
68.24388994928654
 23
289.9617329782952
 33
0.0
  0
SOLID
  5
70AE0
330
6F70B
100
AcDbEntity
  8
0
 62
     4
100
AcDbTrace
 10
135.0938899492865
 20
290.4867329782952
 30
0.0
 11
135.0938899492865
 21
289.4367329782952
 31
0.0
 12
138.2438899492865
 22
289.9617329782952
 32
0.0
 13
138.2438899492865
 23
289.9617329782952
 33
0.0
  0
MTEXT
  5
70AE1
330
6F70B
100
AcDbEntity
  8
0
 62
     2
100
AcDbMText
 10
103.2438899492865
 20
292.3367329782952
 30
0.0
 40
3.149999999999999
 41
0.0
 71
     5
 72
     1
  1
\A1;70
  7
ROMAN
 73
     1
 44
1.0
1001
ACAD
1000
MTEXTBEGIN
1070
    73
1070
     1
1070
    44
1040
1.0
1070
    74
1070
     0
1000
MTEXTEND
  0
POINT
  5
70AE2
330
6F70B
100
AcDbEntity
  8
DEFPOINTS
 62
     0
100
AcDbPoint
 10
68.24388994928654
 20
263.9934471444013
 30
0.0
  0
POINT
  5
70AE3
330
6F70B
100
AcDbEntity
  8
DEFPOINTS
 62
     0
100
AcDbPoint
 10
138.2438899492865
 20
263.9934471444013
 30
0.0
  0
POINT
  5
70AE4
330
6F70B
100
AcDbEntity
  8
DEFPOINTS
 62
     0
100
AcDbPoint
 10
138.2438899492865
 20
289.9617329782952
 30
0.0
  0
ENDBLK
  5
6F70D
330
6F70B
100
AcDbEntity
  8
0
100
AcDbBlockEnd
  0
BLOCK
  5
6F718
330
6F717
100
AcDbEntity
  8
0
100
AcDbBlockBegin
  2
*D6935
 70
     1
 10
0.0
 20
0.0
 30
0.0
  3
*D6935
  1

  0
LINE
  5
70B65
330
6F717
100
AcDbEntity
  8
0
 62
     4
370
    -2
100
AcDbLine
 10
136.1438899492856
 20
264.4934471444013
 30
0.0
 11
149.1249660417935
 21
264.4934471444013
 31
0.0
  0
LINE
  5
70B66
330
6F717
100
AcDbEntity
  8
0
 62
     4
370
    -2
100
AcDbLine
 10
136.7438899492855
 20
222.4934471444013
 30
0.0
 11
149.1249660417935
 21
222.4934471444013
 31
0.0
  0
LINE
  5
70B67
330
6F717
100
AcDbEntity
  8
0
 62
     4
370
    -2
100
AcDbLine
 10
147.1249660417935
 20
261.3434471444013
 30
0.0
 11
147.1249660417935
 21
225.6434471444013
 31
0.0
  0
SOLID
  5
70B68
330
6F717
100
AcDbEntity
  8
0
 62
     4
100
AcDbTrace
 10
146.5999660417935
 20
261.3434471444013
 30
0.0
 11
147.6499660417935
 21
261.3434471444013
 31
0.0
 12
147.1249660417935
 22
264.4934471444013
 32
0.0
 13
147.1249660417935
 23
264.4934471444013
 33
0.0
  0
SOLID
  5
70B69
330
6F717
100
AcDbEntity
  8
0
 62
     4
100
AcDbTrace
 10
146.5999660417935
 20
225.6434471444013
 30
0.0
 11
147.6499660417935
 21
225.6434471444013
 31
0.0
 12
147.1249660417935
 22
222.4934471444013
 32
0.0
 13
147.1249660417935
 23
222.4934471444013
 33
0.0
  0
MTEXT
  5
70B6A
330
6F717
100
AcDbEntity
  8
0
 62
     2
100
AcDbMText
 10
144.7499660417935
 20
243.4934471444013
 30
0.0
 40
3.149999999999999
 41
0.0
 71
     5
 72
     1
  1
\A1;42
  7
ROMAN
 11
0.0000000000000001
 21
1.0
 31
0.0
 73
     1
 44
1.0
1001
ACAD
1000
MTEXTBEGIN
1070
    73
1070
     1
1070
    44
1040
1.0
1070
    74
1070
     0
1000
MTEXTEND
  0
POINT
  5
70B6B
330
6F717
100
AcDbEntity
  8
DEFPOINTS
 62
     0
100
AcDbPoint
 10
135.1438899492856
 20
264.4934471444013
 30
0.0
  0
POINT
  5
70B6C
330
6F717
100
AcDbEntity
  8
DEFPOINTS
 62
     0
100
AcDbPoint
 10
135.7438899492855
 20
222.4934471444013
 30
0.0
  0
POINT
  5
70B6D
330
6F717
100
AcDbEntity
  8
DEFPOINTS
 62
     0
100
AcDbPoint
 10
147.1249660417935
 20
222.4934471444013
 30
0.0
  0
ENDBLK
  5
6F719
330
6F717
100
AcDbEntity
  8
0
100
AcDbBlockEnd
  0
BLOCK
  5
6F724
330
6F723
100
AcDbEntity
  8
0
100
AcDbBlockBegin
  2
*D6936
 70
     1
 10
0.0
 20
0.0
 30
0.0
  3
*D6936
  1

  0
LINE
  5
70AEE
330
6F723
100
AcDbEntity
  8
0
 62
     4
370
    -2
100
AcDbLine
 10
130.7438899492856
 20
272.4934471444013
 30
0.0
 11
159.7817429714787
 21
272.4934471444013
 31
0.0
  0
LINE
  5
70AEF
330
6F723
100
AcDbEntity
  8
0
 62
     4
370
    -2
100
AcDbLine
 10
130.7438899492856
 20
214.4934471444015
 30
0.0
 11
159.7817429714787
 21
214.4934471444015
 31
0.0
  0
LINE
  5
70AF0
330
6F723
100
AcDbEntity
  8
0
 62
     4
370
    -2
100
AcDbLine
 10
157.7817429714787
 20
269.3434471444013
 30
0.0
 11
157.7817429714787
 21
217.6434471444014
 31
0.0
  0
SOLID
  5
70AF1
330
6F723
100
AcDbEntity
  8
0
 62
     4
100
AcDbTrace
 10
157.2567429714787
 20
269.3434471444013
 30
0.0
 11
158.3067429714787
 21
269.3434471444013
 31
0.0
 12
157.7817429714787
 22
272.4934471444013
 32
0.0
 13
157.7817429714787
 23
272.4934471444013
 33
0.0
  0
SOLID
  5
70AF2
330
6F723
100
AcDbEntity
  8
0
 62
     4
100
AcDbTrace
 10
157.2567429714787
 20
217.6434471444014
 30
0.0
 11
158.3067429714787
 21
217.6434471444014
 31
0.0
 12
157.7817429714787
 22
214.4934471444015
 32
0.0
 13
157.7817429714787
 23
214.4934471444015
 33
0.0
  0
MTEXT
  5
70AF3
330
6F723
100
AcDbEntity
  8
0
 62
     2
100
AcDbMText
 10
155.4067429714786
 20
243.4934471444014
 30
0.0
 40
3.149999999999999
 41
0.0
 71
     5
 72
     1
  1
\A1;58
  7
ROMAN
 11
0.0000000000000001
 21
1.0
 31
0.0
 73
     1
 44
1.0
1001
ACAD
1000
MTEXTBEGIN
1070
    73
1070
     1
1070
    44
1040
1.0
1070
    74
1070
     0
1000
MTEXTEND
  0
POINT
  5
70AF4
330
6F723
100
AcDbEntity
  8
DEFPOINTS
 62
     0
100
AcDbPoint
 10
129.7438899492856
 20
272.4934471444013
 30
0.0
  0
POINT
  5
70AF5
330
6F723
100
AcDbEntity
  8
DEFPOINTS
 62
     0
100
AcDbPoint
 10
129.7438899492856
 20
214.4934471444015
 30
0.0
  0
POINT
  5
70AF6
330
6F723
100
AcDbEntity
  8
DEFPOINTS
 62
     0
100
AcDbPoint
 10
157.7817429714787
 20
214.4934471444015
 30
0.0
  0
ENDBLK
  5
6F725
330
6F723
100
AcDbEntity
  8
0
100
AcDbBlockEnd
  0
BLOCK
  5
6F730
330
6F72F
100
AcDbEntity
  8
0
100
AcDbBlockBegin
  2
*D6937
 70
     1
 10
0.0
 20
0.0
 30
0.0
  3
*D6937
  1

  0
LINE
  5
70AF7
330
6F72F
100
AcDbEntity
  8
0
 62
     4
370
    -2
100
AcDbLine
 10
139.2438899492856
 20
171.4934471444014
 30
0.0
 11
151.0617556336058
 21
171.4934471444014
 31
0.0
  0
LINE
  5
70AF8
330
6F72F
100
AcDbEntity
  8
0
 62
     4
370
    -2
100
AcDbLine
 10
75.24388994928654
 20
100.9934511444014
 30
0.0
 11
151.0617556336058
 21
100.9934511444014
 31
0.0
  0
LINE
  5
70AF9
330
6F72F
100
AcDbEntity
  8
0
 62
     4
370
    -2
100
AcDbLine
 10
149.0617556336058
 20
168.3434471444014
 30
0.0
 11
149.0617556336058
 21
104.1434511444014
 31
0.0
  0
SOLID
  5
70AFA
330
6F72F
100
AcDbEntity
  8
0
 62
     4
100
AcDbTrace
 10
148.5367556336058
 20
168.3434471444014
 30
0.0
 11
149.5867556336058
 21
168.3434471444014
 31
0.0
 12
149.0617556336058
 22
171.4934471444014
 32
0.0
 13
149.0617556336058
 23
171.4934471444014
 33
0.0
  0
SOLID
  5
70AFB
330
6F72F
100
AcDbEntity
  8
0
 62
     4
100
AcDbTrace
 10
148.5367556336058
 20
104.1434511444014
 30
0.0
 11
149.5867556336058
 21
104.1434511444014
 31
0.0
 12
149.0617556336058
 22
100.9934511444014
 32
0.0
 13
149.0617556336058
 23
100.9934511444014
 33
0.0
  0
MTEXT
  5
70AFC
330
6F72F
100
AcDbEntity
  8
0
 62
     2
100
AcDbMText
 10
146.6867556336057
 20
136.2434491444014
 30
0.0
 40
3.149999999999999
 41
0.0
 71
     5
 72
     1
  1
\A1;70
  7
ROMAN
 11
0.0000000000000001
 21
1.0
 31
0.0
 73
     1
 44
1.0
1001
ACAD
1000
MTEXTBEGIN
1070
    73
1070
     1
1070
    44
1040
1.0
1070
    74
1070
     0
1000
MTEXTEND
  0
POINT
  5
70AFD
330
6F72F
100
AcDbEntity
  8
DEFPOINTS
 62
     0
100
AcDbPoint
 10
138.2438899492856
 20
171.4934471444014
 30
0.0
  0
POINT
  5
70AFE
330
6F72F
100
AcDbEntity
  8
DEFPOINTS
 62
     0
100
AcDbPoint
 10
74.24388994928654
 20
100.9934511444014
 30
0.0
  0
POINT
  5
70AFF
330
6F72F
100
AcDbEntity
  8
DEFPOINTS
 62
     0
100
AcDbPoint
 10
149.0617556336058
 20
100.9934511444014
 30
0.0
  0
ENDBLK
  5
6F731
330
6F72F
100
AcDbEntity
  8
0
100
AcDbBlockEnd
  0
BLOCK
  5
6FC7F
330
6FC7E
100
AcDbEntity
  8
0
100
AcDbBlockBegin
  2
*D6940
 70
     1
 10
0.0
 20
0.0
 30
0.0
  3
*D6940
  1

  0
LINE
  5
70B6E
330
6FC7E
100
AcDbEntity
  8
0
 62
     4
370
    -2
100
AcDbLine
 10
22.34584630105333
 20
157.1528811867622
 30
0.0
 11
50.10969222007004
 21
140.4835512119331
 31
0.0
  0
LINE
  5
70B6F
330
6FC7E
100
AcDbEntity
  8
0
 62
     4
370
    -2
100
AcDbLine
 10
98.37808767850379
 20
111.5033510768693
 30
0.0
 11
101.078717264544
 21
109.8819011581225
 31
0.0
  0
MTEXT
  5
70B70
102
{ACAD_XDICTIONARY
360
70FA4
102
}
330
6FC7E
100
AcDbEntity
  8
0
 62
     2
100
AcDbMText
 10
27.66217958053456
 20
156.731157981946
 30
0.0
 40
3.149999999999999
 41
0.0
 71
     5
 72
     1
  1
\A1;\U+220550
  7
ROMAN
 11
0.857342725727052
 21
-0.5147460059513903
 31
0.0
 73
     1
 44
1.0
1001
ACAD
1000
MTEXTBEGIN
1070
    73
1070
     1
1070
    44
1040
1.0
1070
    74
1070
     0
1000
MTEXTEND
  0
LINE
  5
70B71
330
6FC7E
100
AcDbEntity
  8
0
 62
     4
370
    -2
100
AcDbLine
 10
95.67745809246359
 20
113.1248009956162
 30
0.0
 11
52.81032180611025
 21
138.8621012931862
 31
0.0
  0
SOLID
  5
70B72
330
6FC7E
100
AcDbEntity
  8
0
 62
     4
100
AcDbTrace
 10
98.64832933162828
 20
111.953456007876
 30
0.0
 11
98.1078460253793
 21
111.0532461458626
 31
0.0
 12
95.67745809246359
 22
113.1248009956162
 32
0.0
 13
95.67745809246359
 23
113.1248009956162
 33
0.0
  0
SOLID
  5
70B73
330
6FC7E
100
AcDbEntity
  8
0
 62
     4
100
AcDbTrace
 10
50.37993387319453
 20
140.9336561429397
 30
0.0
 11
49.83945056694555
 21
140.0334462809263
 31
0.0
 12
52.81032180611025
 22
138.8621012931862
 32
0.0
 13
52.81032180611025
 23
138.8621012931862
 33
0.0
  0
POINT
  5
70B74
330
6FC7E
100
AcDbEntity
  8
DEFPOINTS
 62
     0
100
AcDbPoint
 10
52.81032180611025
 20
138.8621012931862
 30
0.0
  0
POINT
  5
70B75
330
6FC7E
100
AcDbEntity
  8
DEFPOINTS
 62
     0
100
AcDbPoint
 10
95.67745809246359
 20
113.1248009956162
 30
0.0
  0
ENDBLK
  5
6FC80
330
6FC7E
100
AcDbEntity
  8
0
100
AcDbBlockEnd
  0
BLOCK
  5
6FC95
330
6FC94
100
AcDbEntity
  8
0
100
AcDbBlockBegin
  2
*D6941
 70
     1
 10
0.0
 20
0.0
 30
0.0
  3
*D6941
  1

  0
LINE
  5
70B19
330
6FC94
100
AcDbEntity
  8
0
 62
     4
370
    -2
100
AcDbLine
 10
167.6704499858917
 20
165.3619321713906
 30
0.0
 11
203.7513489459763
 21
144.0955051715599
 31
0.0
  0
LINE
  5
70B1A
330
6FC94
100
AcDbEntity
  8
0
 62
     4
370
    -2
100
AcDbLine
 10
265.1757134928835
 20
107.891397117243
 30
0.0
 11
267.8894126278451
 21
106.2919168876343
 31
0.0
  0
MTEXT
  5
70B1B
102
{ACAD_XDICTIONARY
360
70F9A
102
}
330
6FC94
100
AcDbEntity
  8
0
 62
     2
100
AcDbMText
 10
172.9900305937526
 20
164.9833662504866
 30
0.0
 40
3.149999999999999
 41
0.0
 71
     5
 72
     1
  1
\A1;\U+220565
  7
ROMAN
 11
0.8614917888766784
 21
-0.5077715014630698
 31
0.0
 73
     1
 44
1.0
1001
ACAD
1000
MTEXTBEGIN
1070
    73
1070
     1
1070
    44
1040
1.0
1070
    74
1070
     0
1000
MTEXTEND
  0
LINE
  5
70B1C
330
6FC94
100
AcDbEntity
  8
0
 62
     4
370
    -2
100
AcDbLine
 10
262.462014357922
 20
109.4908773468516
 30
0.0
 11
206.4650480809378
 21
142.4960249419513
 31
0.0
  0
SOLID
  5
70B1D
330
6FC94
100
AcDbEntity
  8
0
 62
     4
100
AcDbTrace
 10
265.4422935311516
 20
108.3436803064032
 30
0.0
 11
264.9091334546154
 21
107.4391139280827
 31
0.0
 12
262.462014357922
 22
109.4908773468516
 32
0.0
 13
262.462014357922
 23
109.4908773468516
 33
0.0
  0
SOLID
  5
70B1E
330
6FC94
100
AcDbEntity
  8
0
 62
     4
100
AcDbTrace
 10
204.0179289842444
 20
144.5477883607202
 30
0.0
 11
203.4847689077081
 21
143.6432219823997
 31
0.0
 12
206.4650480809378
 22
142.4960249419513
 32
0.0
 13
206.4650480809378
 23
142.4960249419513
 33
0.0
  0
POINT
  5
70B1F
330
6FC94
100
AcDbEntity
  8
DEFPOINTS
 62
     0
100
AcDbPoint
 10
206.4650480809378
 20
142.4960249419513
 30
0.0
  0
POINT
  5
70B20
330
6FC94
100
AcDbEntity
  8
DEFPOINTS
 62
     0
100
AcDbPoint
 10
262.462014357922
 20
109.4908773468516
 30
0.0
  0
ENDBLK
  5
6FC96
330
6FC94
100
AcDbEntity
  8
0
100
AcDbBlockEnd
  0
ENDSEC
  0
SECTION
  2
ENTITIES
  0
MTEXT
  5
BDA
330
37
100
AcDbEntity
  8
0
100
AcDbMText
 10
505.3324403821018
 20
21.52122833278699
 30
0.0
 40
5.0
 41
73.6851108604992
 71
     1
 72
     5
  1
{\C3;MODEL.}
 73
     1
 44
1.0
1001
ACAD
1000
MTEXTBEGIN
1070
    73
1070
     1
1070
    44
1040
1.0
1070
    74
1070
     0
1000
MTEXTEND
  0
MTEXT
  5
BDB
330
37
100
AcDbEntity
  8
0
100
AcDbMText
 10
655.5687856203487
 20
29.35266768262147
 30
0.0
 40
7.0
 41
98.62168694440493
 71
     1
 72
     5
  1
{\C2;SCALE 1 : 1}
 73
     1
 44
1.0
1001
ACAD
1000
MTEXTBEGIN
1070
    73
1070
     1
1070
    44
1040
1.0
1070
    74
1070
     0
1000
MTEXTEND
  0
LINE
  5
BDC
330
37
100
AcDbEntity
  8
0
 62
     3
100
AcDbLine
 10
534.4179733089338
 20
17.37720497796991
 30
0.0
 11
569.0584105068007
 21
17.3772049779698
 31
0.0
  0
MTEXT
  5
BDD
330
37
100
AcDbEntity
  8
0
100
AcDbMText
 10
536.9412790823278
 20
29.37139063019646
 30
-0.000000000000007
 40
10.0
 41
163.0114685368746
 71
     1
 72
     5
  1
{\Fromans|c129;\C2;420S}
  7
RR
 73
     1
 44
1.0
1001
ACAD
1000
MTEXTBEGIN
1070
    73
1070
     1
1070
    44
1040
1.0
1070
    74
1070
     0
1000
MTEXTEND
  0
LINE
  5
6E23A
330
37
100
AcDbEntity
  8
2
  6
CENTER2
 62
     1
100
AcDbLine
 10
263.4635312194298
 20
275.9934471444014
 30
0.0
 11
263.4635312194298
 21
210.9934471444014
 31
0.0
  0
LINE
  5
6E23B
330
37
100
AcDbEntity
  8
2
  6
CENTER2
 62
     1
100
AcDbLine
 10
228.8705592194296
 20
243.4934471444013
 30
0.0
 11
297.9996612194298
 21
243.4934471444013
 31
0.0
  0
LINE
  5
6E23C
102
{ACAD_REACTORS
330
6E7D1
102
}
330
37
100
AcDbEntity
  8
1
  6
Continuous
 62
     7
100
AcDbLine
 10
236.9635312194307
 20
272.4934471444013
 30
0.0
 11
289.9635312194298
 21
272.4934471444013
 31
0.0
  0
LINE
  5
6E23D
102
{ACAD_REACTORS
330
6E7D1
102
}
330
37
100
AcDbEntity
  8
1
  6
Continuous
 62
     7
100
AcDbLine
 10
236.9635312194307
 20
214.4934471444015
 30
0.0
 11
289.9635312194298
 21
214.4934471444015
 31
0.0
  0
LINE
  5
6E23E
102
{ACAD_REACTORS
330
6E789
102
}
330
37
100
AcDbEntity
  8
2
  6
CENTER2
 62
     1
100
AcDbLine
 10
235.9635312194298
 20
269.4934471444014
 30
0.0
 11
235.9635312194298
 21
259.4934471444014
 31
0.0
  0
LINE
  5
6E23F
330
37
100
AcDbEntity
  8
2
  6
CENTER2
 62
     1
100
AcDbLine
 10
230.9635312194298
 20
264.4934471444013
 30
0.0
 11
240.9635312194298
 21
264.4934471444013
 31
0.0
  0
LINE
  5
6E240
330
37
100
AcDbEntity
  8
2
  6
CENTER2
 62
     1
100
AcDbLine
 10
235.9635312194298
 20
227.4934471444013
 30
0.0
 11
235.9635312194298
 21
217.4934471444014
 31
0.0
  0
LINE
  5
6E241
330
37
100
AcDbEntity
  8
2
  6
CENTER2
 62
     1
100
AcDbLine
 10
230.9635312194298
 20
222.4934471444013
 30
0.0
 11
240.9635312194298
 21
222.4934471444013
 31
0.0
  0
LINE
  5
6E242
330
37
100
AcDbEntity
  8
2
  6
CENTER2
 62
     1
100
AcDbLine
 10
290.9635312194298
 20
227.4934471444013
 30
0.0
 11
290.9635312194298
 21
217.4934471444014
 31
0.0
  0
LINE
  5
6E243
102
{ACAD_REACTORS
330
6E7B9
102
}
330
37
100
AcDbEntity
  8
2
  6
CENTER2
 62
     1
100
AcDbLine
 10
285.9635312194298
 20
222.4934471444013
 30
0.0
 11
295.9635312194298
 21
222.4934471444013
 31
0.0
  0
LINE
  5
6E244
102
{ACAD_REACTORS
330
6E789
102
}
330
37
100
AcDbEntity
  8
2
  6
CENTER2
 62
     1
100
AcDbLine
 10
290.9635312194298
 20
269.4934471444014
 30
0.0
 11
290.9635312194298
 21
259.4934471444014
 31
0.0
  0
LINE
  5
6E245
330
37
100
AcDbEntity
  8
2
  6
CENTER2
 62
     1
100
AcDbLine
 10
285.9635312194298
 20
264.4934471444013
 30
0.0
 11
295.9635312194298
 21
264.4934471444013
 31
0.0
  0
LINE
  5
6E246
330
37
100
AcDbEntity
  8
2
  6
CENTER2
 62
     1
100
AcDbLine
 10
263.4635312194298
 20
135.1536601444015
 30
0.0
 11
263.4635312194298
 21
182.3334311444012
 31
0.0
  0
LINE
  5
6E247
330
37
100
AcDbEntity
  8
1
  6
Continuous
 62
     7
100
AcDbLine
 10
228.4635312194298
 20
176.1934481444014
 30
0.0
 11
228.4635312194298
 21
178.4934471444014
 31
0.0
  0
LINE
  5
6E248
330
37
100
AcDbEntity
  8
2
  6
CENTER2
 62
     1
100
AcDbLine
 10
235.9635312194298
 20
173.6264081444014
 30
0.0
 11
235.9635312194298
 21
180.5768521444014
 31
0.0
  0
LINE
  5
6E249
330
37
100
AcDbEntity
  8
1
  6
Continuous
 62
     7
100
AcDbLine
 10
236.2135312194298
 20
176.1934451444012
 30
0.0
 11
237.9436762194298
 21
173.5154621444015
 31
0.0
  0
LINE
  5
6E24A
330
37
100
AcDbEntity
  8
1
  6
Continuous
 62
     7
100
AcDbLine
 10
286.4635312194298
 20
172.1434491444014
 30
0.0
 11
240.4635312194298
 21
172.1434491444014
 31
0.0
  0
LINE
  5
6E24B
330
37
100
AcDbEntity
  8
1
  6
Continuous
 62
     7
100
AcDbLine
 10
290.7135312194298
 20
176.1934431444014
 30
0.0
 11
288.9833812194297
 21
173.5154631444015
 31
0.0
  0
LINE
  5
6E24C
330
37
100
AcDbEntity
  8
2
  6
CENTER2
 62
     1
100
AcDbLine
 10
290.9635312194298
 20
173.6264081444014
 30
0.0
 11
290.9635312194298
 21
180.5768521444014
 31
0.0
  0
LINE
  5
6E24D
330
37
100
AcDbEntity
  8
1
  6
Continuous
 62
     7
100
AcDbLine
 10
298.4635312194298
 20
176.1934481444014
 30
0.0
 11
228.4635312194298
 21
176.1934481444014
 31
0.0
  0
LINE
  5
6E24E
330
37
100
AcDbEntity
  8
1
  6
Continuous
 62
     7
100
AcDbLine
 10
298.4635312194298
 20
176.1934481444014
 30
0.0
 11
298.4635312194298
 21
178.4934471444014
 31
0.0
  0
LINE
  5
6E24F
102
{ACAD_REACTORS
330
6E7E9
102
}
330
37
100
AcDbEntity
  8
1
  6
Continuous
 62
     7
100
AcDbLine
 10
298.4635312194298
 20
178.4934471444014
 30
0.0
 11
228.4635312194298
 21
178.4934471444014
 31
0.0
  0
LINE
  5
6E250
330
37
100
AcDbEntity
  8
1
  6
Continuous
 62
     7
100
AcDbLine
 10
227.6635322194297
 20
164.7242151444015
 30
0.0
 11
227.8490212194297
 21
162.4317101444015
 31
0.0
  0
LINE
  5
6E252
330
37
100
AcDbEntity
  8
1
  6
Continuous
 62
     7
100
AcDbLine
 10
227.8490212194297
 20
162.4317101444015
 30
0.0
 11
231.0563772194298
 21
162.6912211444016
 31
0.0
  0
LINE
  5
6E253
330
37
100
AcDbEntity
  8
1
  6
Continuous
 62
     7
100
AcDbLine
 10
286.3548312194298
 20
160.9934461444015
 30
0.0
 11
281.1794582194298
 21
160.9934461444015
 31
0.0
  0
LINE
  5
6E254
330
37
100
AcDbEntity
  8
1
  6
Continuous
 62
     7
100
AcDbLine
 10
238.7413712194298
 20
167.9339181444015
 30
0.0
 11
238.5981172194297
 21
166.8046721444016
 31
0.0
  0
LINE
  5
6E255
330
37
100
AcDbEntity
  8
1
  6
Continuous
 62
     7
100
AcDbLine
 10
227.6635322194297
 20
164.7242151444015
 30
0.0
 11
242.8265722194296
 21
165.9510771444015
 31
0.0
  0
LINE
  5
6E256
330
37
100
AcDbEntity
  8
1
  6
Continuous
 62
     7
100
AcDbLine
 10
288.2070112194297
 20
167.7071161444015
 30
0.0
 11
288.6092012194297
 21
161.1313281444015
 31
0.0
  0
LINE
  5
6E257
330
37
100
AcDbEntity
  8
2
  6
CENTER2
 62
     1
100
AcDbLine
 10
234.4635312194298
 20
161.3448491444014
 30
0.0
 11
234.4635312194298
 21
90.33098714440155
 31
0.0
  0
LINE
  5
6E258
330
37
100
AcDbEntity
  8
2
  6
CENTER2
 62
     1
100
AcDbLine
 10
198.5090327194298
 20
125.9934511444014
 30
0.0
 11
270.4180297194298
 21
125.9934511444014
 31
0.0
  0
LINE
  5
6E259
330
37
100
AcDbEntity
  8
1
  6
Continuous
 62
     7
100
AcDbLine
 10
288.6091912194297
 20
161.1313271444014
 30
0.0
 11
286.3548412194298
 21
160.9934451444015
 31
0.0
  0
LINE
  5
6E25A
330
37
100
AcDbEntity
  8
1
  6
Continuous
 62
     7
100
AcDbLine
 10
242.2135312194298
 20
170.9934451444015
 30
0.0
 11
284.7135312194298
 21
170.9934451444015
 31
0.0
  0
LINE
  5
6E25B
330
37
100
AcDbEntity
  8
1
  6
Continuous
 62
     7
100
AcDbLine
 10
242.8756982194307
 20
119.3957561444015
 30
0.0
 11
275.8262552194296
 21
158.5037981444015
 31
0.0
  0
LINE
  5
6E25C
330
37
100
AcDbEntity
  8
1
  6
Continuous
 62
     7
100
AcDbLine
 10
223.7429802194297
 20
128.9471561444015
 30
0.0
 11
231.1289292194297
 21
161.0863141444015
 31
0.0
  0
CIRCLE
  5
6E25D
330
37
100
AcDbEntity
  8
1
  6
Continuous
 62
     7
100
AcDbCircle
 10
235.9635312194298
 20
264.4934471444013
 30
0.0
 40
4.4
  0
CIRCLE
  5
6E25E
330
37
100
AcDbEntity
  8
1
  6
Continuous
 62
     7
100
AcDbCircle
 10
235.9635312194298
 20
222.4934471444013
 30
0.0
 40
4.4
  0
CIRCLE
  5
6E25F
330
37
100
AcDbEntity
  8
1
  6
Continuous
 62
     7
100
AcDbCircle
 10
290.9635312194298
 20
222.4934471444013
 30
0.0
 40
4.4
  0
CIRCLE
  5
6E260
102
{ACAD_REACTORS
330
6E7B9
102
}
330
37
100
AcDbEntity
  8
1
  6
Continuous
 62
     7
100
AcDbCircle
 10
290.9635312194298
 20
264.4934471444013
 30
0.0
 40
4.4
  0
ARC
  5
6E261
102
{ACAD_REACTORS
330
6E7A1
102
}
330
37
100
AcDbEntity
  8
1
  6
Continuous
 62
     7
100
AcDbCircle
 10
236.9635312194307
 20
263.9934471444013
 30
0.0
 40
8.5
100
AcDbArc
 50
89.9999820000008
 51
193.3935099999964
  0
ARC
  5
6E262
330
37
100
AcDbEntity
  8
1
  6
Continuous
 62
     7
100
AcDbCircle
 10
236.9635312194307
 20
222.9934471444011
 30
0.0
 40
8.5
100
AcDbArc
 50
166.6064699999969
 51
270.0
  0
ARC
  5
6E263
330
37
100
AcDbEntity
  8
1
  6
Continuous
 62
     7
100
AcDbCircle
 10
289.9635312194298
 20
222.9934471444011
 30
0.0
 40
8.5
100
AcDbArc
 50
270.000020000002
 51
13.39354799999751
  0
ARC
  5
6E264
102
{ACAD_REACTORS
330
6E7A1
102
}
330
37
100
AcDbEntity
  8
1
  6
Continuous
 62
     7
100
AcDbCircle
 10
289.9635312194298
 20
263.9934471444013
 30
0.0
 40
8.5
100
AcDbArc
 50
346.6064499999965
 51
89.9999820000008
  0
ARC
  5
6E265
330
37
100
AcDbEntity
  8
1
  6
Continuous
 62
     7
100
AcDbCircle
 10
376.0565012194297
 20
243.4934471444013
 30
0.0
 40
80.0
100
AcDbArc
 50
166.6064699999969
 51
193.3935099999964
  0
ARC
  5
6E266
330
37
100
AcDbEntity
  8
1
  6
Continuous
 62
     7
100
AcDbCircle
 10
150.8705592194296
 20
243.4934471444013
 30
0.0
 40
80.0
100
AcDbArc
 50
346.6064499999965
 51
13.39355200000006
  0
CIRCLE
  5
6E267
330
37
100
AcDbEntity
  8
1
  6
Continuous
 62
     7
100
AcDbCircle
 10
263.4635312194298
 20
243.4934471444013
 30
0.0
 40
9.5
  0
CIRCLE
  5
6E268
330
37
100
AcDbEntity
  8
1
  6
Continuous
 62
     7
100
AcDbCircle
 10
263.4635312194298
 20
243.4934471444013
 30
0.0
 40
11.75
  0
CIRCLE
  5
6E269
330
37
100
AcDbEntity
  8
1
  6
Continuous
 62
     7
100
AcDbCircle
 10
263.4635312194298
 20
243.4934471444013
 30
0.0
 40
24.0
  0
CIRCLE
  5
6E26A
330
37
100
AcDbEntity
  8
1
  6
Continuous
 62
     7
100
AcDbCircle
 10
263.4635312194298
 20
243.4934471444013
 30
0.0
 40
22.0
  0
ARC
  5
6E26B
330
37
100
AcDbEntity
  8
1
  6
Continuous
 62
     7
100
AcDbCircle
 10
240.4635312194298
 20
175.1434491444014
 30
0.0
 40
3.0
100
AcDbArc
 50
212.8650100000041
 51
270.0
  0
ARC
  5
6E26C
330
37
100
AcDbEntity
  8
1
  6
Continuous
 62
     7
100
AcDbCircle
 10
286.4635312194298
 20
175.1434491444014
 30
0.0
 40
3.0
100
AcDbArc
 50
270.0
 51
327.1349299999946
  0
ARC
  5
6E26D
330
37
100
AcDbEntity
  8
1
  6
Continuous
 62
     7
100
AcDbCircle
 10
263.4635312194298
 20
172.3714451444012
 30
0.0
 40
2.778
100
AcDbArc
 50
184.7076900000007
 51
209.7383799999968
  0
ARC
  5
6E26E
330
37
100
AcDbEntity
  8
1
  6
Continuous
 62
     7
100
AcDbCircle
 10
268.9498902194307
 20
172.3714451444012
 30
0.0
 40
2.778
100
AcDbArc
 50
189.0815400000001
 51
209.7383799999968
  0
ARC
  5
6E26F
330
37
100
AcDbEntity
  8
1
  6
Continuous
 62
     7
100
AcDbCircle
 10
273.8894952194298
 20
172.3714451444012
 30
0.0
 40
2.778
100
AcDbArc
 50
207.2447600000052
 51
209.7383799999968
  0
ARC
  5
6E270
330
37
100
AcDbEntity
  8
1
  6
Continuous
 62
     7
100
AcDbCircle
 10
277.7901072194297
 20
172.3714451444012
 30
0.0
 40
2.778
100
AcDbArc
 50
330.2616299999961
 51
355.2923099999993
  0
ARC
  5
6E271
330
37
100
AcDbEntity
  8
1
  6
Continuous
 62
     7
100
AcDbCircle
 10
280.2630002194298
 20
172.3714451444012
 30
0.0
 40
2.778
100
AcDbArc
 50
330.2616299999961
 51
355.2923099999993
  0
ARC
  5
6E272
330
37
100
AcDbEntity
  8
1
  6
Continuous
 62
     7
100
AcDbCircle
 10
281.0635292194297
 20
172.3714451444012
 30
0.0
 40
2.778
100
AcDbArc
 50
330.2616299999961
 51
355.2923099999993
  0
ARC
  5
6E273
330
37
100
AcDbEntity
  8
1
  6
Continuous
 62
     7
100
AcDbCircle
 10
263.4635312194298
 20
172.3714451444012
 30
0.0
 40
2.778
100
AcDbArc
 50
330.2616299999961
 51
355.2923099999993
  0
ARC
  5
6E274
330
37
100
AcDbEntity
  8
1
  6
Continuous
 62
     7
100
AcDbCircle
 10
268.9498902194307
 20
172.3714451444012
 30
0.0
 40
2.778
100
AcDbArc
 50
330.2616299999961
 51
355.2923099999993
  0
ARC
  5
6E275
330
37
100
AcDbEntity
  8
1
  6
Continuous
 62
     7
100
AcDbCircle
 10
273.8894952194298
 20
172.3714451444012
 30
0.0
 40
2.778
100
AcDbArc
 50
330.2616299999961
 51
355.2923099999993
  0
ARC
  5
6E276
330
37
100
AcDbEntity
  8
1
  6
Continuous
 62
     7
100
AcDbCircle
 10
253.0375672194298
 20
172.3714451444012
 30
0.0
 40
2.778
100
AcDbArc
 50
184.7076900000007
 51
209.7383799999968
  0
ARC
  5
6E277
330
37
100
AcDbEntity
  8
1
  6
Continuous
 62
     7
100
AcDbCircle
 10
257.9771722194307
 20
172.3714451444012
 30
0.0
 40
2.778
100
AcDbArc
 50
184.7076900000007
 51
209.7383799999968
  0
ARC
  5
6E278
330
37
100
AcDbEntity
  8
1
  6
Continuous
 62
     7
100
AcDbCircle
 10
249.1369552194296
 20
172.3714451444012
 30
0.0
 40
2.778
100
AcDbArc
 50
184.7076900000007
 51
209.7383799999968
  0
ARC
  5
6E279
330
37
100
AcDbEntity
  8
1
  6
Continuous
 62
     7
100
AcDbCircle
 10
257.9771722194307
 20
172.3714451444012
 30
0.0
 40
2.778
100
AcDbArc
 50
330.2616299999961
 51
350.9184599999999
  0
ARC
  5
6E27A
330
37
100
AcDbEntity
  8
1
  6
Continuous
 62
     7
100
AcDbCircle
 10
246.6640582194307
 20
172.3714451444012
 30
0.0
 40
2.778
100
AcDbArc
 50
184.7076900000007
 51
209.7383799999968
  0
ARC
  5
6E27B
330
37
100
AcDbEntity
  8
1
  6
Continuous
 62
     7
100
AcDbCircle
 10
253.0375672194298
 20
172.3714451444012
 30
0.0
 40
2.778
100
AcDbArc
 50
330.2616299999961
 51
332.7552399999948
  0
ARC
  5
6E27C
330
37
100
AcDbEntity
  8
1
  6
Continuous
 62
     7
100
AcDbCircle
 10
245.8635332194297
 20
172.3714451444012
 30
0.0
 40
2.778
100
AcDbArc
 50
184.7076900000007
 51
209.7383799999968
  0
ARC
  5
6E27D
102
{ACAD_REACTORS
330
6E7E9
330
6FCA8
102
}
330
37
100
AcDbEntity
  8
1
  6
Continuous
 62
     7
100
AcDbCircle
 10
234.4635312194298
 20
125.9934511444015
 30
0.0
 40
32.5
100
AcDbArc
 50
97.04640800000341
 51
30.69138300000305
  0
ARC
  5
6E27E
330
37
100
AcDbEntity
  8
1
  6
Continuous
 62
     7
100
AcDbCircle
 10
228.2051462194297
 20
161.7582331444015
 30
0.0
 40
3.0
100
AcDbArc
 50
347.0575000000004
 51
94.62579599999594
  0
ARC
  5
6E27F
330
37
100
AcDbEntity
  8
1
  6
Continuous
 62
     7
100
AcDbCircle
 10
281.1794582194298
 20
153.9934471444011
 30
0.0
 40
7.0
100
AcDbArc
 50
90.00000299999769
 51
139.8841199999948
  0
ARC
  5
6E280
330
37
100
AcDbEntity
  8
1
  6
Continuous
 62
     7
100
AcDbCircle
 10
284.7135312194298
 20
167.4934461444015
 30
0.0
 40
3.5
100
AcDbArc
 50
3.499999999999546
 51
89.9999820000008
  0
ARC
  5
6E281
330
37
100
AcDbEntity
  8
1
  6
Continuous
 62
     7
100
AcDbCircle
 10
242.2135312194298
 20
167.4934461444015
 30
0.0
 40
3.5
100
AcDbArc
 50
89.9999820000008
 51
172.7702100000005
  0
ARC
  5
6E282
330
37
100
AcDbEntity
  8
1
  6
Continuous
 62
     7
100
AcDbCircle
 10
237.1100312194296
 20
166.9934461444015
 30
0.0
 40
1.5
100
AcDbArc
 50
274.6258000000034
 51
352.770200000001
  0
ARC
  5
6E283
330
37
100
AcDbEntity
  8
1
  6
Continuous
 62
     7
100
AcDbCircle
 10
234.4635312194298
 20
126.4834491444015
 30
0.0
 40
11.0
100
AcDbArc
 50
167.0574899999985
 51
319.8841199999948
  0
CIRCLE
  5
6E298
330
37
100
AcDbEntity
  8
1
  6
Continuous
 62
     4
100
AcDbCircle
 10
234.4635312194298
 20
125.9934511444015
 30
0.0
 40
2.0
  0
CIRCLE
  5
6E299
330
37
100
AcDbEntity
  8
1
  6
Continuous
 62
     4
100
AcDbCircle
 10
234.4635312194298
 20
125.9934511444015
 30
0.0
 40
1.5
  0
CIRCLE
  5
6E29A
330
37
100
AcDbEntity
  8
1
  6
Continuous
 62
     7
100
AcDbCircle
 10
234.4635312194298
 20
125.9934511444015
 30
0.0
 40
6.25
  0
LINE
  5
6E306
330
37
100
AcDbEntity
  8
2
  6
CENTER2
 62
     1
100
AcDbLine
 10
437.0988405366326
 20
279.7763066778315
 30
0.0
 11
437.0988405366326
 21
214.7763066778316
 31
0.0
  0
LINE
  5
6E307
330
37
100
AcDbEntity
  8
2
  6
CENTER2
 62
     1
100
AcDbLine
 10
402.5058685366327
 20
247.2763066778315
 30
0.0
 11
471.6349705366326
 21
247.2763066778315
 31
0.0
  0
LINE
  5
6E308
102
{ACAD_REACTORS
330
6E85F
102
}
330
37
100
AcDbEntity
  8
1
  6
Continuous
 62
     7
100
AcDbLine
 10
410.5988405366327
 20
276.2763066778315
 30
0.0
 11
463.5988405366326
 21
276.2763066778315
 31
0.0
  0
LINE
  5
6E309
102
{ACAD_REACTORS
330
6E85F
102
}
330
37
100
AcDbEntity
  8
1
  6
Continuous
 62
     7
100
AcDbLine
 10
410.5988405366327
 20
218.2763066778315
 30
0.0
 11
463.5988405366326
 21
218.2763066778315
 31
0.0
  0
LINE
  5
6E30A
102
{ACAD_REACTORS
330
6E817
102
}
330
37
100
AcDbEntity
  8
2
  6
CENTER2
 62
     1
100
AcDbLine
 10
409.5988405366326
 20
273.2763066778316
 30
0.0
 11
409.5988405366326
 21
263.2763066778315
 31
0.0
  0
LINE
  5
6E30B
330
37
100
AcDbEntity
  8
2
  6
CENTER2
 62
     1
100
AcDbLine
 10
404.5988405366326
 20
268.2763066778315
 30
0.0
 11
414.5988405366327
 21
268.2763066778315
 31
0.0
  0
LINE
  5
6E30C
330
37
100
AcDbEntity
  8
2
  6
CENTER2
 62
     1
100
AcDbLine
 10
409.5988405366326
 20
231.2763066778316
 30
0.0
 11
409.5988405366326
 21
221.2763066778316
 31
0.0
  0
LINE
  5
6E30D
330
37
100
AcDbEntity
  8
2
  6
CENTER2
 62
     1
100
AcDbLine
 10
404.5988405366326
 20
226.2763066778315
 30
0.0
 11
414.5988405366327
 21
226.2763066778315
 31
0.0
  0
LINE
  5
6E30E
330
37
100
AcDbEntity
  8
2
  6
CENTER2
 62
     1
100
AcDbLine
 10
464.5988405366327
 20
231.2763066778316
 30
0.0
 11
464.5988405366327
 21
221.2763066778316
 31
0.0
  0
LINE
  5
6E30F
102
{ACAD_REACTORS
330
6E847
102
}
330
37
100
AcDbEntity
  8
2
  6
CENTER2
 62
     1
100
AcDbLine
 10
459.5988405366326
 20
226.2763066778315
 30
0.0
 11
469.5988405366327
 21
226.2763066778315
 31
0.0
  0
LINE
  5
6E310
102
{ACAD_REACTORS
330
6E817
102
}
330
37
100
AcDbEntity
  8
2
  6
CENTER2
 62
     1
100
AcDbLine
 10
464.5988405366327
 20
273.2763066778316
 30
0.0
 11
464.5988405366327
 21
263.2763066778315
 31
0.0
  0
LINE
  5
6E311
102
{ACAD_REACTORS
330
6E847
102
}
330
37
100
AcDbEntity
  8
2
  6
CENTER2
 62
     1
100
AcDbLine
 10
459.5988405366326
 20
268.2763066778315
 30
0.0
 11
469.5988405366327
 21
268.2763066778315
 31
0.0
  0
LINE
  5
6E312
330
37
100
AcDbEntity
  8
1
  6
Continuous
 62
     7
100
AcDbLine
 10
402.0988405366327
 20
182.2763066778313
 30
0.0
 11
437.0988405366326
 21
182.2763066778313
 31
0.0
  0
LINE
  5
6E313
330
37
100
AcDbEntity
  8
2
  6
CENTER2
 62
     1
100
AcDbLine
 10
437.0988405366326
 20
138.1911316778316
 30
0.0
 11
437.0988405366326
 21
187.1076866778315
 31
0.0
  0
LINE
  5
6E314
330
37
100
AcDbEntity
  8
1
  6
Continuous
 62
     7
100
AcDbLine
 10
402.0988405366327
 20
179.9763076778315
 30
0.0
 11
402.0988405366327
 21
182.2763066778313
 31
0.0
  0
LINE
  5
6E315
330
37
100
AcDbEntity
  8
1
  6
Continuous
 62
     7
100
AcDbLine
 10
402.0988405366327
 20
179.9763076778315
 30
0.0
 11
437.0988405366326
 21
179.9763076778315
 31
0.0
  0
LINE
  5
6E316
330
37
100
AcDbEntity
  8
2
  6
CENTER2
 62
     1
100
AcDbLine
 10
409.5988405366326
 20
177.4092676778315
 30
0.0
 11
409.5988405366326
 21
184.3597116778315
 31
0.0
  0
LINE
  5
6E317
330
37
100
AcDbEntity
  8
1
  6
Continuous
 62
     7
100
AcDbLine
 10
409.8488405366326
 20
179.9763046778315
 30
0.0
 11
411.5789855366326
 21
177.2983216778316
 31
0.0
  0
LINE
  5
6E318
330
37
100
AcDbEntity
  8
1
  6
Continuous
 62
     7
100
AcDbLine
 10
414.0988405366327
 20
175.9263086778315
 30
0.0
 11
437.0988405366326
 21
175.9263086778315
 31
0.0
  0
LINE
  5
6E319
330
37
100
AcDbEntity
  8
1
  6
Continuous
 62
     7
100
AcDbLine
 10
460.0988405366327
 20
175.9263086778315
 30
0.0
 11
437.0988405366326
 21
175.9263086778315
 31
0.0
  0
LINE
  5
6E31A
330
37
100
AcDbEntity
  8
1
  6
Continuous
 62
     7
100
AcDbLine
 10
464.3488405366326
 20
179.9763026778316
 30
0.0
 11
462.6186905366319
 21
177.2983226778316
 31
0.0
  0
LINE
  5
6E31B
330
37
100
AcDbEntity
  8
2
  6
CENTER2
 62
     1
100
AcDbLine
 10
464.5988405366327
 20
177.4092676778315
 30
0.0
 11
464.5988405366327
 21
184.3597116778315
 31
0.0
  0
LINE
  5
6E31C
330
37
100
AcDbEntity
  8
1
  6
Continuous
 62
     7
100
AcDbLine
 10
472.0988405366326
 20
179.9763076778315
 30
0.0
 11
437.0988405366326
 21
179.9763076778315
 31
0.0
  0
LINE
  5
6E31D
330
37
100
AcDbEntity
  8
1
  6
Continuous
 62
     7
100
AcDbLine
 10
472.0988405366326
 20
179.9763076778315
 30
0.0
 11
472.0988405366326
 21
182.2763066778313
 31
0.0
  0
LINE
  5
6E31E
102
{ACAD_REACTORS
330
6E877
102
}
330
37
100
AcDbEntity
  8
1
  6
Continuous
 62
     7
100
AcDbLine
 10
472.0988405366326
 20
182.2763066778313
 30
0.0
 11
437.0988405366326
 21
182.2763066778313
 31
0.0
  0
LINE
  5
6E31F
330
37
100
AcDbEntity
  8
1
  6
Continuous
 62
     7
100
AcDbLine
 10
405.0743925366329
 20
165.0034676778315
 30
0.0
 11
398.5594195366327
 21
129.2375876778316
 31
0.0
  0
LINE
  5
6E320
330
37
100
AcDbEntity
  8
1
  6
Continuous
 62
     7
100
AcDbLine
 10
462.5270005366326
 20
164.9141846778316
 30
0.0
 11
460.2726505366328
 21
164.7763026778316
 31
0.0
  0
LINE
  5
6E321
330
37
100
AcDbEntity
  8
1
  6
Continuous
 62
     7
100
AcDbLine
 10
412.659185536633
 20
171.7167746778312
 30
0.0
 11
412.5159315366329
 21
170.5875296778316
 31
0.0
  0
LINE
  5
6E322
330
37
100
AcDbEntity
  8
1
  6
Continuous
 62
     7
100
AcDbLine
 10
401.581342536633
 20
168.5070726778312
 30
0.0
 11
417.056298536633
 21
169.7591716778316
 31
0.0
  0
LINE
  5
6E323
330
37
100
AcDbEntity
  8
2
  6
CENTER2
 62
     1
100
AcDbLine
 10
367.5158025366327
 20
126.7763066778316
 30
0.0
 11
448.7447065366329
 21
126.7763066778316
 31
0.0
  0
LINE
  5
6E324
330
37
100
AcDbEntity
  8
2
  6
CENTER2
 62
     1
100
AcDbLine
 10
409.0988405366326
 20
167.6762966778312
 30
0.0
 11
409.0988405366326
 21
85.82975067783161
 31
0.0
  0
LINE
  5
6E325
330
37
100
AcDbEntity
  8
1
  6
Continuous
 62
     7
100
AcDbLine
 10
401.581342536633
 20
168.5070726778312
 30
0.0
 11
401.7668325366328
 21
166.2145676778315
 31
0.0
  0
LINE
  5
6E326
330
37
100
AcDbEntity
  8
1
  6
Continuous
 62
     7
100
AcDbLine
 10
460.2726505366328
 20
164.7763046778315
 30
0.0
 11
455.097268536633
 21
164.7763046778315
 31
0.0
  0
LINE
  5
6E327
330
37
100
AcDbEntity
  8
1
  6
Continuous
 62
     7
100
AcDbLine
 10
462.124820536633
 20
171.4899746778312
 30
0.0
 11
462.5270105366328
 21
164.9141856778316
 31
0.0
  0
LINE
  5
6E328
330
37
100
AcDbEntity
  8
1
  6
Continuous
 62
     7
100
AcDbLine
 10
401.7668325366328
 20
166.2145676778315
 30
0.0
 11
404.9741915366328
 21
166.4740786778316
 31
0.0
  0
LINE
  5
6E32A
330
37
100
AcDbEntity
  8
1
  6
Continuous
 62
     7
100
AcDbLine
 10
416.1313415366327
 20
174.7763026778312
 30
0.0
 11
458.6313415366328
 21
174.7763026778312
 31
0.0
  0
LINE
  5
6E32B
330
37
100
AcDbEntity
  8
1
  6
Continuous
 62
     7
100
AcDbLine
 10
418.1472945366328
 20
120.6211556778316
 30
0.0
 11
449.5189305366327
 21
162.0050436778315
 31
0.0
  0
CIRCLE
  5
6E32C
330
37
100
AcDbEntity
  8
1
  6
Continuous
 62
     7
100
AcDbCircle
 10
409.5988405366326
 20
268.2763066778315
 30
0.0
 40
4.4
  0
CIRCLE
  5
6E32D
330
37
100
AcDbEntity
  8
1
  6
Continuous
 62
     7
100
AcDbCircle
 10
409.5988405366326
 20
226.2763066778315
 30
0.0
 40
4.4
  0
CIRCLE
  5
6E32E
330
37
100
AcDbEntity
  8
1
  6
Continuous
 62
     7
100
AcDbCircle
 10
464.5988405366327
 20
226.2763066778315
 30
0.0
 40
4.4
  0
CIRCLE
  5
6E32F
330
37
100
AcDbEntity
  8
1
  6
Continuous
 62
     7
100
AcDbCircle
 10
464.5988405366327
 20
268.2763066778315
 30
0.0
 40
4.4
  0
ARC
  5
6E330
102
{ACAD_REACTORS
330
6E82F
102
}
330
37
100
AcDbEntity
  8
1
  6
Continuous
 62
     7
100
AcDbCircle
 10
410.5988405366327
 20
267.7763066778315
 30
0.0
 40
8.5
100
AcDbArc
 50
89.9999820000008
 51
193.3935099999964
  0
ARC
  5
6E331
330
37
100
AcDbEntity
  8
1
  6
Continuous
 62
     7
100
AcDbCircle
 10
410.5988405366327
 20
226.7763066778315
 30
0.0
 40
8.5
100
AcDbArc
 50
166.6064699999969
 51
270.0
  0
ARC
  5
6E332
330
37
100
AcDbEntity
  8
1
  6
Continuous
 62
     7
100
AcDbCircle
 10
463.5988405366326
 20
226.7763066778315
 30
0.0
 40
8.5
100
AcDbArc
 50
270.000020000002
 51
13.39354799999751
  0
ARC
  5
6E333
102
{ACAD_REACTORS
330
6E82F
102
}
330
37
100
AcDbEntity
  8
1
  6
Continuous
 62
     7
100
AcDbCircle
 10
463.5988405366326
 20
267.7763066778315
 30
0.0
 40
8.5
100
AcDbArc
 50
346.6064499999965
 51
89.9999820000008
  0
ARC
  5
6E334
330
37
100
AcDbEntity
  8
1
  6
Continuous
 62
     7
100
AcDbCircle
 10
549.6918105366337
 20
247.2763066778315
 30
0.0
 40
80.0
100
AcDbArc
 50
166.6064699999969
 51
193.3935099999964
  0
ARC
  5
6E335
330
37
100
AcDbEntity
  8
1
  6
Continuous
 62
     7
100
AcDbCircle
 10
324.5058685366319
 20
247.2763066778315
 30
0.0
 40
80.0
100
AcDbArc
 50
346.6064499999965
 51
13.39355200000006
  0
CIRCLE
  5
6E336
330
37
100
AcDbEntity
  8
1
  6
Continuous
 62
     7
100
AcDbCircle
 10
437.0988405366326
 20
247.2763066778315
 30
0.0
 40
9.5
  0
CIRCLE
  5
6E337
330
37
100
AcDbEntity
  8
1
  6
Continuous
 62
     7
100
AcDbCircle
 10
437.0988405366326
 20
247.2763066778315
 30
0.0
 40
11.75
  0
CIRCLE
  5
6E338
330
37
100
AcDbEntity
  8
1
  6
Continuous
 62
     7
100
AcDbCircle
 10
437.0988405366326
 20
247.2763066778315
 30
0.0
 40
24.0
  0
CIRCLE
  5
6E339
330
37
100
AcDbEntity
  8
1
  6
Continuous
 62
     7
100
AcDbCircle
 10
437.0988405366326
 20
247.2763066778315
 30
0.0
 40
22.0
  0
ARC
  5
6E33A
330
37
100
AcDbEntity
  8
1
  6
Continuous
 62
     7
100
AcDbCircle
 10
414.0988405366327
 20
178.9263086778313
 30
0.0
 40
3.0
100
AcDbArc
 50
212.8650100000041
 51
270.0
  0
ARC
  5
6E33B
330
37
100
AcDbEntity
  8
1
  6
Continuous
 62
     7
100
AcDbCircle
 10
460.0988405366327
 20
178.9263086778313
 30
0.0
 40
3.0
100
AcDbArc
 50
270.0
 51
327.1349299999946
  0
ARC
  5
6E33C
330
37
100
AcDbEntity
  8
1
  6
Continuous
 62
     7
100
AcDbCircle
 10
437.0988405366326
 20
176.1543046778316
 30
0.0
 40
2.778
100
AcDbArc
 50
184.7076900000007
 51
209.7383799999968
  0
ARC
  5
6E33D
330
37
100
AcDbEntity
  8
1
  6
Continuous
 62
     7
100
AcDbCircle
 10
442.5851995366326
 20
176.1543046778316
 30
0.0
 40
2.778
100
AcDbArc
 50
189.0815400000001
 51
209.7383799999968
  0
ARC
  5
6E33E
330
37
100
AcDbEntity
  8
1
  6
Continuous
 62
     7
100
AcDbCircle
 10
447.5248045366327
 20
176.1543046778316
 30
0.0
 40
2.778
100
AcDbArc
 50
207.2447600000052
 51
209.7383799999968
  0
ARC
  5
6E33F
330
37
100
AcDbEntity
  8
1
  6
Continuous
 62
     7
100
AcDbCircle
 10
451.4254165366326
 20
176.1543046778316
 30
0.0
 40
2.778
100
AcDbArc
 50
330.2616299999961
 51
355.2923099999993
  0
ARC
  5
6E340
330
37
100
AcDbEntity
  8
1
  6
Continuous
 62
     7
100
AcDbCircle
 10
453.8983095366327
 20
176.1543046778316
 30
0.0
 40
2.778
100
AcDbArc
 50
330.2616299999961
 51
355.2923099999993
  0
ARC
  5
6E341
330
37
100
AcDbEntity
  8
1
  6
Continuous
 62
     7
100
AcDbCircle
 10
454.6988385366327
 20
176.1543046778316
 30
0.0
 40
2.778
100
AcDbArc
 50
330.2616299999961
 51
355.2923099999993
  0
ARC
  5
6E342
330
37
100
AcDbEntity
  8
1
  6
Continuous
 62
     7
100
AcDbCircle
 10
437.0988405366326
 20
176.1543046778316
 30
0.0
 40
2.778
100
AcDbArc
 50
330.2616299999961
 51
355.2923099999993
  0
ARC
  5
6E343
330
37
100
AcDbEntity
  8
1
  6
Continuous
 62
     7
100
AcDbCircle
 10
442.5851995366326
 20
176.1543046778316
 30
0.0
 40
2.778
100
AcDbArc
 50
330.2616299999961
 51
355.2923099999993
  0
ARC
  5
6E344
330
37
100
AcDbEntity
  8
1
  6
Continuous
 62
     7
100
AcDbCircle
 10
447.5248045366327
 20
176.1543046778316
 30
0.0
 40
2.778
100
AcDbArc
 50
330.2616299999961
 51
355.2923099999993
  0
ARC
  5
6E345
330
37
100
AcDbEntity
  8
1
  6
Continuous
 62
     7
100
AcDbCircle
 10
426.6728765366326
 20
176.1543046778316
 30
0.0
 40
2.778
100
AcDbArc
 50
184.7076900000007
 51
209.7383799999968
  0
ARC
  5
6E346
330
37
100
AcDbEntity
  8
1
  6
Continuous
 62
     7
100
AcDbCircle
 10
431.6124815366326
 20
176.1543046778316
 30
0.0
 40
2.778
100
AcDbArc
 50
184.7076900000007
 51
209.7383799999968
  0
ARC
  5
6E347
330
37
100
AcDbEntity
  8
1
  6
Continuous
 62
     7
100
AcDbCircle
 10
422.7722645366318
 20
176.1543046778316
 30
0.0
 40
2.778
100
AcDbArc
 50
184.7076900000007
 51
209.7383799999968
  0
ARC
  5
6E348
330
37
100
AcDbEntity
  8
1
  6
Continuous
 62
     7
100
AcDbCircle
 10
431.6124815366326
 20
176.1543046778316
 30
0.0
 40
2.778
100
AcDbArc
 50
330.2616299999961
 51
350.9184599999999
  0
ARC
  5
6E349
330
37
100
AcDbEntity
  8
1
  6
Continuous
 62
     7
100
AcDbCircle
 10
420.2993675366326
 20
176.1543046778316
 30
0.0
 40
2.778
100
AcDbArc
 50
184.7076900000007
 51
209.7383799999968
  0
ARC
  5
6E34A
330
37
100
AcDbEntity
  8
1
  6
Continuous
 62
     7
100
AcDbCircle
 10
426.6728765366326
 20
176.1543046778316
 30
0.0
 40
2.778
100
AcDbArc
 50
330.2616299999961
 51
332.7552399999948
  0
ARC
  5
6E34B
330
37
100
AcDbEntity
  8
1
  6
Continuous
 62
     7
100
AcDbCircle
 10
419.498842536633
 20
176.1543046778316
 30
0.0
 40
2.778
100
AcDbArc
 50
184.7076900000007
 51
209.7383799999968
  0
ARC
  5
6E34C
102
{ACAD_REACTORS
330
6E877
330
6E88D
102
}
330
37
100
AcDbEntity
  8
1
  6
Continuous
 62
     7
100
AcDbCircle
 10
409.0988405366326
 20
126.7763066778316
 30
0.0
 40
37.5
100
AcDbArc
 50
96.43044099999855
 51
35.89117900000627
  0
ARC
  5
6E34D
330
37
100
AcDbEntity
  8
1
  6
Continuous
 62
     7
100
AcDbCircle
 10
402.1229575366326
 20
165.5410906778316
 30
0.0
 40
3.0
100
AcDbArc
 50
349.6764199999975
 51
94.62579599999594
  0
ARC
  5
6E34E
330
37
100
AcDbEntity
  8
1
  6
Continuous
 62
     7
100
AcDbCircle
 10
458.6313415366328
 20
171.2763046778316
 30
0.0
 40
3.5
100
AcDbArc
 50
3.499999999999546
 51
89.9999820000008
  0
ARC
  5
6E34F
330
37
100
AcDbEntity
  8
1
  6
Continuous
 62
     7
100
AcDbCircle
 10
455.097268536633
 20
157.7763046778316
 30
0.0
 40
7.0
100
AcDbArc
 50
90.00000299999769
 51
142.8355399999958
  0
ARC
  5
6E350
330
37
100
AcDbEntity
  8
1
  6
Continuous
 62
     7
100
AcDbCircle
 10
409.3813415366327
 20
127.2663046778316
 30
0.0
 40
11.0
100
AcDbArc
 50
169.6764199999975
 51
322.8355300000021
  0
ARC
  5
6E351
330
37
100
AcDbEntity
  8
1
  6
Continuous
 62
     7
100
AcDbCircle
 10
411.0278415366326
 20
170.7763046778315
 30
0.0
 40
1.5
100
AcDbArc
 50
274.6258000000034
 51
352.770200000001
  0
ARC
  5
6E352
330
37
100
AcDbEntity
  8
1
  6
Continuous
 62
     7
100
AcDbCircle
 10
416.1313415366327
 20
171.2763046778316
 30
0.0
 40
3.5
100
AcDbArc
 50
89.9999820000008
 51
172.7702100000005
  0
CIRCLE
  5
6E36A
330
37
100
AcDbEntity
  8
1
  6
Continuous
 62
     4
100
AcDbCircle
 10
409.0988405366326
 20
126.7763066778316
 30
0.0
 40
2.0
  0
CIRCLE
  5
6E36B
330
37
100
AcDbEntity
  8
1
  6
Continuous
 62
     7
100
AcDbCircle
 10
409.0988405366326
 20
126.7763066778316
 30
0.0
 40
1.5
  0
CIRCLE
  5
6E36C
330
37
100
AcDbEntity
  8
1
  6
Continuous
 62
     7
100
AcDbCircle
 10
409.0988405366326
 20
126.7763066778316
 30
0.0
 40
6.25
  0
ARC
  5
6E41A
102
{ACAD_REACTORS
330
6E937
330
6E94D
102
}
330
37
100
AcDbEntity
  8
1
  6
Continuous
 62
     7
100
AcDbCircle
 10
609.3293239227348
 20
127.0517523756152
 30
0.0
 40
49.999996
100
AcDbArc
 50
98.85906299999241
 51
40.90528399999713
  0
LINE
  5
6E41C
330
37
100
AcDbEntity
  8
1
  6
Continuous
 62
     7
100
AcDbLine
 10
659.3713379227327
 20
180.6494183756152
 30
0.0
 11
623.1250659227328
 21
118.9475513756152
 31
0.0
  0
LINE
  5
6E41D
330
37
100
AcDbEntity
  8
1
  6
Continuous
 62
     7
100
AcDbLine
 10
603.2855049227339
 20
186.0409323756151
 30
0.0
 11
593.5629629227325
 21
129.7761863756152
 31
0.0
  0
LINE
  5
6E41E
330
37
100
AcDbEntity
  8
2
  6
CENTER2
 62
     1
100
AcDbLine
 10
609.3293239227348
 20
179.3352153756152
 30
0.0
 11
609.3293239227348
 21
63.60177837561542
 31
0.0
  0
LINE
  5
6E41F
330
37
100
AcDbEntity
  8
2
  6
CENTER2
 62
     1
100
AcDbLine
 10
644.3293239227325
 20
216.3414373756152
 30
0.0
 11
644.3293239227325
 21
164.6973635456152
 31
0.0
  0
LINE
  5
6E422
330
37
100
AcDbEntity
  8
2
  6
CENTER2
 62
     1
100
AcDbLine
 10
555.4903199227339
 20
127.0517523756152
 30
0.0
 11
661.297806922734
 21
127.0517523756152
 31
0.0
  0
ARC
  5
6E426
330
37
100
AcDbEntity
  8
1
  6
Continuous
 62
     7
100
AcDbCircle
 10
609.3293049227325
 20
127.0517603756152
 30
0.0
 40
16.0
100
AcDbArc
 50
170.1961159999976
 51
329.5682110000027
  0
CIRCLE
  5
6E427
330
37
100
AcDbEntity
  8
1
  6
Continuous
 62
     7
100
AcDbCircle
 10
609.3293239227348
 20
127.0517523756152
 30
0.0
 40
9.0
  0
CIRCLE
  5
6E42A
330
37
100
AcDbEntity
  8
1
  6
Continuous
 62
     7
100
AcDbCircle
 10
609.3293239227348
 20
127.0517523756152
 30
0.0
 40
7.0
  0
CIRCLE
  5
6E42B
330
37
100
AcDbEntity
  8
1
  6
Continuous
 62
     4
100
AcDbCircle
 10
609.3293239227348
 20
127.0517523756152
 30
0.0
 40
3.0
  0
CIRCLE
  5
6E42C
330
37
100
AcDbEntity
  8
1
  6
Continuous
 62
     7
100
AcDbCircle
 10
609.3293239227348
 20
127.0517523756152
 30
0.0
 40
2.0
  0
LINE
  5
6E44F
330
37
100
AcDbEntity
  8
1
  6
Continuous
 62
     7
100
AcDbLine
 10
599.3293239227325
 20
209.0517603756151
 30
0.0
 11
689.3293239227339
 21
209.0517603756151
 31
0.0
  0
LINE
  5
6E450
330
37
100
AcDbEntity
  8
1
  6
Continuous
 62
     7
100
AcDbLine
 10
599.3293239227325
 20
205.8517603756151
 30
0.0
 11
689.3293239227339
 21
205.8517603756151
 31
0.0
  0
LINE
  5
6E451
330
37
100
AcDbEntity
  8
1
  6
Continuous
 62
     7
100
AcDbLine
 10
608.8293239227348
 20
204.3517603756152
 30
0.0
 11
679.8293239227326
 21
204.3517603756152
 31
0.0
  0
LINE
  5
6E452
330
37
100
AcDbEntity
  8
1
  6
Continuous
 62
     7
100
AcDbLine
 10
608.8293549227326
 20
194.1517603756151
 30
0.0
 11
679.8292629227346
 21
194.1517603756151
 31
0.0
  0
LINE
  5
6E453
330
37
100
AcDbEntity
  8
1
  6
Continuous
 62
     7
100
AcDbLine
 10
608.3293549227339
 20
194.6517603756151
 30
0.0
 11
680.3292939227328
 21
194.6517603756151
 31
0.0
  0
LINE
  5
6E454
330
37
100
AcDbEntity
  8
1
  6
Continuous
 62
     7
100
AcDbLine
 10
679.3293089227347
 20
241.4028693137463
 30
0.0
 11
609.329338922734
 21
241.4028693137463
 31
0.0
  0
LINE
  5
6E455
102
{ACAD_REACTORS
330
6E91E
102
}
330
37
100
AcDbEntity
  8
1
  6
Continuous
 62
     7
100
AcDbLine
 10
679.3293089227347
 20
331.4028693137462
 30
0.0
 11
609.329338922734
 21
331.4028693137462
 31
0.0
  0
ARC
  5
6E456
330
37
100
AcDbEntity
  8
1
  6
Continuous
 62
     7
100
AcDbCircle
 10
644.3293239227325
 20
286.4028693137462
 30
0.0
 40
11.0
100
AcDbArc
 50
179.9999809999994
 51
0.0
  0
ARC
  5
6E457
330
37
100
AcDbEntity
  8
1
  6
Continuous
 62
     7
100
AcDbCircle
 10
644.3293239227325
 20
286.4028693137462
 30
0.0
 40
14.0
100
AcDbArc
 50
179.9999809999994
 51
0.0
  0
ARC
  5
6E458
330
37
100
AcDbEntity
  8
1
  6
Continuous
 62
     7
100
AcDbCircle
 10
644.3293239227325
 20
286.4028693137462
 30
0.0
 40
34.0
100
AcDbArc
 50
179.9999809999994
 51
0.0
  0
ARC
  5
6E459
330
37
100
AcDbEntity
  8
1
  6
Continuous
 62
     7
100
AcDbCircle
 10
644.3293239227325
 20
286.4028693137462
 30
0.0
 40
35.5
100
AcDbArc
 50
179.9999809999994
 51
0.0
  0
ARC
  5
6E45A
330
37
100
AcDbEntity
  8
1
  6
Continuous
 62
     7
100
AcDbCircle
 10
644.3293239227325
 20
286.4028693137462
 30
0.0
 40
11.0
100
AcDbArc
 50
359.9999730000012
 51
179.9999639999983
  0
ARC
  5
6E45B
330
37
100
AcDbEntity
  8
1
  6
Continuous
 62
     7
100
AcDbCircle
 10
644.3293239227325
 20
286.4028693137462
 30
0.0
 40
35.5
100
AcDbArc
 50
359.9999730000012
 51
179.9999639999983
  0
ARC
  5
6E45C
330
37
100
AcDbEntity
  8
1
  6
Continuous
 62
     7
100
AcDbCircle
 10
644.3293239227325
 20
286.4028693137462
 30
0.0
 40
34.0
100
AcDbArc
 50
359.9999730000012
 51
179.9999639999983
  0
ARC
  5
6E45D
330
37
100
AcDbEntity
  8
1
  6
Continuous
 62
     7
100
AcDbCircle
 10
644.3293239227325
 20
286.4028693137462
 30
0.0
 40
14.0
100
AcDbArc
 50
359.9999730000012
 51
179.9999639999983
  0
LINE
  5
6E45E
330
37
100
AcDbEntity
  8
2
  6
CENTER2
 62
     1
100
AcDbLine
 10
595.3293169227338
 20
286.4028693137462
 30
0.0
 11
694.3293239227325
 21
286.4028693137462
 31
0.0
  0
LINE
  5
6E45F
330
37
100
AcDbEntity
  8
1
  6
Continuous
 62
     7
100
AcDbLine
 10
614.2184109227339
 20
248.5137773137465
 30
0.0
 11
612.718409922734
 21
247.0137763137465
 31
0.0
  0
ARC
  5
6E460
330
37
100
AcDbEntity
  8
1
  6
Continuous
 62
     7
100
AcDbCircle
 10
609.329338922734
 20
251.4028693137462
 30
0.0
 40
10.0
100
AcDbArc
 50
179.9999809999994
 51
270.0000179999862
  0
ARC
  5
6E461
330
37
100
AcDbEntity
  8
1
  6
Continuous
 62
     7
100
AcDbCircle
 10
608.8293239227348
 20
250.9028693137462
 30
0.0
 40
5.5
100
AcDbArc
 50
135.0000010000095
 51
314.9999639999946
  0
LINE
  5
6E462
330
37
100
AcDbEntity
  8
1
  6
Continuous
 62
     7
100
AcDbLine
 10
597.3293169227324
 20
189.5517603756152
 30
0.0
 11
615.8158139227327
 21
189.5517603756152
 31
0.0
  0
LINE
  5
6E463
330
37
100
AcDbEntity
  8
1
  6
Continuous
 62
     7
100
AcDbLine
 10
597.3293169227324
 20
186.5517603756151
 30
0.0
 11
601.5923469227348
 21
186.5517603756151
 31
0.0
  0
ARC
  5
6E464
330
37
100
AcDbEntity
  8
1
  6
Continuous
 62
     7
100
AcDbCircle
 10
600.3293169227324
 20
186.5517603756151
 30
0.0
 40
3.0
100
AcDbArc
 50
350.1961119999993
 51
90.00000300001072
  0
LINE
  5
6E465
330
37
100
AcDbEntity
  8
1
  6
Continuous
 62
     7
100
AcDbLine
 10
597.3293169227324
 20
189.5517603756152
 30
0.0
 11
597.3293169227324
 21
186.5517603756151
 31
0.0
  0
LINE
  5
6E466
330
37
100
AcDbEntity
  8
1
  6
Continuous
 62
     7
100
AcDbLine
 10
599.3293239227325
 20
209.0517603756151
 30
0.0
 11
599.3293239227325
 21
205.8517603756151
 31
0.0
  0
ARC
  5
6E467
330
37
100
AcDbEntity
  8
1
  6
Continuous
 62
     7
100
AcDbCircle
 10
606.5793239227325
 20
196.4370873756151
 30
0.0
 40
2.5
100
AcDbArc
 50
314.4279829999932
 51
0.0
  0
ARC
  5
6E468
330
37
100
AcDbEntity
  8
1
  6
Continuous
 62
     7
100
AcDbCircle
 10
608.8293359227338
 20
192.5517603756151
 30
0.0
 40
3.0
100
AcDbArc
 50
270.0000179999862
 51
0.0
  0
ARC
  5
6E469
330
37
100
AcDbEntity
  8
1
  6
Continuous
 62
     7
100
AcDbCircle
 10
601.5923469227348
 20
185.0517603756151
 30
0.0
 40
1.5
100
AcDbArc
 50
350.1961119999993
 51
90.00000300001072
  0
LINE
  5
6E46A
330
37
100
AcDbEntity
  8
1
  6
Continuous
 62
     7
100
AcDbLine
 10
608.3293469227326
 20
194.6517683756152
 30
0.0
 11
608.8293589227325
 21
194.1517563756151
 31
0.0
  0
LINE
  5
6E46B
330
37
100
AcDbEntity
  8
1
  6
Continuous
 62
     7
100
AcDbLine
 10
611.8293359227325
 20
192.5517603756151
 30
0.0
 11
611.8293359227325
 21
194.1517603756151
 31
0.0
  0
ARC
  5
6E46C
330
37
100
AcDbEntity
  8
1
  6
Continuous
 62
     7
100
AcDbCircle
 10
615.8158139227327
 20
194.5517603756152
 30
0.0
 40
5.0
100
AcDbArc
 50
270.0000179999862
 51
317.7632720000116
  0
ARC
  5
6E46D
330
37
100
AcDbEntity
  8
1
  6
Continuous
 62
     7
100
AcDbCircle
 10
608.8293239227348
 20
208.1017603756152
 30
0.0
 40
3.75
100
AcDbArc
 50
216.8698980000019
 51
270.0
  0
ARC
  5
6E46E
330
37
100
AcDbEntity
  8
1
  6
Continuous
 62
     7
100
AcDbCircle
 10
613.0793239227325
 20
201.8517603756152
 30
0.0
 40
4.0
100
AcDbArc
 50
141.317812999991
 51
180.0
  0
LINE
  5
6E46F
330
37
100
AcDbEntity
  8
1
  6
Continuous
 62
     7
100
AcDbLine
 10
609.0793239227325
 20
201.8517603756152
 30
0.0
 11
609.0793239227325
 21
196.4370873756151
 31
0.0
  0
ARC
  5
6E470
330
37
100
AcDbEntity
  8
1
  6
Continuous
 62
     7
100
AcDbCircle
 10
608.8293239227348
 20
321.9028693137462
 30
0.0
 40
5.5
100
AcDbArc
 50
44.99996399999342
 51
224.999928000003
  0
ARC
  5
6E471
330
37
100
AcDbEntity
  8
1
  6
Continuous
 62
     7
100
AcDbCircle
 10
610.3293239227348
 20
320.4028693137463
 30
0.0
 40
5.5
100
AcDbArc
 50
224.9999450000088
 51
44.9999360000057
  0
ARC
  5
6E472
102
{ACAD_REACTORS
330
6E8D6
102
}
330
37
100
AcDbEntity
  8
1
  6
Continuous
 62
     7
100
AcDbCircle
 10
609.329338922734
 20
321.4028693137462
 30
0.0
 40
10.0
100
AcDbArc
 50
89.99992700000829
 51
179.9999639999983
  0
LINE
  5
6E473
102
{ACAD_REACTORS
330
6E8BE
102
}
330
37
100
AcDbEntity
  8
2
  6
CENTER2
 62
     1
100
AcDbLine
 10
608.8293239227348
 20
324.9028693137463
 30
0.0
 11
608.8293239227348
 21
318.9028693137462
 31
0.0
  0
LINE
  5
6E474
102
{ACAD_REACTORS
330
6E8A6
102
}
330
37
100
AcDbEntity
  8
2
  6
CENTER2
 62
     1
100
AcDbLine
 10
610.3293239227348
 20
323.4028693137462
 30
0.0
 11
610.3293239227348
 21
317.4028693137462
 31
0.0
  0
LINE
  5
6E475
330
37
100
AcDbEntity
  8
1
  6
Continuous
 62
     7
100
AcDbLine
 10
599.3293389227339
 20
286.4028693137462
 30
0.0
 11
599.3293389227339
 21
251.4028693137462
 31
0.0
  0
LINE
  5
6E476
330
37
100
AcDbEntity
  8
1
  6
Continuous
 62
     7
100
AcDbLine
 10
599.3293389227339
 20
286.4028693137462
 30
0.0
 11
599.3293389227339
 21
321.4028693137462
 31
0.0
  0
ARC
  5
6E477
330
37
100
AcDbEntity
  8
1
  6
Continuous
 62
     7
100
AcDbCircle
 10
610.3293239227348
 20
252.4028693137463
 30
0.0
 40
5.5
100
AcDbArc
 50
315.0000090000077
 51
135.0000010000095
  0
LINE
  5
6E478
330
37
100
AcDbEntity
  8
2
  6
CENTER2
 62
     1
100
AcDbLine
 10
611.8293239227348
 20
250.9028693137462
 30
0.0
 11
605.8293239227325
 21
250.9028693137462
 31
0.0
  0
LINE
  5
6E479
330
37
100
AcDbEntity
  8
2
  6
CENTER2
 62
     1
100
AcDbLine
 10
613.3293239227348
 20
252.4028693137463
 30
0.0
 11
607.3293239227325
 21
252.4028693137463
 31
0.0
  0
LINE
  5
6E47A
330
37
100
AcDbEntity
  8
1
  6
Continuous
 62
     7
100
AcDbLine
 10
606.4402449227324
 20
256.2919543137464
 30
0.0
 11
604.9402429227328
 21
254.7919533137464
 31
0.0
  0
LINE
  5
6E47B
330
37
100
AcDbEntity
  8
2
  6
CENTER2
 62
     1
100
AcDbLine
 10
608.8293239227348
 20
247.9028693137462
 30
0.0
 11
608.8293239227348
 21
253.9028693137463
 31
0.0
  0
LINE
  5
6E47C
330
37
100
AcDbEntity
  8
2
  6
CENTER2
 62
     1
100
AcDbLine
 10
610.3293239227348
 20
249.4028693137463
 30
0.0
 11
610.3293239227348
 21
255.4028693137462
 31
0.0
  0
LINE
  5
6E47D
330
37
100
AcDbEntity
  8
2
  6
CENTER2
 62
     1
100
AcDbLine
 10
613.3293239227348
 20
320.4028693137463
 30
0.0
 11
607.3293239227325
 21
320.4028693137463
 31
0.0
  0
LINE
  5
6E47E
330
37
100
AcDbEntity
  8
1
  6
Continuous
 62
     7
100
AcDbLine
 10
606.4402389227327
 20
316.5137823137464
 30
0.0
 11
604.9402379227347
 21
318.0137833137465
 31
0.0
  0
LINE
  5
6E47F
330
37
100
AcDbEntity
  8
2
  6
CENTER2
 62
     1
100
AcDbLine
 10
611.8293239227348
 20
321.9028693137462
 30
0.0
 11
605.8293239227325
 21
321.9028693137462
 31
0.0
  0
LINE
  5
6E480
330
37
100
AcDbEntity
  8
1
  6
Continuous
 62
     7
100
AcDbLine
 10
614.2184029227325
 20
324.2919463137463
 30
0.0
 11
612.718406922734
 21
325.7919423137463
 31
0.0
  0
LINE
  5
6E481
330
37
100
AcDbEntity
  8
1
  6
Continuous
 62
     7
100
AcDbLine
 10
674.4402329227348
 20
248.5137883137465
 30
0.0
 11
675.940239922734
 21
247.0137813137465
 31
0.0
  0
ARC
  5
6E482
102
{ACAD_REACTORS
330
6E91E
102
}
330
37
100
AcDbEntity
  8
1
  6
Continuous
 62
     7
100
AcDbCircle
 10
679.3293089227347
 20
251.4028693137462
 30
0.0
 40
10.0
100
AcDbArc
 50
270.0000179999862
 51
0.0
  0
ARC
  5
6E483
330
37
100
AcDbEntity
  8
1
  6
Continuous
 62
     7
100
AcDbCircle
 10
679.8293239227326
 20
250.9028693137462
 30
0.0
 40
5.5
100
AcDbArc
 50
225.0000270000081
 51
45.00003199999254
  0
LINE
  5
6E484
330
37
100
AcDbEntity
  8
2
  6
CENTER2
 62
     1
100
AcDbLine
 10
644.3293239227325
 20
236.4028693137463
 30
0.0
 11
644.3293239227325
 21
286.4028693137462
 31
0.0
  0
LINE
  5
6E485
330
37
100
AcDbEntity
  8
1
  6
Continuous
 62
     7
100
AcDbLine
 10
672.3048029227327
 20
188.0517603756151
 30
0.0
 11
677.3293089227347
 21
188.0517603756151
 31
0.0
  0
CIRCLE
  5
6E486
330
37
100
AcDbEntity
  8
1
  6
Continuous
 62
     7
100
AcDbCircle
 10
644.3293239227325
 20
198.6517603756151
 30
0.0
 40
2.0
  0
LINE
  5
6E487
330
37
100
AcDbEntity
  8
2
  6
CENTER2
 62
     1
100
AcDbLine
 10
640.3293389227339
 20
198.6517603756151
 30
0.0
 11
648.3293319227348
 21
198.6517603756151
 31
0.0
  0
ARC
  5
6E488
330
37
100
AcDbEntity
  8
1
  6
Continuous
 62
     7
100
AcDbCircle
 10
672.304795922734
 20
173.0517523756152
 30
0.0
 40
15.0
100
AcDbArc
 50
89.99998199998776
 51
149.5682470000046
  0
ARC
  5
6E489
330
37
100
AcDbEntity
  8
1
  6
Continuous
 62
     7
100
AcDbCircle
 10
682.0793239227326
 20
196.4370873756151
 30
0.0
 40
2.5
100
AcDbArc
 50
180.0
 51
225.5720170000068
  0
LINE
  5
6E48A
330
37
100
AcDbEntity
  8
1
  6
Continuous
 62
     7
100
AcDbLine
 10
677.3293169227324
 20
194.1517603756151
 30
0.0
 11
677.3293169227324
 21
188.0517523756151
 31
0.0
  0
LINE
  5
6E48B
330
37
100
AcDbEntity
  8
1
  6
Continuous
 62
     7
100
AcDbLine
 10
680.3292979227328
 20
194.6518003756151
 30
0.0
 11
679.8292969227325
 21
194.1517993756151
 31
0.0
  0
ARC
  5
6E48C
330
37
100
AcDbEntity
  8
1
  6
Continuous
 62
     7
100
AcDbCircle
 10
679.8293239227326
 20
208.1017603756152
 30
0.0
 40
3.75
100
AcDbArc
 50
270.0
 51
323.1301019999981
  0
LINE
  5
6E48D
330
37
100
AcDbEntity
  8
1
  6
Continuous
 62
     7
100
AcDbLine
 10
679.5793239227348
 20
201.8517603756152
 30
0.0
 11
679.5793239227348
 21
196.4370873756151
 31
0.0
  0
ARC
  5
6E48E
330
37
100
AcDbEntity
  8
1
  6
Continuous
 62
     7
100
AcDbCircle
 10
675.5793239227325
 20
201.8517603756152
 30
0.0
 40
4.0
100
AcDbArc
 50
0.0
 51
38.68218799999444
  0
LINE
  5
6E48F
102
{ACAD_REACTORS
330
6E937
102
}
330
37
100
AcDbEntity
  8
1
  6
Continuous
 62
     7
100
AcDbLine
 10
689.3293239227339
 20
209.0517603756151
 30
0.0
 11
689.3293239227339
 21
205.8517603756151
 31
0.0
  0
ARC
  5
6E490
330
37
100
AcDbEntity
  8
1
  6
Continuous
 62
     7
100
AcDbCircle
 10
679.3293089227347
 20
321.4028693137462
 30
0.0
 40
10.0
100
AcDbArc
 50
359.999945000001
 51
89.99992700000829
  0
ARC
  5
6E491
330
37
100
AcDbEntity
  8
1
  6
Continuous
 62
     7
100
AcDbCircle
 10
678.3293239227325
 20
320.4028693137463
 30
0.0
 40
5.5
100
AcDbArc
 50
134.9999460000103
 51
314.9999099999968
  0
ARC
  5
6E492
330
37
100
AcDbEntity
  8
1
  6
Continuous
 62
     7
100
AcDbCircle
 10
679.8293239227326
 20
321.9028693137462
 30
0.0
 40
5.5
100
AcDbArc
 50
314.9999130000036
 51
134.9999190000033
  0
LINE
  5
6E493
102
{ACAD_REACTORS
330
6E8BE
102
}
330
37
100
AcDbEntity
  8
2
  6
CENTER2
 62
     1
100
AcDbLine
 10
679.8293239227326
 20
324.9028693137463
 30
0.0
 11
679.8293239227326
 21
318.9028693137462
 31
0.0
  0
LINE
  5
6E494
102
{ACAD_REACTORS
330
6E8A6
102
}
330
37
100
AcDbEntity
  8
2
  6
CENTER2
 62
     1
100
AcDbLine
 10
678.3293239227325
 20
323.4028693137462
 30
0.0
 11
678.3293239227325
 21
317.4028693137462
 31
0.0
  0
LINE
  5
6E495
330
37
100
AcDbEntity
  8
2
  6
CENTER2
 62
     1
100
AcDbLine
 10
644.3293239227325
 20
336.4028693137461
 30
0.0
 11
644.3293239227325
 21
286.4028693137462
 31
0.0
  0
ARC
  5
6E496
330
37
100
AcDbEntity
  8
1
  6
Continuous
 62
     7
100
AcDbCircle
 10
678.3293239227325
 20
252.4028693137463
 30
0.0
 40
5.5
100
AcDbArc
 50
45.0000179999958
 51
224.9999819999938
  0
LINE
  5
6E497
102
{ACAD_REACTORS
330
6E8EE
102
}
330
37
100
AcDbEntity
  8
2
  6
CENTER2
 62
     1
100
AcDbLine
 10
675.3293239227348
 20
320.4028693137463
 30
0.0
 11
681.3293239227325
 21
320.4028693137463
 31
0.0
  0
LINE
  5
6E498
102
{ACAD_REACTORS
330
6E906
102
}
330
37
100
AcDbEntity
  8
2
  6
CENTER2
 62
     1
100
AcDbLine
 10
676.8293239227348
 20
250.9028693137462
 30
0.0
 11
682.8293239227325
 21
250.9028693137462
 31
0.0
  0
LINE
  5
6E499
102
{ACAD_REACTORS
330
6E8EE
102
}
330
37
100
AcDbEntity
  8
2
  6
CENTER2
 62
     1
100
AcDbLine
 10
675.3293239227348
 20
252.4028693137463
 30
0.0
 11
681.3293239227325
 21
252.4028693137463
 31
0.0
  0
LINE
  5
6E49A
330
37
100
AcDbEntity
  8
1
  6
Continuous
 62
     7
100
AcDbLine
 10
689.3293089227348
 20
286.4028693137462
 30
0.0
 11
689.3293089227348
 21
251.4028693137462
 31
0.0
  0
LINE
  5
6E49B
330
37
100
AcDbEntity
  8
2
  6
CENTER2
 62
     1
100
AcDbLine
 10
679.8293239227326
 20
247.9028693137462
 30
0.0
 11
679.8293239227326
 21
253.9028693137463
 31
0.0
  0
LINE
  5
6E49C
330
37
100
AcDbEntity
  8
2
  6
CENTER2
 62
     1
100
AcDbLine
 10
678.3293239227325
 20
249.4028693137463
 30
0.0
 11
678.3293239227325
 21
255.4028693137462
 31
0.0
  0
LINE
  5
6E49D
330
37
100
AcDbEntity
  8
1
  6
Continuous
 62
     7
100
AcDbLine
 10
682.2184019227327
 20
256.2919463137465
 30
0.0
 11
683.7184069227325
 21
254.7919423137464
 31
0.0
  0
LINE
  5
6E49E
102
{ACAD_REACTORS
330
6E8D6
102
}
330
37
100
AcDbEntity
  8
1
  6
Continuous
 62
     7
100
AcDbLine
 10
689.3293089227348
 20
286.4028693137462
 30
0.0
 11
689.3293089227348
 21
321.4028693137462
 31
0.0
  0
LINE
  5
6E49F
330
37
100
AcDbEntity
  8
1
  6
Continuous
 62
     7
100
AcDbLine
 10
682.2184109227339
 20
316.5137933137463
 30
0.0
 11
683.7184009227328
 21
318.0137833137465
 31
0.0
  0
LINE
  5
6E4A0
102
{ACAD_REACTORS
330
6E906
102
}
330
37
100
AcDbEntity
  8
2
  6
CENTER2
 62
     1
100
AcDbLine
 10
676.8293239227348
 20
321.9028693137462
 30
0.0
 11
682.8293239227325
 21
321.9028693137462
 31
0.0
  0
LINE
  5
6E4A1
330
37
100
AcDbEntity
  8
1
  6
Continuous
 62
     7
100
AcDbLine
 10
674.440219922734
 20
324.2919403137464
 30
0.0
 11
675.940231922734
 21
325.7919533137465
 31
0.0
  0
ARC
  5
6E4BE
330
37
100
AcDbEntity
  8
1
  6
Continuous
 62
     7
100
AcDbCircle
 10
711.4957149227345
 20
286.4028693137462
 30
0.0
 40
114.166398
100
AcDbArc
 50
169.2595640000004
 51
190.7404359999996
  0
LINE
  5
6E4BF
330
37
100
AcDbEntity
  8
2
  6
CENTER2
 62
     1
100
AcDbLine
 10
610.3293239227348
 20
211.7180613756151
 30
0.0
 11
610.3293239227348
 21
201.143626375615
 31
0.0
  0
LINE
  5
6E4C0
330
37
100
AcDbEntity
  8
2
  6
CENTER2
 62
     1
100
AcDbLine
 10
608.8293239227348
 20
211.363610375615
 30
0.0
 11
608.8293239227348
 21
201.4980763756151
 31
0.0
  0
LINE
  5
6E4C1
330
37
100
AcDbEntity
  8
2
  6
CENTER2
 62
     1
100
AcDbLine
 10
678.3293239227325
 20
211.7180613756151
 30
0.0
 11
678.3293239227325
 21
201.143626375615
 31
0.0
  0
LINE
  5
6E4C2
330
37
100
AcDbEntity
  8
2
  6
CENTER2
 62
     1
100
AcDbLine
 10
679.8293239227326
 20
211.363610375615
 30
0.0
 11
679.8293239227326
 21
201.4980763756151
 31
0.0
  0
ARC
  5
6E570
102
{ACAD_REACTORS
330
6E9F6
330
6EA0C
102
}
330
37
100
AcDbEntity
  8
1
  6
Continuous
 62
     7
100
AcDbCircle
 10
834.2081770090397
 20
127.5594626257345
 30
0.0
 40
62.5
100
AcDbArc
 50
100.1405109999911
 51
45.96956400000896
  0
LINE
  5
6E572
330
37
100
AcDbEntity
  8
1
  6
Continuous
 62
     7
100
AcDbLine
 10
848.1752370090395
 20
119.7543116257344
 30
0.0
 11
895.7220790090406
 21
204.8376876257342
 31
0.0
  0
LINE
  5
6E573
330
37
100
AcDbEntity
  8
1
  6
Continuous
 62
     7
100
AcDbLine
 10
824.5364970090397
 20
205.3140456257341
 30
0.0
 11
818.2617820090406
 21
128.8683596257345
 31
0.0
  0
LINE
  5
6E574
330
37
100
AcDbEntity
  8
2
  6
CENTER2
 62
     1
100
AcDbLine
 10
872.2081770090406
 20
246.1569526257346
 30
0.0
 11
872.2081770090406
 21
178.2146411737342
 31
0.0
  0
LINE
  5
6E575
330
37
100
AcDbEntity
  8
2
  6
CENTER2
 62
     1
100
AcDbLine
 10
834.2081770090397
 20
202.5594776257344
 30
0.0
 11
834.2081770090397
 21
52.55949362573449
 31
0.0
  0
CIRCLE
  5
6E57B
330
37
100
AcDbEntity
  8
1
  6
Continuous
 62
     4
100
AcDbCircle
 10
834.2081770090397
 20
127.5594626257345
 30
0.0
 40
3.0
  0
ARC
  5
6E57C
330
37
100
AcDbEntity
  8
1
  6
Continuous
 62
     7
100
AcDbCircle
 10
834.2081540090395
 20
127.5594706257344
 30
0.0
 40
16.0
100
AcDbArc
 50
175.3076410000002
 51
330.8023719999954
  0
CIRCLE
  5
6E57D
330
37
100
AcDbEntity
  8
1
  6
Continuous
 62
     7
100
AcDbCircle
 10
834.2081770090397
 20
127.5594626257345
 30
0.0
 40
8.199996999999997
  0
CIRCLE
  5
6E57E
330
37
100
AcDbEntity
  8
1
  6
Continuous
 62
     7
100
AcDbCircle
 10
834.2081770090397
 20
127.5594626257345
 30
0.0
 40
10.5
  0
CIRCLE
  5
6E57F
330
37
100
AcDbEntity
  8
1
  6
Continuous
 62
     7
100
AcDbCircle
 10
834.2081770090397
 20
127.5594626257345
 30
0.0
 40
2.0
  0
LINE
  5
6E580
330
37
100
AcDbEntity
  8
2
  6
CENTER2
 62
     1
100
AcDbLine
 10
759.2081540090396
 20
127.5594626257345
 30
0.0
 11
909.2081540090395
 21
127.5594626257345
 31
0.0
  0
LINE
  5
6E5AA
330
37
100
AcDbEntity
  8
1
  6
Continuous
 62
     7
100
AcDbLine
 10
872.2081770090406
 20
392.5728690616373
 30
0.0
 11
832.2081960090406
 21
392.5728690616373
 31
0.0
  0
LINE
  5
6E5AB
330
37
100
AcDbEntity
  8
1
  6
Continuous
 62
     7
100
AcDbLine
 10
872.2081770090406
 20
290.5728690616373
 30
0.0
 11
832.2081960090406
 21
290.5728690616373
 31
0.0
  0
ARC
  5
6E5AC
330
37
100
AcDbEntity
  8
1
  6
Continuous
 62
     7
100
AcDbCircle
 10
832.2081770090406
 20
381.5728690616373
 30
0.0
 40
5.5
100
AcDbArc
 50
45.00000500000862
 51
224.999928000003
  0
ARC
  5
6E5AD
330
37
100
AcDbEntity
  8
1
  6
Continuous
 62
     7
100
AcDbCircle
 10
834.7081770090406
 20
379.0728690616373
 30
0.0
 40
5.5
100
AcDbArc
 50
224.9999309999959
 51
45.00000500000862
  0
ARC
  5
6E5AE
330
37
100
AcDbEntity
  8
1
  6
Continuous
 62
     7
100
AcDbCircle
 10
832.2081770090406
 20
301.5728690616376
 30
0.0
 40
5.5
100
AcDbArc
 50
135.0000549999912
 51
314.9999639999946
  0
ARC
  5
6E5AF
330
37
100
AcDbEntity
  8
1
  6
Continuous
 62
     7
100
AcDbCircle
 10
834.7081770090406
 20
304.0728690616373
 30
0.0
 40
5.5
100
AcDbArc
 50
314.9999949999914
 51
135.0000549999912
  0
CIRCLE
  5
6E5B0
330
37
100
AcDbEntity
  8
1
  6
Continuous
 62
     7
100
AcDbCircle
 10
872.2081770090406
 20
341.5728690616373
 30
0.0
 40
39.0
  0
CIRCLE
  5
6E5B1
330
37
100
AcDbEntity
  8
1
  6
Continuous
 62
     7
100
AcDbCircle
 10
872.2081770090406
 20
341.5728690616373
 30
0.0
 40
37.5
  0
LINE
  5
6E5B2
330
37
100
AcDbEntity
  8
1
  6
Continuous
 62
     7
100
AcDbLine
 10
833.7081770090405
 20
227.5594626257341
 30
0.0
 11
910.7081770090406
 21
227.5594626257341
 31
0.0
  0
LINE
  5
6E5B3
330
37
100
AcDbEntity
  8
1
  6
Continuous
 62
     7
100
AcDbLine
 10
834.2716840090394
 20
215.3594626257344
 30
0.0
 11
910.1446700090408
 21
215.3594626257344
 31
0.0
  0
LINE
  5
6E5B4
330
37
100
AcDbEntity
  8
1
  6
Continuous
 62
     7
100
AcDbLine
 10
833.7081770090405
 20
215.9229706257341
 30
0.0
 11
910.7081770090406
 21
215.9229706257341
 31
0.0
  0
LINE
  5
6E5B5
330
37
100
AcDbEntity
  8
1
  6
Continuous
 62
     7
100
AcDbLine
 10
821.2081770090396
 20
229.0594626257344
 30
0.0
 11
923.2081770090406
 21
229.0594626257344
 31
0.0
  0
LINE
  5
6E5B6
102
{ACAD_REACTORS
330
6E9F6
102
}
330
37
100
AcDbEntity
  8
1
  6
Continuous
 62
     7
100
AcDbLine
 10
821.2081770090396
 20
233.0594626257346
 30
0.0
 11
923.2081770090406
 21
233.0594626257346
 31
0.0
  0
ARC
  5
6E5B7
330
37
100
AcDbEntity
  8
1
  6
Continuous
 62
     7
100
AcDbCircle
 10
839.7081770090396
 20
224.0594626257345
 30
0.0
 40
5.0
100
AcDbArc
 50
135.5729959999957
 51
180.0
  0
ARC
  5
6E5B8
330
37
100
AcDbEntity
  8
1
  6
Continuous
 62
     7
100
AcDbCircle
 10
831.4581770090406
 20
213.5594626257345
 30
0.0
 40
5.0
100
AcDbArc
 50
270.0
 51
0.0
  0
LINE
  5
6E5B9
330
37
100
AcDbEntity
  8
1
  6
Continuous
 62
     7
100
AcDbLine
 10
843.8275320090399
 20
208.5594626257341
 30
0.0
 11
820.9581770090405
 21
208.5594626257341
 31
0.0
  0
LINE
  5
6E5BA
330
37
100
AcDbEntity
  8
2
  6
CENTER2
 62
     1
100
AcDbLine
 10
837.7081770090406
 20
304.0728690616373
 30
0.0
 11
831.7081770090405
 21
304.0728690616373
 31
0.0
  0
LINE
  5
6E5BB
330
37
100
AcDbEntity
  8
2
  6
CENTER2
 62
     1
100
AcDbLine
 10
837.7081770090406
 20
379.0728690616373
 30
0.0
 11
831.7081770090405
 21
379.0728690616373
 31
0.0
  0
LINE
  5
6E5BC
330
37
100
AcDbEntity
  8
2
  6
CENTER2
 62
     1
100
AcDbLine
 10
932.2081770090406
 20
341.5728690616373
 30
0.0
 11
813.2081960090406
 21
341.5728690616373
 31
0.0
  0
LINE
  5
6E5BD
330
37
100
AcDbEntity
  8
1
  6
Continuous
 62
     7
100
AcDbLine
 10
821.2081960090406
 20
301.5728690616376
 30
0.0
 11
821.2081960090406
 21
341.5728690616373
 31
0.0
  0
LINE
  5
6E5BE
330
37
100
AcDbEntity
  8
1
  6
Continuous
 62
     7
100
AcDbLine
 10
834.7081770090406
 20
224.0594626257345
 30
0.0
 11
834.7081770090406
 21
217.9229686257344
 31
0.0
  0
LINE
  5
6E5BF
330
37
100
AcDbEntity
  8
1
  6
Continuous
 62
     7
100
AcDbLine
 10
822.9120590090408
 20
205.3594596257345
 30
0.0
 11
820.9581770090405
 21
205.3594596257345
 31
0.0
  0
ARC
  5
6E5C0
330
37
100
AcDbEntity
  8
1
  6
Continuous
 62
     7
100
AcDbCircle
 10
821.5465520090408
 20
205.5594626257345
 30
0.0
 40
3.0
100
AcDbArc
 50
355.3076410000002
 51
90.0
  0
LINE
  5
6E5C1
330
37
100
AcDbEntity
  8
1
  6
Continuous
 62
     7
100
AcDbLine
 10
820.9581770090405
 20
205.3594596257345
 30
0.0
 11
820.9581770090405
 21
208.5594626257341
 31
0.0
  0
ARC
  5
6E5C2
330
37
100
AcDbEntity
  8
1
  6
Continuous
 62
     7
100
AcDbCircle
 10
822.9120590090408
 20
203.8594596257345
 30
0.0
 40
1.5
100
AcDbArc
 50
355.3076410000002
 51
90.0
  0
LINE
  5
6E5C3
330
37
100
AcDbEntity
  8
1
  6
Continuous
 62
     7
100
AcDbLine
 10
833.7081710090409
 20
215.9229586257345
 30
0.0
 11
834.2716690090409
 21
215.3594606257345
 31
0.0
  0
ARC
  5
6E5C4
330
37
100
AcDbEntity
  8
1
  6
Continuous
 62
     7
100
AcDbCircle
 10
832.2081770090406
 20
217.9229686257344
 30
0.0
 40
2.5
100
AcDbArc
 50
306.8699410000095
 51
0.0
  0
LINE
  5
6E5C5
330
37
100
AcDbEntity
  8
1
  6
Continuous
 62
     7
100
AcDbLine
 10
821.2081770090396
 20
233.0594666257341
 30
0.0
 11
821.2081770090396
 21
229.0594666257341
 31
0.0
  0
ARC
  5
6E5C6
330
37
100
AcDbEntity
  8
1
  6
Continuous
 62
     7
100
AcDbCircle
 10
833.7081770090405
 20
233.6427966257344
 30
0.0
 40
6.083332999999997
100
AcDbArc
 50
228.8879099999947
 51
270.0
  0
ARC
  5
6E5C7
330
37
100
AcDbEntity
  8
1
  6
Continuous
 62
     7
100
AcDbCircle
 10
832.2081960090406
 20
301.5728690616376
 30
0.0
 40
11.0
100
AcDbArc
 50
180.0000359999984
 51
270.0000179999862
  0
LINE
  5
6E5C8
330
37
100
AcDbEntity
  8
2
  6
CENTER2
 62
     1
100
AcDbLine
 10
832.2081770090406
 20
304.5728690616373
 30
0.0
 11
832.2081770090406
 21
298.5728690616373
 31
0.0
  0
LINE
  5
6E5C9
330
37
100
AcDbEntity
  8
2
  6
CENTER2
 62
     1
100
AcDbLine
 10
834.7081770090406
 20
307.0728690616373
 30
0.0
 11
834.7081770090406
 21
301.0728690616373
 31
0.0
  0
LINE
  5
6E5CA
330
37
100
AcDbEntity
  8
1
  6
Continuous
 62
     7
100
AcDbLine
 10
828.3190900090396
 20
305.4619750616375
 30
0.0
 11
830.8190930090406
 21
307.9619780616374
 31
0.0
  0
LINE
  5
6E5CB
330
37
100
AcDbEntity
  8
2
  6
CENTER2
 62
     1
100
AcDbLine
 10
835.2081770090405
 20
301.5728690616376
 30
0.0
 11
829.2081770090396
 21
301.5728690616376
 31
0.0
  0
ARC
  5
6E5CC
102
{ACAD_REACTORS
330
6E9C6
102
}
330
37
100
AcDbEntity
  8
1
  6
Continuous
 62
     7
100
AcDbCircle
 10
832.2081960090406
 20
381.5728690616373
 30
0.0
 40
11.0
100
AcDbArc
 50
89.99998199998776
 51
179.9999639999983
  0
LINE
  5
6E5CD
330
37
100
AcDbEntity
  8
1
  6
Continuous
 62
     7
100
AcDbLine
 10
821.2081960090406
 20
381.5728690616373
 30
0.0
 11
821.2081960090406
 21
341.5728690616373
 31
0.0
  0
LINE
  5
6E5CE
330
37
100
AcDbEntity
  8
1
  6
Continuous
 62
     7
100
AcDbLine
 10
828.3190850090397
 20
377.6837720616376
 30
0.0
 11
830.8190880090407
 21
375.1837700616373
 31
0.0
  0
LINE
  5
6E5CF
102
{ACAD_REACTORS
330
6E966
102
}
330
37
100
AcDbEntity
  8
2
  6
CENTER2
 62
     1
100
AcDbLine
 10
834.7081770090406
 20
376.0728690616373
 30
0.0
 11
834.7081770090406
 21
382.0728690616373
 31
0.0
  0
LINE
  5
6E5D0
330
37
100
AcDbEntity
  8
2
  6
CENTER2
 62
     1
100
AcDbLine
 10
835.2081770090405
 20
381.5728690616373
 30
0.0
 11
829.2081770090396
 21
381.5728690616373
 31
0.0
  0
LINE
  5
6E5D1
102
{ACAD_REACTORS
330
6E97E
102
}
330
37
100
AcDbEntity
  8
2
  6
CENTER2
 62
     1
100
AcDbLine
 10
832.2081770090406
 20
378.5728690616374
 30
0.0
 11
832.2081770090406
 21
384.5728690616373
 31
0.0
  0
LINE
  5
6E5D2
330
37
100
AcDbEntity
  8
1
  6
Continuous
 62
     7
100
AcDbLine
 10
923.2081620090395
 20
301.5728690616376
 30
0.0
 11
923.2081620090395
 21
341.5728690616373
 31
0.0
  0
LINE
  5
6E5D3
330
37
100
AcDbEntity
  8
2
  6
CENTER2
 62
     1
100
AcDbLine
 10
872.2081770090406
 20
281.5728690616373
 30
0.0
 11
872.2081770090406
 21
401.5728690616375
 31
0.0
  0
CIRCLE
  5
6E5D4
330
37
100
AcDbEntity
  8
1
  6
Continuous
 62
     7
100
AcDbCircle
 10
872.2081730090396
 20
220.8594626257344
 30
0.0
 40
2.0
  0
ARC
  5
6E5D5
330
37
100
AcDbEntity
  8
1
  6
Continuous
 62
     7
100
AcDbCircle
 10
843.8275320090399
 20
211.5594626257345
 30
0.0
 40
3.0
100
AcDbArc
 50
270.0000179999862
 51
335.415017999997
  0
LINE
  5
6E5D6
330
37
100
AcDbEntity
  8
1
  6
Continuous
 62
     7
100
AcDbLine
 10
836.4581770090396
 20
213.5594626257345
 30
0.0
 11
836.4581770090396
 21
215.3594626257344
 31
0.0
  0
LINE
  5
6E5D7
330
37
100
AcDbEntity
  8
2
  6
CENTER2
 62
     1
100
AcDbLine
 10
868.2081890090396
 20
220.8594626257344
 30
0.0
 11
876.2081810090396
 21
220.8594626257344
 31
0.0
  0
LINE
  5
6E5D8
330
37
100
AcDbEntity
  8
1
  6
Continuous
 62
     7
100
AcDbLine
 10
909.7081770090396
 20
224.0594626257345
 30
0.0
 11
909.7081770090396
 21
217.9229686257344
 31
0.0
  0
ARC
  5
6E5D9
330
37
100
AcDbEntity
  8
1
  6
Continuous
 62
     7
100
AcDbCircle
 10
904.4515170090406
 20
199.9594486257344
 30
0.0
 40
10.0
100
AcDbArc
 50
89.99998199998776
 51
150.8024220000037
  0
LINE
  5
6E5DA
330
37
100
AcDbEntity
  8
1
  6
Continuous
 62
     7
100
AcDbLine
 10
908.2081770090406
 20
215.3594626257344
 30
0.0
 11
908.2081770090406
 21
209.9594566257345
 31
0.0
  0
LINE
  5
6E5DB
330
37
100
AcDbEntity
  8
1
  6
Continuous
 62
     7
100
AcDbLine
 10
904.4515240090406
 20
209.9594416257344
 30
0.0
 11
908.2081620090404
 21
209.9594416257344
 31
0.0
  0
ARC
  5
6E5DC
330
37
100
AcDbEntity
  8
1
  6
Continuous
 62
     7
100
AcDbCircle
 10
912.2081770090405
 20
217.9229686257344
 30
0.0
 40
2.5
100
AcDbArc
 50
180.0
 51
233.1300589999905
  0
LINE
  5
6E5DD
330
37
100
AcDbEntity
  8
1
  6
Continuous
 62
     7
100
AcDbLine
 10
910.7081560090406
 20
215.9229556257344
 30
0.0
 11
910.1446580090408
 21
215.3594576257345
 31
0.0
  0
ARC
  5
6E5DE
330
37
100
AcDbEntity
  8
1
  6
Continuous
 62
     7
100
AcDbCircle
 10
904.7081770090406
 20
224.0594626257345
 30
0.0
 40
5.0
100
AcDbArc
 50
0.0
 51
44.42700400000424
  0
ARC
  5
6E5DF
330
37
100
AcDbEntity
  8
1
  6
Continuous
 62
     7
100
AcDbCircle
 10
910.7081770090406
 20
233.6427966257344
 30
0.0
 40
6.083332999999997
100
AcDbArc
 50
270.0
 51
311.1120900000053
  0
LINE
  5
6E5E0
330
37
100
AcDbEntity
  8
1
  6
Continuous
 62
     7
100
AcDbLine
 10
923.2081770090406
 20
233.0594586257342
 30
0.0
 11
923.2081770090406
 21
229.0594596257344
 31
0.0
  0
LINE
  5
6E5E1
330
37
100
AcDbEntity
  8
1
  6
Continuous
 62
     7
100
AcDbLine
 10
872.2081770090406
 20
290.5728690616373
 30
0.0
 11
912.2081620090396
 21
290.5728690616373
 31
0.0
  0
LINE
  5
6E5E2
330
37
100
AcDbEntity
  8
1
  6
Continuous
 62
     7
100
AcDbLine
 10
836.0972570090405
 20
297.6838090616374
 30
0.0
 11
838.5972590090407
 21
300.1838110616375
 31
0.0
  0
ARC
  5
6E5E3
102
{ACAD_REACTORS
330
6E9DE
102
}
330
37
100
AcDbEntity
  8
1
  6
Continuous
 62
     7
100
AcDbCircle
 10
912.2081620090396
 20
301.5728690616376
 30
0.0
 40
11.0
100
AcDbArc
 50
270.0000179999862
 51
0.0
  0
ARC
  5
6E5E4
330
37
100
AcDbEntity
  8
1
  6
Continuous
 62
     7
100
AcDbCircle
 10
912.2081770090405
 20
301.5728690616376
 30
0.0
 40
5.5
100
AcDbArc
 50
225.0000539999897
 51
44.99995000000014
  0
ARC
  5
6E5E5
330
37
100
AcDbEntity
  8
1
  6
Continuous
 62
     7
100
AcDbCircle
 10
909.7081770090396
 20
304.0728690616373
 30
0.0
 40
5.5
100
AcDbArc
 50
44.99996399999342
 51
225.0000370000081
  0
LINE
  5
6E5E6
330
37
100
AcDbEntity
  8
2
  6
CENTER2
 62
     1
100
AcDbLine
 10
912.2081770090405
 20
304.5728690616373
 30
0.0
 11
912.2081770090405
 21
298.5728690616373
 31
0.0
  0
LINE
  5
6E5E7
330
37
100
AcDbEntity
  8
2
  6
CENTER2
 62
     1
100
AcDbLine
 10
909.7081770090396
 20
307.0728690616373
 30
0.0
 11
909.7081770090396
 21
301.0728690616373
 31
0.0
  0
LINE
  5
6E5E8
330
37
100
AcDbEntity
  8
1
  6
Continuous
 62
     7
100
AcDbLine
 10
908.3190940090419
 20
297.6837950616375
 30
0.0
 11
905.8190920090408
 21
300.1837980616374
 31
0.0
  0
LINE
  5
6E5E9
102
{ACAD_REACTORS
330
6E9AE
102
}
330
37
100
AcDbEntity
  8
2
  6
CENTER2
 62
     1
100
AcDbLine
 10
909.2081770090405
 20
301.5728690616376
 30
0.0
 11
915.2081770090397
 21
301.5728690616376
 31
0.0
  0
LINE
  5
6E5EA
102
{ACAD_REACTORS
330
6E996
102
}
330
37
100
AcDbEntity
  8
2
  6
CENTER2
 62
     1
100
AcDbLine
 10
906.7081770090405
 20
304.0728690616373
 30
0.0
 11
912.7081770090397
 21
304.0728690616373
 31
0.0
  0
LINE
  5
6E5EB
330
37
100
AcDbEntity
  8
1
  6
Continuous
 62
     7
100
AcDbLine
 10
916.0972610090405
 20
305.4619560616373
 30
0.0
 11
913.5972580090399
 21
307.9619590616375
 31
0.0
  0
ARC
  5
6E5EC
330
37
100
AcDbEntity
  8
1
  6
Continuous
 62
     7
100
AcDbCircle
 10
912.2081620090396
 20
381.5728690616373
 30
0.0
 40
11.0
100
AcDbArc
 50
0.0
 51
90.0000369999933
  0
ARC
  5
6E5ED
330
37
100
AcDbEntity
  8
1
  6
Continuous
 62
     7
100
AcDbCircle
 10
912.2081770090405
 20
381.5728690616373
 30
0.0
 40
5.5
100
AcDbArc
 50
315.0001049999887
 51
135.0000010000095
  0
CIRCLE
  5
6E5EE
330
37
100
AcDbEntity
  8
1
  6
Continuous
 62
     4
100
AcDbCircle
 10
872.2081770090406
 20
341.5728690616373
 30
0.0
 40
19.5
  0
CIRCLE
  5
6E5EF
330
37
100
AcDbEntity
  8
1
  6
Continuous
 62
     7
100
AcDbCircle
 10
872.2081770090406
 20
341.5728690616373
 30
0.0
 40
13.0
  0
LINE
  5
6E5F0
330
37
100
AcDbEntity
  8
1
  6
Continuous
 62
     7
100
AcDbLine
 10
836.0972490090397
 20
385.4619250616373
 30
0.0
 11
838.5972510090407
 21
382.9619230616373
 31
0.0
  0
LINE
  5
6E5F1
102
{ACAD_REACTORS
330
6E9C6
102
}
330
37
100
AcDbEntity
  8
1
  6
Continuous
 62
     7
100
AcDbLine
 10
923.2081620090395
 20
381.5728690616373
 30
0.0
 11
923.2081620090395
 21
341.5728690616373
 31
0.0
  0
LINE
  5
6E5F2
330
37
100
AcDbEntity
  8
1
  6
Continuous
 62
     7
100
AcDbLine
 10
916.0972660090408
 20
377.6837750616376
 30
0.0
 11
913.5972630090407
 21
375.1837720616373
 31
0.0
  0
ARC
  5
6E5F3
330
37
100
AcDbEntity
  8
1
  6
Continuous
 62
     7
100
AcDbCircle
 10
909.7081770090396
 20
379.0728690616373
 30
0.0
 40
5.5
100
AcDbArc
 50
135.0000010000095
 51
315.0000740000069
  0
LINE
  5
6E5F4
102
{ACAD_REACTORS
330
6E966
102
}
330
37
100
AcDbEntity
  8
2
  6
CENTER2
 62
     1
100
AcDbLine
 10
909.7081770090396
 20
376.0728690616373
 30
0.0
 11
909.7081770090396
 21
382.0728690616373
 31
0.0
  0
LINE
  5
6E5F5
102
{ACAD_REACTORS
330
6E9AE
102
}
330
37
100
AcDbEntity
  8
2
  6
CENTER2
 62
     1
100
AcDbLine
 10
909.2081770090405
 20
381.5728690616373
 30
0.0
 11
915.2081770090397
 21
381.5728690616373
 31
0.0
  0
LINE
  5
6E5F6
102
{ACAD_REACTORS
330
6E996
102
}
330
37
100
AcDbEntity
  8
2
  6
CENTER2
 62
     1
100
AcDbLine
 10
906.7081770090405
 20
379.0728690616373
 30
0.0
 11
912.7081770090397
 21
379.0728690616373
 31
0.0
  0
LINE
  5
6E5F7
330
37
100
AcDbEntity
  8
1
  6
Continuous
 62
     7
100
AcDbLine
 10
908.3191020090405
 20
385.4619390616374
 30
0.0
 11
905.8191000090399
 21
382.9619360616375
 31
0.0
  0
LINE
  5
6E5F8
102
{ACAD_REACTORS
330
6E97E
102
}
330
37
100
AcDbEntity
  8
2
  6
CENTER2
 62
     1
100
AcDbLine
 10
912.2081770090405
 20
378.5728690616374
 30
0.0
 11
912.2081770090405
 21
384.5728690616373
 31
0.0
  0
LINE
  5
6E5F9
102
{ACAD_REACTORS
330
6E9DE
102
}
330
37
100
AcDbEntity
  8
1
  6
Continuous
 62
     7
100
AcDbLine
 10
872.2081770090406
 20
392.5728690616373
 30
0.0
 11
912.2081620090396
 21
392.5728690616373
 31
0.0
  0
LINE
  5
6E615
330
37
100
AcDbEntity
  8
2
  6
CENTER2
 62
     1
100
AcDbLine
 10
834.7081770090406
 20
237.3456126257344
 30
0.0
 11
834.7081770090406
 21
223.9435136257346
 31
0.0
  0
LINE
  5
6E616
330
37
100
AcDbEntity
  8
2
  6
CENTER2
 62
     1
100
AcDbLine
 10
832.2081770090406
 20
236.8802626257345
 30
0.0
 11
832.2081770090406
 21
224.2227236257345
 31
0.0
  0
LINE
  5
6E617
330
37
100
AcDbEntity
  8
2
  6
CENTER2
 62
     1
100
AcDbLine
 10
912.2081770090405
 20
236.8802626257345
 30
0.0
 11
912.2081770090405
 21
224.2227236257345
 31
0.0
  0
LINE
  5
6E618
330
37
100
AcDbEntity
  8
2
  6
CENTER2
 62
     1
100
AcDbLine
 10
909.7081770090396
 20
237.3456126257344
 30
0.0
 11
909.7081770090396
 21
223.9435136257346
 31
0.0
  0
ARC
  5
6E6C6
102
{ACAD_REACTORS
330
6EABC
330
6EAD2
102
}
330
37
100
AcDbEntity
  8
1
  6
Continuous
 62
     7
100
AcDbCircle
 10
1085.206483606991
 20
127.5594626257345
 30
0.0
 40
74.99999200000002
100
AcDbArc
 50
96.15870600000235
 51
49.35018600000343
  0
LINE
  5
6E6CB
330
37
100
AcDbEntity
  8
1
  6
Continuous
 62
     7
100
AcDbLine
 10
1150.154349606993
 20
214.3052866257345
 30
0.0
 11
1098.685486606992
 21
118.8452386257345
 31
0.0
  0
LINE
  5
6E6CC
330
37
100
AcDbEntity
  8
1
  6
Continuous
 62
     7
100
AcDbLine
 10
1069.126708606991
 20
128.0290936257345
 30
0.0
 11
1078.527380606991
 21
214.7361086257345
 31
0.0
  0
LINE
  5
6E6D0
330
37
100
AcDbEntity
  8
2
  6
CENTER2
 62
     1
100
AcDbLine
 10
1005.206483606991
 20
127.5594626257345
 30
0.0
 11
1165.206483606992
 21
127.5594626257345
 31
0.0
  0
ARC
  5
6E6D2
330
37
100
AcDbEntity
  8
1
  6
Continuous
 62
     7
100
AcDbCircle
 10
1084.804679606993
 20
126.3293066257348
 30
0.0
 40
15.769847
100
AcDbArc
 50
173.8122290000014
 51
331.667921
  0
CIRCLE
  5
6E6D3
330
37
100
AcDbEntity
  8
1
  6
Continuous
 62
     7
100
AcDbCircle
 10
1085.206483606991
 20
127.5594626257345
 30
0.0
 40
8.199996999999997
  0
CIRCLE
  5
6E6D4
330
37
100
AcDbEntity
  8
1
  6
Continuous
 62
     7
100
AcDbCircle
 10
1085.206483606991
 20
127.5594626257345
 30
0.0
 40
10.5
  0
CIRCLE
  5
6E6D9
330
37
100
AcDbEntity
  8
1
  6
Continuous
 62
     4
100
AcDbCircle
 10
1085.206483606991
 20
127.5594626257345
 30
0.0
 40
3.0
  0
CIRCLE
  5
6E6DC
330
37
100
AcDbEntity
  8
1
  6
Continuous
 62
     7
100
AcDbCircle
 10
1085.206483606991
 20
127.5594626257345
 30
0.0
 40
2.0
  0
LINE
  5
6E6FE
330
37
100
AcDbEntity
  8
1
  6
Continuous
 62
     7
100
AcDbLine
 10
1166.206468606992
 20
385.3608445737346
 30
0.0
 11
1086.206502606991
 21
385.3608445737346
 31
0.0
  0
LINE
  5
6E6FF
102
{ACAD_REACTORS
330
6EA9C
102
}
330
37
100
AcDbEntity
  8
1
  6
Continuous
 62
     7
100
AcDbLine
 10
1166.206468606992
 20
283.3608445737345
 30
0.0
 11
1086.206502606991
 21
283.3608445737345
 31
0.0
  0
CIRCLE
  5
6E700
330
37
100
AcDbEntity
  8
1
  6
Continuous
 62
     7
100
AcDbCircle
 10
1126.206483606992
 20
334.3608445737347
 30
0.0
 40
39.0
  0
CIRCLE
  5
6E701
330
37
100
AcDbEntity
  8
1
  6
Continuous
 62
     7
100
AcDbCircle
 10
1126.206483606992
 20
334.3608445737347
 30
0.0
 40
37.5
  0
LINE
  5
6E702
102
{ACAD_REACTORS
330
6EABC
102
}
330
37
100
AcDbEntity
  8
1
  6
Continuous
 62
     7
100
AcDbLine
 10
1075.206483606991
 20
242.5594696257345
 30
0.0
 11
1177.206483606992
 21
242.5594696257345
 31
0.0
  0
LINE
  5
6E703
330
37
100
AcDbEntity
  8
1
  6
Continuous
 62
     7
100
AcDbLine
 10
1075.206483606991
 20
238.5594706257348
 30
0.0
 11
1177.206483606992
 21
238.5594706257348
 31
0.0
  0
LINE
  5
6E704
330
37
100
AcDbEntity
  8
1
  6
Continuous
 62
     7
100
AcDbLine
 10
1087.706483606991
 20
225.4229776257346
 30
0.0
 11
1164.706483606992
 21
225.4229776257346
 31
0.0
  0
LINE
  5
6E705
330
37
100
AcDbEntity
  8
1
  6
Continuous
 62
     7
100
AcDbLine
 10
1088.269990606992
 20
224.8594706257345
 30
0.0
 11
1164.142976606992
 21
224.8594706257345
 31
0.0
  0
LINE
  5
6E706
330
37
100
AcDbEntity
  8
1
  6
Continuous
 62
     7
100
AcDbLine
 10
1087.706483606991
 20
237.0594706257346
 30
0.0
 11
1164.706483606992
 21
237.0594706257346
 31
0.0
  0
LINE
  5
6E707
330
37
100
AcDbEntity
  8
2
  6
CENTER2
 62
     1
100
AcDbLine
 10
1186.206483606992
 20
334.3608445737347
 30
0.0
 11
1067.206502606991
 21
334.3608445737348
 31
0.0
  0
LINE
  5
6E708
330
37
100
AcDbEntity
  8
1
  6
Continuous
 62
     7
100
AcDbLine
 10
1075.206502606991
 20
374.3608445737345
 30
0.0
 11
1075.206502606991
 21
294.3608445737345
 31
0.0
  0
ARC
  5
6E709
330
37
100
AcDbEntity
  8
1
  6
Continuous
 62
     7
100
AcDbCircle
 10
1086.206483606991
 20
294.3608445737345
 30
0.0
 40
5.5
100
AcDbArc
 50
135.0000549999912
 51
314.9999639999946
  0
ARC
  5
6E70A
330
37
100
AcDbEntity
  8
1
  6
Continuous
 62
     7
100
AcDbCircle
 10
1088.706483606991
 20
296.8608445737347
 30
0.0
 40
5.5
100
AcDbArc
 50
314.9999949999914
 51
135.0000549999912
  0
LINE
  5
6E70B
330
37
100
AcDbEntity
  8
2
  6
CENTER2
 62
     1
100
AcDbLine
 10
1088.706483606991
 20
299.8608445737346
 30
0.0
 11
1088.706483606991
 21
293.8608445737346
 31
0.0
  0
LINE
  5
6E70C
330
37
100
AcDbEntity
  8
2
  6
CENTER2
 62
     1
100
AcDbLine
 10
1086.206483606991
 20
297.3608445737347
 30
0.0
 11
1086.206483606991
 21
291.3608445737347
 31
0.0
  0
LINE
  5
6E70D
330
37
100
AcDbEntity
  8
1
  6
Continuous
 62
     7
100
AcDbLine
 10
1090.456483606991
 20
223.0594696257345
 30
0.0
 11
1090.456483606991
 21
224.8594706257345
 31
0.0
  0
LINE
  5
6E70E
330
37
100
AcDbEntity
  8
1
  6
Continuous
 62
     7
100
AcDbLine
 10
1097.825837606992
 20
218.0594696257347
 30
0.0
 11
1074.956483606991
 21
218.0594696257347
 31
0.0
  0
ARC
  5
6E70F
330
37
100
AcDbEntity
  8
1
  6
Continuous
 62
     7
100
AcDbCircle
 10
1085.456483606991
 20
223.0594696257345
 30
0.0
 40
5.0
100
AcDbArc
 50
270.0
 51
0.0
  0
ARC
  5
6E710
330
37
100
AcDbEntity
  8
1
  6
Continuous
 62
     7
100
AcDbCircle
 10
1076.869336606992
 20
213.3594676257346
 30
0.0
 40
1.5
100
AcDbArc
 50
353.8122279999986
 51
90.0
  0
ARC
  5
6E711
330
37
100
AcDbEntity
  8
1
  6
Continuous
 62
     7
100
AcDbCircle
 10
1075.544858606992
 20
215.0594696257345
 30
0.0
 40
3.0
100
AcDbArc
 50
353.8122279999986
 51
90.0
  0
LINE
  5
6E712
330
37
100
AcDbEntity
  8
1
  6
Continuous
 62
     7
100
AcDbLine
 10
1074.956483606991
 20
214.8594676257348
 30
0.0
 11
1074.956483606991
 21
218.0594696257347
 31
0.0
  0
LINE
  5
6E713
330
37
100
AcDbEntity
  8
1
  6
Continuous
 62
     7
100
AcDbLine
 10
1076.869336606992
 20
214.8594676257348
 30
0.0
 11
1074.956483606991
 21
214.8594676257348
 31
0.0
  0
ARC
  5
6E714
330
37
100
AcDbEntity
  8
1
  6
Continuous
 62
     7
100
AcDbCircle
 10
1097.825837606992
 20
221.0594696257345
 30
0.0
 40
3.0
100
AcDbArc
 50
270.0000179999862
 51
335.415017999997
  0
ARC
  5
6E715
330
37
100
AcDbEntity
  8
1
  6
Continuous
 62
     7
100
AcDbCircle
 10
1087.706483606991
 20
243.1428036257346
 30
0.0
 40
6.083332999999997
100
AcDbArc
 50
228.8879099999947
 51
270.0
  0
LINE
  5
6E716
330
37
100
AcDbEntity
  8
1
  6
Continuous
 62
     7
100
AcDbLine
 10
1075.206483606991
 20
242.5594736257346
 30
0.0
 11
1075.206483606991
 21
238.5594746257345
 31
0.0
  0
ARC
  5
6E717
330
37
100
AcDbEntity
  8
1
  6
Continuous
 62
     7
100
AcDbCircle
 10
1093.706483606991
 20
233.5594706257345
 30
0.0
 40
5.0
100
AcDbArc
 50
135.5729959999957
 51
180.0
  0
ARC
  5
6E718
330
37
100
AcDbEntity
  8
1
  6
Continuous
 62
     7
100
AcDbCircle
 10
1086.206483606991
 20
227.4229766257346
 30
0.0
 40
2.5
100
AcDbArc
 50
306.8699410000095
 51
0.0
  0
LINE
  5
6E719
330
37
100
AcDbEntity
  8
1
  6
Continuous
 62
     7
100
AcDbLine
 10
1088.706483606991
 20
233.5594706257345
 30
0.0
 11
1088.706483606991
 21
227.4229766257346
 31
0.0
  0
LINE
  5
6E71A
330
37
100
AcDbEntity
  8
1
  6
Continuous
 62
     7
100
AcDbLine
 10
1087.706477606992
 20
225.4229656257345
 30
0.0
 11
1088.269974606993
 21
224.8594686257345
 31
0.0
  0
ARC
  5
6E71B
330
37
100
AcDbEntity
  8
1
  6
Continuous
 62
     7
100
AcDbCircle
 10
1086.206502606991
 20
294.3608445737345
 30
0.0
 40
11.0
100
AcDbArc
 50
180.0000359999984
 51
270.0000179999862
  0
LINE
  5
6E71C
330
37
100
AcDbEntity
  8
2
  6
CENTER2
 62
     1
100
AcDbLine
 10
1089.206483606991
 20
294.3608445737345
 30
0.0
 11
1083.206483606992
 21
294.3608445737345
 31
0.0
  0
LINE
  5
6E71D
330
37
100
AcDbEntity
  8
1
  6
Continuous
 62
     7
100
AcDbLine
 10
1090.095558606991
 20
290.4717785737347
 30
0.0
 11
1092.595561606992
 21
292.9717815737347
 31
0.0
  0
LINE
  5
6E71E
330
37
100
AcDbEntity
  8
1
  6
Continuous
 62
     7
100
AcDbLine
 10
1090.095550606991
 20
378.2498955737346
 30
0.0
 11
1092.595553606992
 21
375.7498925737348
 31
0.0
  0
ARC
  5
6E71F
102
{ACAD_REACTORS
330
6EA54
102
}
330
37
100
AcDbEntity
  8
1
  6
Continuous
 62
     7
100
AcDbCircle
 10
1086.206502606991
 20
374.3608445737345
 30
0.0
 40
11.0
100
AcDbArc
 50
89.99998199998776
 51
179.9999639999983
  0
ARC
  5
6E720
330
37
100
AcDbEntity
  8
1
  6
Continuous
 62
     7
100
AcDbCircle
 10
1086.206483606991
 20
374.3608445737345
 30
0.0
 40
5.5
100
AcDbArc
 50
45.00000500000862
 51
224.999928000003
  0
LINE
  5
6E721
330
37
100
AcDbEntity
  8
2
  6
CENTER2
 62
     1
100
AcDbLine
 10
1091.706483606991
 20
296.8608445737347
 30
0.0
 11
1085.706483606991
 21
296.8608445737347
 31
0.0
  0
LINE
  5
6E722
330
37
100
AcDbEntity
  8
1
  6
Continuous
 62
     7
100
AcDbLine
 10
1082.317389606991
 20
298.2499475737347
 30
0.0
 11
1084.817392606991
 21
300.7499505737346
 31
0.0
  0
ARC
  5
6E723
330
37
100
AcDbEntity
  8
1
  6
Continuous
 62
     7
100
AcDbCircle
 10
1088.706483606991
 20
371.8608445737348
 30
0.0
 40
5.5
100
AcDbArc
 50
224.9999309999959
 51
45.00000500000862
  0
LINE
  5
6E724
330
37
100
AcDbEntity
  8
2
  6
CENTER2
 62
     1
100
AcDbLine
 10
1091.706483606991
 20
371.8608445737348
 30
0.0
 11
1085.706483606991
 21
371.8608445737348
 31
0.0
  0
LINE
  5
6E725
330
37
100
AcDbEntity
  8
2
  6
CENTER2
 62
     1
100
AcDbLine
 10
1089.206483606991
 20
374.3608445737345
 30
0.0
 11
1083.206483606992
 21
374.3608445737345
 31
0.0
  0
LINE
  5
6E726
330
37
100
AcDbEntity
  8
1
  6
Continuous
 62
     7
100
AcDbLine
 10
1082.317386606991
 20
370.4717535737349
 30
0.0
 11
1084.817389606993
 21
367.9717505737348
 31
0.0
  0
LINE
  5
6E727
102
{ACAD_REACTORS
330
6EA24
102
}
330
37
100
AcDbEntity
  8
2
  6
CENTER2
 62
     1
100
AcDbLine
 10
1088.706483606991
 20
368.8608445737346
 30
0.0
 11
1088.706483606991
 21
374.8608445737346
 31
0.0
  0
LINE
  5
6E728
102
{ACAD_REACTORS
330
6EA3C
102
}
330
37
100
AcDbEntity
  8
2
  6
CENTER2
 62
     1
100
AcDbLine
 10
1086.206483606991
 20
371.3608445737348
 30
0.0
 11
1086.206483606991
 21
377.3608445737346
 31
0.0
  0
LINE
  5
6E729
330
37
100
AcDbEntity
  8
1
  6
Continuous
 62
     7
100
AcDbLine
 10
1177.206468606992
 20
294.3608445737345
 30
0.0
 11
1177.206468606992
 21
374.3608445737345
 31
0.0
  0
ARC
  5
6E72A
330
37
100
AcDbEntity
  8
1
  6
Continuous
 62
     7
100
AcDbCircle
 10
1166.206483606992
 20
294.3608445737345
 30
0.0
 40
5.5
100
AcDbArc
 50
225.0000539999897
 51
44.99995000000014
  0
ARC
  5
6E72B
330
37
100
AcDbEntity
  8
1
  6
Continuous
 62
     7
100
AcDbCircle
 10
1163.706483606992
 20
296.8608445737347
 30
0.0
 40
5.5
100
AcDbArc
 50
44.99996399999342
 51
225.0000370000081
  0
LINE
  5
6E72C
330
37
100
AcDbEntity
  8
2
  6
CENTER2
 62
     1
100
AcDbLine
 10
1126.206483606992
 20
274.3608445737345
 30
0.0
 11
1126.206483606992
 21
394.3608445737345
 31
0.0
  0
LINE
  5
6E72D
330
37
100
AcDbEntity
  8
2
  6
CENTER2
 62
     1
100
AcDbLine
 10
1163.706483606992
 20
299.8608445737346
 30
0.0
 11
1163.706483606992
 21
293.8608445737346
 31
0.0
  0
LINE
  5
6E72E
330
37
100
AcDbEntity
  8
2
  6
CENTER2
 62
     1
100
AcDbLine
 10
1166.206483606992
 20
297.3608445737347
 30
0.0
 11
1166.206483606992
 21
291.3608445737347
 31
0.0
  0
LINE
  5
6E72F
330
37
100
AcDbEntity
  8
2
  6
CENTER2
 62
     1
100
AcDbLine
 10
1122.206495606993
 20
230.3594706257346
 30
0.0
 11
1130.206487606992
 21
230.3594706257346
 31
0.0
  0
CIRCLE
  5
6E730
330
37
100
AcDbEntity
  8
1
  6
Continuous
 62
     7
100
AcDbCircle
 10
1126.206479606992
 20
230.3594706257346
 30
0.0
 40
2.0
  0
LINE
  5
6E731
330
37
100
AcDbEntity
  8
1
  6
Continuous
 62
     7
100
AcDbLine
 10
1161.956483606992
 20
219.5594626257348
 30
0.0
 11
1161.956483606992
 21
224.8594706257345
 31
0.0
  0
ARC
  5
6E732
330
37
100
AcDbEntity
  8
1
  6
Continuous
 62
     7
100
AcDbCircle
 10
1158.956483606992
 20
209.5594626257346
 30
0.0
 40
10.0
100
AcDbArc
 50
89.99998199998776
 51
151.6679570000035
  0
LINE
  5
6E733
330
37
100
AcDbEntity
  8
1
  6
Continuous
 62
     7
100
AcDbLine
 10
1158.956483606992
 20
219.5594626257348
 30
0.0
 11
1161.956483606992
 21
219.5594626257348
 31
0.0
  0
ARC
  5
6E734
330
37
100
AcDbEntity
  8
1
  6
Continuous
 62
     7
100
AcDbCircle
 10
1158.706483606992
 20
233.5594706257345
 30
0.0
 40
5.0
100
AcDbArc
 50
0.0
 51
44.42700400000424
  0
ARC
  5
6E735
330
37
100
AcDbEntity
  8
1
  6
Continuous
 62
     7
100
AcDbCircle
 10
1166.206483606992
 20
227.4229766257346
 30
0.0
 40
2.5
100
AcDbArc
 50
180.0
 51
233.1300589999905
  0
LINE
  5
6E736
330
37
100
AcDbEntity
  8
1
  6
Continuous
 62
     7
100
AcDbLine
 10
1163.706483606992
 20
233.5594706257345
 30
0.0
 11
1163.706483606992
 21
227.4229766257346
 31
0.0
  0
LINE
  5
6E737
330
37
100
AcDbEntity
  8
1
  6
Continuous
 62
     7
100
AcDbLine
 10
1164.706462606992
 20
225.4229626257346
 30
0.0
 11
1164.142964606992
 21
224.8594656257346
 31
0.0
  0
ARC
  5
6E738
330
37
100
AcDbEntity
  8
1
  6
Continuous
 62
     7
100
AcDbCircle
 10
1164.706483606992
 20
243.1428036257346
 30
0.0
 40
6.083332999999997
100
AcDbArc
 50
270.0
 51
311.1120900000053
  0
LINE
  5
6E739
330
37
100
AcDbEntity
  8
1
  6
Continuous
 62
     7
100
AcDbLine
 10
1177.206483606992
 20
242.5594666257345
 30
0.0
 11
1177.206483606992
 21
238.5594666257345
 31
0.0
  0
ARC
  5
6E73A
330
37
100
AcDbEntity
  8
1
  6
Continuous
 62
     7
100
AcDbCircle
 10
1166.206468606992
 20
294.3608445737345
 30
0.0
 40
11.0
100
AcDbArc
 50
270.0000179999862
 51
0.0
  0
LINE
  5
6E73B
330
37
100
AcDbEntity
  8
1
  6
Continuous
 62
     7
100
AcDbLine
 10
1162.317404606992
 20
290.4717785737347
 30
0.0
 11
1159.817399606992
 21
292.9717845737346
 31
0.0
  0
LINE
  5
6E73C
102
{ACAD_REACTORS
330
6EA84
102
}
330
37
100
AcDbEntity
  8
2
  6
CENTER2
 62
     1
100
AcDbLine
 10
1163.206483606992
 20
294.3608445737345
 30
0.0
 11
1169.206483606992
 21
294.3608445737345
 31
0.0
  0
LINE
  5
6E73D
330
37
100
AcDbEntity
  8
1
  6
Continuous
 62
     7
100
AcDbLine
 10
1162.317409606992
 20
378.2499035737346
 30
0.0
 11
1159.817407606992
 21
375.7499005737346
 31
0.0
  0
ARC
  5
6E73E
102
{ACAD_REACTORS
330
6EA54
330
6EA9C
102
}
330
37
100
AcDbEntity
  8
1
  6
Continuous
 62
     7
100
AcDbCircle
 10
1166.206468606992
 20
374.3608445737345
 30
0.0
 40
11.0
100
AcDbArc
 50
0.0
 51
90.0000369999933
  0
ARC
  5
6E73F
330
37
100
AcDbEntity
  8
1
  6
Continuous
 62
     7
100
AcDbCircle
 10
1166.206483606992
 20
374.3608445737345
 30
0.0
 40
5.5
100
AcDbArc
 50
315.0001049999887
 51
135.0000010000095
  0
CIRCLE
  5
6E740
330
37
100
AcDbEntity
  8
1
  6
Continuous
 62
     4
100
AcDbCircle
 10
1126.206483606992
 20
334.3608445737347
 30
0.0
 40
19.5
  0
CIRCLE
  5
6E741
330
37
100
AcDbEntity
  8
1
  6
Continuous
 62
     7
100
AcDbCircle
 10
1126.206483606992
 20
334.3608445737347
 30
0.0
 40
13.0
  0
LINE
  5
6E742
102
{ACAD_REACTORS
330
6EA6C
102
}
330
37
100
AcDbEntity
  8
2
  6
CENTER2
 62
     1
100
AcDbLine
 10
1160.706483606992
 20
296.8608445737347
 30
0.0
 11
1166.706483606992
 21
296.8608445737347
 31
0.0
  0
LINE
  5
6E743
330
37
100
AcDbEntity
  8
1
  6
Continuous
 62
     7
100
AcDbLine
 10
1170.095562606992
 20
298.2499265737346
 30
0.0
 11
1167.595560606992
 21
300.7499285737346
 31
0.0
  0
ARC
  5
6E744
330
37
100
AcDbEntity
  8
1
  6
Continuous
 62
     7
100
AcDbCircle
 10
1163.706483606992
 20
371.8608445737348
 30
0.0
 40
5.5
100
AcDbArc
 50
135.0000010000095
 51
315.0000740000069
  0
LINE
  5
6E745
102
{ACAD_REACTORS
330
6EA6C
102
}
330
37
100
AcDbEntity
  8
2
  6
CENTER2
 62
     1
100
AcDbLine
 10
1160.706483606992
 20
371.8608445737348
 30
0.0
 11
1166.706483606992
 21
371.8608445737348
 31
0.0
  0
LINE
  5
6E746
330
37
100
AcDbEntity
  8
1
  6
Continuous
 62
     7
100
AcDbLine
 10
1170.095576606992
 20
370.4717585737347
 30
0.0
 11
1167.595573606992
 21
367.9717555737346
 31
0.0
  0
LINE
  5
6E747
102
{ACAD_REACTORS
330
6EA24
102
}
330
37
100
AcDbEntity
  8
2
  6
CENTER2
 62
     1
100
AcDbLine
 10
1163.706483606992
 20
368.8608445737346
 30
0.0
 11
1163.706483606992
 21
374.8608445737346
 31
0.0
  0
LINE
  5
6E748
102
{ACAD_REACTORS
330
6EA3C
102
}
330
37
100
AcDbEntity
  8
2
  6
CENTER2
 62
     1
100
AcDbLine
 10
1166.206483606992
 20
371.3608445737348
 30
0.0
 11
1166.206483606992
 21
377.3608445737346
 31
0.0
  0
LINE
  5
6E749
102
{ACAD_REACTORS
330
6EA84
102
}
330
37
100
AcDbEntity
  8
2
  6
CENTER2
 62
     1
100
AcDbLine
 10
1163.206483606992
 20
374.3608445737345
 30
0.0
 11
1169.206483606992
 21
374.3608445737345
 31
0.0
  0
LINE
  5
6E74A
330
37
100
AcDbEntity
  8
2
  6
CENTER2
 62
     1
100
AcDbLine
 10
1126.206483606992
 20
188.9305773247346
 30
0.0
 11
1126.206483606992
 21
254.9632866257345
 31
0.0
  0
LINE
  5
6E74B
330
37
100
AcDbEntity
  8
2
  6
CENTER2
 62
     1
100
AcDbLine
 10
1085.206483606991
 20
47.55946262573473
 30
0.0
 11
1085.206483606991
 21
207.5594626257347
 31
0.0
  0
LINE
  5
6E769
330
37
100
AcDbEntity
  8
2
  6
CENTER2
 62
     1
100
AcDbLine
 10
1086.206483606991
 20
246.5479026257345
 30
0.0
 11
1086.206483606991
 21
232.9756586257346
 31
0.0
  0
LINE
  5
6E76A
330
37
100
AcDbEntity
  8
2
  6
CENTER2
 62
     1
100
AcDbLine
 10
1088.706483606991
 20
246.7779396257346
 30
0.0
 11
1088.706483606991
 21
232.8606396257346
 31
0.0
  0
LINE
  5
6E76B
330
37
100
AcDbEntity
  8
2
  6
CENTER2
 62
     1
100
AcDbLine
 10
1163.706483606992
 20
246.7779396257346
 30
0.0
 11
1163.706483606992
 21
232.8606396257346
 31
0.0
  0
LINE
  5
6E76C
330
37
100
AcDbEntity
  8
2
  6
CENTER2
 62
     1
100
AcDbLine
 10
1166.206483606992
 20
246.5479026257345
 30
0.0
 11
1166.206483606992
 21
232.9756586257346
 31
0.0
  0
LWPOLYLINE
  5
6E771
330
37
100
AcDbEntity
  8
0
100
AcDbPolyline
 90
        6
 70
     1
 43
0.0
 10
240.7135312194298
 20
129.6018903268367
 10
234.4635312194298
 20
133.2103295092718
 10
228.2135312194298
 20
129.6018903268367
 10
228.2135312194298
 20
122.3850119619664
 10
234.4635312194298
 20
118.7765727795312
 10
240.7135312194298
 20
122.3850119619664
  0
DIMENSION
  5
6E772
102
{ACAD_XDICTIONARY
360
6E77F
102
}
102
{ACAD_REACTORS
330
6E789
102
}
330
37
100
AcDbEntity
  8
0
100
AcDbDimension
  2
*D6892
 10
290.9635312194298
 20
279.7288258039078
 30
0.0
 11
263.4635312194298
 21
282.1038258039077
 31
0.0
 70
    32
 71
     5
 42
55.0
  3
ISO-25_WS
100
AcDbAlignedDimension
 13
235.9635312194298
 23
269.4934471444014
 33
0.0
 14
290.9635312194298
 24
269.4934471444014
 34
0.0
100
AcDbRotatedDimension
1001
ACAD
1000
DSTYLE
1002
{
1070
    40
1040
1.0
1002
}
  0
DIMENSION
  5
6E78A
102
{ACAD_XDICTIONARY
360
6E797
102
}
102
{ACAD_REACTORS
330
6E7A1
102
}
330
37
100
AcDbEntity
  8
0
100
AcDbDimension
  2
*D6893
 10
298.4635312194307
 20
289.9617329782952
 30
0.0
 11
263.4635312194307
 21
292.3367329782952
 31
0.0
 70
    32
 71
     5
 42
70.0
  3
ISO-25_WS
100
AcDbAlignedDimension
 13
228.4635312194307
 23
263.9934471444013
 33
0.0
 14
298.4635312194307
 24
263.9934471444013
 34
0.0
100
AcDbRotatedDimension
1001
ACAD
1000
DSTYLE
1002
{
1070
    40
1040
1.0
1002
}
  0
DIMENSION
  5
6E7A2
102
{ACAD_XDICTIONARY
360
6E7AF
102
}
102
{ACAD_REACTORS
330
6E7B9
102
}
330
37
100
AcDbEntity
  8
0
100
AcDbDimension
  2
*D6894
 10
307.3446073119377
 20
222.4934471444013
 30
0.0
 11
304.9696073119376
 21
243.4934471444013
 31
0.0
 70
    32
 71
     5
 42
42.0
  3
ISO-25_WS
100
AcDbAlignedDimension
 13
295.3635312194298
 23
264.4934471444013
 33
0.0
 14
295.9635312194299
 24
222.4934471444013
 34
0.0
 50
90.0
100
AcDbRotatedDimension
1001
ACAD
1000
DSTYLE
1002
{
1070
    40
1040
1.0
1002
}
  0
DIMENSION
  5
6E7BA
102
{ACAD_XDICTIONARY
360
6E7C7
102
}
102
{ACAD_REACTORS
330
6E7D1
102
}
330
37
100
AcDbEntity
  8
0
100
AcDbDimension
  2
*D6895
 10
318.0013842416217
 20
214.4934471444015
 30
0.0
 11
315.6263842416217
 21
243.4934471444014
 31
0.0
 70
    32
 71
     5
 42
57.99999999999982
  3
ISO-25_WS
100
AcDbAlignedDimension
 13
289.9635312194298
 23
272.4934471444013
 33
0.0
 14
289.9635312194298
 24
214.4934471444015
 34
0.0
 50
90.0
100
AcDbRotatedDimension
1001
ACAD
1000
DSTYLE
1002
{
1070
    40
1040
1.0
1002
}
  0
DIMENSION
  5
6E7D2
102
{ACAD_XDICTIONARY
360
6E7DF
102
}
102
{ACAD_REACTORS
330
6E7E9
102
}
330
37
100
AcDbEntity
  8
0
100
AcDbDimension
  2
*D6896
 10
309.2813969037497
 20
93.49345114440152
 30
0.0
 11
306.9063969037497
 21
135.9934491444015
 31
0.0
 70
    32
 71
     5
 42
84.99999599999989
  3
ISO-25_WS
100
AcDbAlignedDimension
 13
298.4635312194298
 23
178.4934471444014
 33
0.0
 14
234.4635312194298
 24
93.49345114440154
 34
0.0
 50
90.0
100
AcDbRotatedDimension
1001
ACAD
1000
DSTYLE
1002
{
1070
    40
1040
1.0
1002
}
  0
DIMENSION
  5
6E800
102
{ACAD_XDICTIONARY
360
6E80D
102
}
102
{ACAD_REACTORS
330
6E817
102
}
330
37
100
AcDbEntity
  8
0
100
AcDbDimension
  2
*D6898
 10
464.5988405366327
 20
283.8575983861281
 30
0.0
 11
437.0988405366326
 21
286.2325983861281
 31
0.0
 70
    32
 71
     5
 42
55.0
  3
ISO-25_WS
100
AcDbAlignedDimension
 13
409.5988405366326
 23
273.2763066778316
 33
0.0
 14
464.5988405366327
 24
273.2763066778316
 34
0.0
100
AcDbRotatedDimension
1001
ACAD
1000
DSTYLE
1002
{
1070
    40
1040
1.0
1002
}
  0
DIMENSION
  5
6E818
102
{ACAD_XDICTIONARY
360
6E825
102
}
102
{ACAD_REACTORS
330
6E82F
102
}
330
37
100
AcDbEntity
  8
0
100
AcDbDimension
  2
*D6899
 10
472.0988405366326
 20
293.5798914209929
 30
0.0
 11
437.0988405366326
 21
295.9548914209929
 31
0.0
 70
    32
 71
     5
 42
70.0
  3
ISO-25_WS
100
AcDbAlignedDimension
 13
402.0988405366327
 23
267.7763066778315
 33
0.0
 14
472.0988405366326
 24
267.7763066778315
 34
0.0
100
AcDbRotatedDimension
1001
ACAD
1000
DSTYLE
1002
{
1070
    40
1040
1.0
1002
}
  0
DIMENSION
  5
6E830
102
{ACAD_XDICTIONARY
360
6E83D
102
}
102
{ACAD_REACTORS
330
6E847
102
}
330
37
100
AcDbEntity
  8
0
100
AcDbDimension
  2
*D6900
 10
481.7012338306124
 20
226.2763066778315
 30
0.0
 11
479.3262338306123
 21
247.2763066778316
 31
0.0
 70
    32
 71
     5
 42
42.0
  3
ISO-25_WS
100
AcDbAlignedDimension
 13
469.5988405366327
 23
268.2763066778315
 33
0.0
 14
469.5988405366327
 24
226.2763066778315
 34
0.0
 50
90.0
100
AcDbRotatedDimension
1001
ACAD
1000
DSTYLE
1002
{
1070
    40
1040
1.0
1002
}
  0
DIMENSION
  5
6E848
102
{ACAD_XDICTIONARY
360
6E855
102
}
102
{ACAD_REACTORS
330
6E85F
102
}
330
37
100
AcDbEntity
  8
0
100
AcDbDimension
  2
*D6901
 10
493.5571798694538
 20
218.2763066778315
 30
0.0
 11
491.1821798694538
 21
247.2763066778316
 31
0.0
 70
    32
 71
     5
 42
58.0
  3
ISO-25_WS
100
AcDbAlignedDimension
 13
463.5988405366326
 23
276.2763066778315
 33
0.0
 14
463.5988405366326
 24
218.2763066778315
 34
0.0
 50
90.0
100
AcDbRotatedDimension
1001
ACAD
1000
DSTYLE
1002
{
1070
    40
1040
1.0
1002
}
  0
DIMENSION
  5
6E860
102
{ACAD_XDICTIONARY
360
6E86D
102
}
102
{ACAD_REACTORS
330
6E877
102
}
330
37
100
AcDbEntity
  8
0
100
AcDbDimension
  2
*D6902
 10
484.6842486736238
 20
89.27630667783157
 30
0.0
 11
482.3092486736238
 21
135.7763066778315
 31
0.0
 70
    32
 71
     5
 42
92.99999999999974
  3
ISO-25_WS
100
AcDbAlignedDimension
 13
472.0988405366326
 23
182.2763066778313
 33
0.0
 14
409.0988405366326
 24
89.2763066778316
 34
0.0
 50
90.0
100
AcDbRotatedDimension
1001
ACAD
1000
DSTYLE
1002
{
1070
    40
1040
1.0
1002
}
  0
DIMENSION
  5
6E878
102
{ACAD_XDICTIONARY
360
6E884
102
}
102
{ACAD_REACTORS
330
6E88D
102
}
330
37
100
AcDbEntity
  8
0
100
AcDbDimension
  2
*D6903
 10
441.1761221215866
 20
107.3521463067998
 30
0.0
 11
364.9197124147804
 21
153.5286506200233
 31
0.0
 70
   163
 71
     5
 42
74.9999999999998
  3
ISO-25_WS
100
AcDbDiametricDimension
 15
377.0215589516787
 25
146.2004670488635
 35
0.0
 40
0.0
1001
ACAD
1000
DSTYLE
1002
{
1070
    40
1040
1.0
1002
}
1001
ACAD_DSTYLE_DIMRADIAL_EXTENSION
1070
   387
1070
     1
1070
   388
1040
1.683028694600107
1070
   390
1040
0.6264192459727553
  0
LWPOLYLINE
  5
6E88E
330
37
100
AcDbEntity
  8
0
100
AcDbPolyline
 90
        6
 70
     1
 43
0.0
 10
415.3488405366326
 20
130.3847458602667
 10
409.0988405366326
 20
133.9931850427021
 10
402.8488405366326
 20
130.3847458602672
 10
402.8488405366326
 20
123.1678674953968
 10
409.0988405366326
 20
119.5594283129615
 10
415.3488405366326
 20
123.1678674953963
  0
DIMENSION
  5
6E88F
102
{ACAD_XDICTIONARY
360
6E89C
102
}
102
{ACAD_REACTORS
330
6E8A6
102
}
330
37
100
AcDbEntity
  8
2
  6
CENTER2
 62
     1
100
AcDbDimension
  2
*D6904
 10
678.3293239227325
 20
341.7869511265562
 30
0.0
 11
644.3293239227337
 21
344.1619511265562
 31
0.0
 70
    32
 71
     5
 42
67.99999999999773
  3
ISO-25_WS
100
AcDbAlignedDimension
 13
610.3293239227348
 23
323.4028693137462
 33
0.0
 14
678.3293239227325
 24
323.4028693137462
 34
0.0
100
AcDbRotatedDimension
1001
ACAD
1000
DSTYLE
1002
{
1070
    40
1040
1.0
1002
}
  0
DIMENSION
  5
6E8A7
102
{ACAD_XDICTIONARY
360
6E8B4
102
}
102
{ACAD_REACTORS
330
6E8BE
102
}
330
37
100
AcDbEntity
  8
0
100
AcDbDimension
  2
*D6905
 10
679.8293239227326
 20
349.4186270016481
 30
0.0
 11
644.3293239227337
 21
351.7936270016481
 31
0.0
 70
    32
 71
     5
 42
70.99999999999773
  3
ISO-25_WS
100
AcDbAlignedDimension
 13
608.8293239227348
 23
324.9028693137463
 33
0.0
 14
679.8293239227326
 24
324.9028693137463
 34
0.0
100
AcDbRotatedDimension
1001
ACAD
1000
DSTYLE
1002
{
1070
    40
1040
1.0
1002
}
  0
DIMENSION
  5
6E8BF
102
{ACAD_XDICTIONARY
360
6E8CC
102
}
102
{ACAD_REACTORS
330
6E8D6
102
}
330
37
100
AcDbEntity
  8
0
100
AcDbDimension
  2
*D6906
 10
689.3293089227348
 20
357.3238227574661
 30
0.0
 11
644.3293239227354
 21
359.6988227574661
 31
0.0
 70
    32
 71
     5
 42
89.99996999999893
  3
ISO-25_WS
100
AcDbAlignedDimension
 13
599.3293389227359
 23
321.4028755969319
 33
0.0
 14
689.3293089227348
 24
321.402869313746
 34
0.0
100
AcDbRotatedDimension
1001
ACAD
1000
DSTYLE
1002
{
1070
    40
1040
1.0
1002
}
  0
DIMENSION
  5
6E8D7
102
{ACAD_XDICTIONARY
360
6E8E4
102
}
102
{ACAD_REACTORS
330
6E8EE
102
}
330
37
100
AcDbEntity
  8
2
  6
CENTER2
 62
     1
100
AcDbDimension
  2
*D6907
 10
704.1856535069626
 20
252.4028693137463
 30
0.0
 11
701.8106535069626
 21
286.4028693137464
 31
0.0
 70
    32
 71
     5
 42
67.99999999999997
  3
ISO-25_WS
100
AcDbAlignedDimension
 13
681.3293239227325
 23
320.4028693137463
 33
0.0
 14
681.3293239227325
 24
252.4028693137463
 34
0.0
 50
90.0
100
AcDbRotatedDimension
1001
ACAD
1000
DSTYLE
1002
{
1070
    40
1040
1.0
1002
}
  0
DIMENSION
  5
6E8EF
102
{ACAD_XDICTIONARY
360
6E8FC
102
}
102
{ACAD_REACTORS
330
6E906
102
}
330
37
100
AcDbEntity
  8
0
100
AcDbDimension
  2
*D6908
 10
714.1948864551229
 20
250.9028693137461
 30
0.0
 11
711.819886455123
 21
286.4028693137463
 31
0.0
 70
    32
 71
     5
 42
71.00000000000008
  3
ISO-25_WS
100
AcDbAlignedDimension
 13
682.8293239227325
 23
321.9028693137462
 33
0.0
 14
682.8293239227325
 24
250.9028693137462
 34
0.0
 50
90.0
100
AcDbRotatedDimension
1001
ACAD
1000
DSTYLE
1002
{
1070
    40
1040
1.0
1002
}
  0
DIMENSION
  5
6E907
102
{ACAD_XDICTIONARY
360
6E914
102
}
102
{ACAD_REACTORS
330
6E91E
102
}
330
37
100
AcDbEntity
  8
0
100
AcDbDimension
  2
*D6909
 10
724.7762341420136
 20
241.4028693137468
 30
0.0
 11
722.4012341420136
 21
286.4028693137466
 31
0.0
 70
    32
 71
     5
 42
89.99999999999941
  3
ISO-25_WS
100
AcDbAlignedDimension
 13
679.3293089227347
 23
331.4028693137462
 33
0.0
 14
679.3293120643236
 24
241.4028693137469
 34
0.0
 50
90.0
100
AcDbRotatedDimension
1001
ACAD
1000
DSTYLE
1002
{
1070
    40
1040
1.0
1002
}
  0
LWPOLYLINE
  5
6E91F
330
37
100
AcDbEntity
  8
0
100
AcDbPolyline
 90
        6
 70
     1
 43
0.0
 10
618.3293239227348
 20
132.247904798322
 10
609.3293239227348
 20
137.4440572210286
 10
600.3293239227348
 20
132.247904798322
 10
600.3293239227348
 20
121.8555999529087
 10
609.3293239227348
 20
116.6594475302022
 10
618.3293239227348
 20
121.8555999529087
  0
DIMENSION
  5
6E920
102
{ACAD_XDICTIONARY
360
6E92D
102
}
102
{ACAD_REACTORS
330
6E937
102
}
330
37
100
AcDbEntity
  8
0
100
AcDbDimension
  2
*D6910
 10
704.0912379969138
 20
77.05175637561523
 30
0.0
 11
701.7162379969138
 21
143.0517583756152
 31
0.0
 70
    32
 71
     5
 42
132.0000039999998
  3
ISO-25_WS
100
AcDbAlignedDimension
 13
689.3293239227339
 23
209.0517603756151
 33
0.0
 14
609.3293239227348
 24
77.05175637561524
 34
0.0
 50
90.0
100
AcDbRotatedDimension
1001
ACAD
1000
DSTYLE
1002
{
1070
    40
1040
1.0
1002
}
  0
DIMENSION
  5
6E938
102
{ACAD_XDICTIONARY
360
6E944
102
}
102
{ACAD_REACTORS
330
6E94D
102
}
330
37
100
AcDbEntity
  8
0
100
AcDbDimension
  2
*D6911
 10
655.0339540334837
 20
106.7764869904286
 30
0.0
 11
553.3672814050016
 21
154.4755659150091
 31
0.0
 70
    35
 71
     5
 42
99.99999200000116
  3
ISO-25_WS
100
AcDbDiametricDimension
 15
563.6246938119868
 25
147.3270177608014
 35
0.0
 40
0.0
1001
ACAD
1000
DSTYLE
1002
{
1070
    40
1040
1.0
1002
}
1001
ACAD_DSTYLE_DIMRADIAL_EXTENSION
1070
   387
1070
     1
1070
   388
1040
1.72541614478637
1070
   390
1040
0.7139318872633061
  0
LWPOLYLINE
  5
6E94E
330
37
100
AcDbEntity
  8
0
100
AcDbPolyline
 90
        6
 70
     1
 43
0.0
 10
844.7081902880965
 20
133.6216404522257
 10
834.2082035671516
 20
139.6838412787166
 10
823.7081902880957
 20
133.6216864522255
 10
823.708163729985
 20
121.4973307992433
 10
834.2081504509277
 20
115.4351299727522
 10
844.708163729985
 20
121.4972847992434
  0
DIMENSION
  5
6E94F
102
{ACAD_XDICTIONARY
360
6E95C
102
}
102
{ACAD_REACTORS
330
6E966
102
}
330
37
100
AcDbEntity
  8
2
  6
CENTER2
 62
     1
100
AcDbDimension
  2
*D6912
 10
909.7081770090396
 20
406.3753546081295
 30
0.0
 11
872.2081770090401
 21
408.7503546081295
 31
0.0
 70
    32
 71
     5
 42
74.99999999999909
  3
ISO-25_WS
100
AcDbAlignedDimension
 13
834.7081770090406
 23
382.0728690616373
 33
0.0
 14
909.7081770090396
 24
382.0728690616373
 34
0.0
100
AcDbRotatedDimension
1001
ACAD
1000
DSTYLE
1002
{
1070
    40
1040
1.0
1002
}
  0
DIMENSION
  5
6E967
102
{ACAD_XDICTIONARY
360
6E974
102
}
102
{ACAD_REACTORS
330
6E97E
102
}
330
37
100
AcDbEntity
  8
0
100
AcDbDimension
  2
*D6913
 10
912.2081770090405
 20
416.6850729982711
 30
0.0
 11
872.2081770090406
 21
419.0600729982711
 31
0.0
 70
    32
 71
     5
 42
80.0
  3
ISO-25_WS
100
AcDbAlignedDimension
 13
832.2081770090406
 23
384.5728690616373
 33
0.0
 14
912.2081770090405
 24
384.5728690616373
 34
0.0
100
AcDbRotatedDimension
1001
ACAD
1000
DSTYLE
1002
{
1070
    40
1040
1.0
1002
}
  0
DIMENSION
  5
6E97F
102
{ACAD_XDICTIONARY
360
6E98C
102
}
102
{ACAD_REACTORS
330
6E996
102
}
330
37
100
AcDbEntity
  8
2
 62
     1
100
AcDbDimension
  2
*D6914
 10
943.0806498094268
 20
304.0728690616373
 30
0.0
 11
940.7056498094267
 21
341.5728690616375
 31
0.0
 70
    32
 71
     5
 42
75.0
  3
ISO-25_WS
100
AcDbAlignedDimension
 13
912.7081770090397
 23
379.0728690616373
 33
0.0
 14
912.7081770090397
 24
304.0728690616373
 34
0.0
 50
90.0
100
AcDbRotatedDimension
1001
ACAD
1000
DSTYLE
1002
{
1070
    40
1040
1.0
1002
}
  0
DIMENSION
  5
6E997
102
{ACAD_XDICTIONARY
360
6E9A4
102
}
102
{ACAD_REACTORS
330
6E9AE
102
}
330
37
100
AcDbEntity
  8
0
100
AcDbDimension
  2
*D6915
 10
955.183480766477
 20
301.5728690616376
 30
0.0
 11
952.8084807664768
 21
341.5728690616376
 31
0.0
 70
    32
 71
     5
 42
79.99999999999977
  3
ISO-25_WS
100
AcDbAlignedDimension
 13
915.2081770090397
 23
381.5728690616373
 33
0.0
 14
915.2081770090397
 24
301.5728690616376
 34
0.0
 50
90.0
100
AcDbRotatedDimension
1001
ACAD
1000
DSTYLE
1002
{
1070
    40
1040
1.0
1002
}
  0
DIMENSION
  5
6E9AF
102
{ACAD_XDICTIONARY
360
6E9BC
102
}
102
{ACAD_REACTORS
330
6E9C6
102
}
330
37
100
AcDbEntity
  8
0
100
AcDbDimension
  2
*D6916
 10
923.2081620090395
 20
427.3799071099279
 30
0.0
 11
872.2081790090411
 21
429.7549071099279
 31
0.0
 70
    32
 71
     5
 42
101.9999659999967
  3
ISO-25_WS
100
AcDbAlignedDimension
 13
821.2081960090428
 23
381.5728759731415
 33
0.0
 14
923.2081620090395
 24
381.5728690616372
 34
0.0
100
AcDbRotatedDimension
1001
ACAD
1000
DSTYLE
1002
{
1070
    40
1040
1.0
1002
}
  0
DIMENSION
  5
6E9C7
102
{ACAD_XDICTIONARY
360
6E9D4
102
}
102
{ACAD_REACTORS
330
6E9DE
102
}
330
37
100
AcDbEntity
  8
0
100
AcDbDimension
  2
*D6917
 10
966.4682444156117
 20
290.5728690616381
 30
0.0
 11
964.0932444156115
 21
341.5728690616379
 31
0.0
 70
    32
 71
     5
 42
101.9999999999992
  3
ISO-25_WS
100
AcDbAlignedDimension
 13
912.2081620090396
 23
392.5728690616373
 33
0.0
 14
912.2081654647898
 24
290.5728690616381
 34
0.0
 50
90.0
100
AcDbRotatedDimension
1001
ACAD
1000
DSTYLE
1002
{
1070
    40
1040
1.0
1002
}
  0
DIMENSION
  5
6E9DF
102
{ACAD_XDICTIONARY
360
6E9EC
102
}
102
{ACAD_REACTORS
330
6E9F6
102
}
330
37
100
AcDbEntity
  8
0
100
AcDbDimension
  2
*D6918
 10
938.1768001283196
 20
65.05946262573454
 30
0.0
 11
935.8018001283197
 21
149.0594626257347
 31
0.0
 70
    32
 71
     5
 42
168.0
  3
ISO-25_WS
100
AcDbAlignedDimension
 13
923.2081770090406
 23
233.0594626257346
 33
0.0
 14
834.2081770090397
 24
65.05946262573456
 34
0.0
 50
90.0
100
AcDbRotatedDimension
1001
ACAD
1000
DSTYLE
1002
{
1070
    40
1040
1.0
1002
}
  0
DIMENSION
  5
6E9F7
102
{ACAD_XDICTIONARY
360
6EA03
102
}
102
{ACAD_REACTORS
330
6EA0C
102
}
330
37
100
AcDbEntity
  8
0
100
AcDbDimension
  2
*D6919
 10
891.0359023634541
 20
101.5429365116824
 30
0.0
 11
767.2081143873517
 21
160.8450880320547
 31
0.0
 70
    35
 71
     5
 42
124.9999999999992
  3
ISO-25_WS
100
AcDbDiametricDimension
 15
777.3804516546247
 25
153.5759887397871
 35
0.0
 40
0.0
1001
ACAD
1000
DSTYLE
1002
{
1070
    40
1040
1.0
1002
}
1001
ACAD_DSTYLE_DIMRADIAL_EXTENSION
1070
   387
1070
     1
1070
   388
1040
1.747781631579444
1070
   390
1040
0.802320247506411
  0
DIMENSION
  5
6EA0D
102
{ACAD_XDICTIONARY
360
6EA1A
102
}
102
{ACAD_REACTORS
330
6EA24
102
}
330
37
100
AcDbEntity
  8
2
  6
ByBlock
 62
     4
100
AcDbDimension
  2
*D6920
 10
1163.706483606992
 20
399.2326931012309
 30
0.0
 11
1126.206483606992
 21
401.6076931012309
 31
0.0
 70
    32
 71
     5
 42
75.00000000000091
  3
ISO-25_WS
100
AcDbAlignedDimension
 13
1088.706483606991
 23
374.8608445737346
 33
0.0
 14
1163.706483606992
 24
374.8608445737346
 34
0.0
100
AcDbRotatedDimension
1001
ACAD
1000
DSTYLE
1002
{
1070
    40
1040
1.0
1002
}
  0
DIMENSION
  5
6EA25
102
{ACAD_XDICTIONARY
360
6EA32
102
}
102
{ACAD_REACTORS
330
6EA3C
102
}
330
37
100
AcDbEntity
  8
0
100
AcDbDimension
  2
*D6921
 10
1166.206483606992
 20
408.8674689857469
 30
0.0
 11
1126.206483606992
 21
411.2424689857469
 31
0.0
 70
    32
 71
     5
 42
80.00000000000046
  3
ISO-25_WS
100
AcDbAlignedDimension
 13
1086.206483606991
 23
377.3608445737346
 33
0.0
 14
1166.206483606992
 24
377.3608445737346
 34
0.0
100
AcDbRotatedDimension
1001
ACAD
1000
DSTYLE
1002
{
1070
    40
1040
1.0
1002
}
  0
DIMENSION
  5
6EA3D
102
{ACAD_XDICTIONARY
360
6EA4A
102
}
102
{ACAD_REACTORS
330
6EA54
102
}
330
37
100
AcDbEntity
  8
0
100
AcDbDimension
  2
*D6922
 10
1177.206468606992
 20
418.9839829398092
 30
0.0
 11
1126.206485606993
 21
421.3589829398092
 31
0.0
 70
    32
 71
     5
 42
101.999965999998
  3
ISO-25_WS
100
AcDbAlignedDimension
 13
1075.206502606994
 23
374.3608514852387
 33
0.0
 14
1177.206468606992
 24
374.3608445737344
 34
0.0
100
AcDbRotatedDimension
1001
ACAD
1000
DSTYLE
1002
{
1070
    40
1040
1.0
1002
}
  0
DIMENSION
  5
6EA55
102
{ACAD_XDICTIONARY
360
6EA62
102
}
102
{ACAD_REACTORS
330
6EA6C
102
}
330
37
100
AcDbEntity
  8
0
100
AcDbDimension
  2
*D6923
 10
1195.430108563864
 20
296.8608445737347
 30
0.0
 11
1193.055108563864
 21
334.3608445737349
 31
0.0
 70
    32
 71
     5
 42
75.00000000000011
  3
ISO-25_WS
100
AcDbAlignedDimension
 13
1166.706483606992
 23
371.8608445737348
 33
0.0
 14
1166.706483606992
 24
296.8608445737347
 34
0.0
 50
90.0
100
AcDbRotatedDimension
1001
ACAD
1000
DSTYLE
1002
{
1070
    40
1040
1.0
1002
}
  0
DIMENSION
  5
6EA6D
102
{ACAD_XDICTIONARY
360
6EA7A
102
}
102
{ACAD_REACTORS
330
6EA84
102
}
330
37
100
AcDbEntity
  8
0
100
AcDbDimension
  2
*D6924
 10
1205.552514339716
 20
294.3608445737345
 30
0.0
 11
1203.177514339716
 21
334.3608445737348
 31
0.0
 70
    32
 71
     5
 42
80.0
  3
ISO-25_WS
100
AcDbAlignedDimension
 13
1169.206483606992
 23
374.3608445737345
 33
0.0
 14
1169.206483606992
 24
294.3608445737345
 34
0.0
 50
90.0
100
AcDbRotatedDimension
1001
ACAD
1000
DSTYLE
1002
{
1070
    40
1040
1.0
1002
}
  0
DIMENSION
  5
6EA85
102
{ACAD_XDICTIONARY
360
6EA92
102
}
102
{ACAD_REACTORS
330
6EA9C
102
}
330
37
100
AcDbEntity
  8
0
100
AcDbDimension
  2
*D6925
 10
1215.564502958511
 20
283.3608445737343
 30
0.0
 11
1213.189502958511
 21
334.3608445737335
 31
0.0
 70
    32
 71
     5
 42
101.9999999999979
  3
ISO-25_WS
100
AcDbAlignedDimension
 13
1166.206461503503
 23
385.3608445737322
 33
0.0
 14
1166.206468606991
 24
283.3608445737343
 34
0.0
 50
90.0
100
AcDbRotatedDimension
1001
ACAD
1000
DSTYLE
1002
{
1070
    40
1040
1.0
1002
}
  0
DIMENSION
  5
6EAA5
102
{ACAD_XDICTIONARY
360
6EAB2
102
}
102
{ACAD_REACTORS
330
6EABC
102
}
330
37
100
AcDbEntity
  8
0
100
AcDbDimension
  2
*D6926
 10
1194.55645891028
 20
52.55947062573446
 30
0.0
 11
1192.18145891028
 21
147.5594701257347
 31
0.0
 70
    32
 71
     5
 42
189.999999
  3
ISO-25_WS
100
AcDbAlignedDimension
 13
1177.206483606992
 23
242.5594696257345
 33
0.0
 14
1085.206483606991
 24
52.55947062573449
 34
0.0
 50
90.0
100
AcDbRotatedDimension
1001
ACAD
1000
DSTYLE
1002
{
1070
    40
1040
1.0
1002
}
  0
DIMENSION
  5
6EABD
102
{ACAD_XDICTIONARY
360
6EAC9
102
}
102
{ACAD_REACTORS
330
6EAD2
102
}
330
37
100
AcDbEntity
  8
0
100
AcDbDimension
  2
*D6927
 10
1154.0151138536
 20
97.72037410772833
 30
0.0
 11
1000.962111672914
 21
164.0923112273627
 31
0.0
 70
   163
 71
     5
 42
149.9999839999989
  3
ISO-25_WS
100
AcDbDiametricDimension
 15
1016.397853360382
 25
157.3985511437412
 35
0.0
 40
0.0
1001
ACAD
1000
DSTYLE
1002
{
1070
    40
1040
1.0
1002
}
1001
ACAD_DSTYLE_DIMRADIAL_EXTENSION
1070
   387
1070
     1
1070
   388
1040
1.678286024157267
1070
   390
1040
0.8613232321716701
  0
LINE
  5
6EC38
330
37
100
AcDbEntity
  8
0
 62
     4
100
AcDbLine
 10
265.0419392104509
 20
200.422239959274
 30
0.0
 11
251.1619392104508
 21
200.4222399592741
 31
0.0
  0
LINE
  5
6EC39
330
37
100
AcDbEntity
  8
0
 62
     4
100
AcDbLine
 10
251.1619392104508
 20
200.4222399592741
 30
0.0
 11
240.2455008054408
 21
216.2751486259582
 31
0.0
  0
MTEXT
  5
6EC3B
102
{ACAD_XDICTIONARY
360
70F80
102
}
330
37
100
AcDbEntity
  8
0
 62
     2
100
AcDbMText
 10
258.5019392104509
 20
202.7972399592743
 30
0.0
 40
3.149999999999999
 41
0.0
 71
     5
 72
     1
  1
\A1;4-\U+22058.8
 73
     1
 44
1.0
1001
ACAD
1000
MTEXTBEGIN
1070
    73
1070
     1
1070
    44
1040
1.0
1070
    74
1070
     0
1000
MTEXTEND
  0
SOLID
  5
6EC3E
330
37
100
AcDbEntity
  8
0
 62
     4
100
AcDbTrace
 10
240.6778990467908
 20
216.5729014779654
 30
0.0
 11
239.8131025640917
 21
215.9773957739505
 31
0.0
 12
238.4589836933967
 22
218.8695380740505
 32
0.0
 13
238.4589836933967
 23
218.8695380740505
 33
0.0
  0
LINE
  5
6EC60
330
37
100
AcDbEntity
  8
0
 62
     4
100
AcDbLine
 10
440.226386842214
 20
202.5786115740631
 30
0.0
 11
426.3463868422138
 21
202.5786115740631
 31
0.0
  0
LINE
  5
6EC61
330
37
100
AcDbEntity
  8
0
 62
     4
100
AcDbLine
 10
426.3463868422138
 20
202.5786115740631
 30
0.0
 11
413.9562296752526
 21
220.1106226205162
 31
0.0
  0
MTEXT
  5
6EC63
102
{ACAD_XDICTIONARY
360
70F84
102
}
330
37
100
AcDbEntity
  8
0
 62
     2
100
AcDbMText
 10
433.6863868422149
 20
204.9536115740631
 30
0.0
 40
3.149999999999999
 41
0.0
 71
     5
 72
     1
  1
\A1;4-\U+22058.8
 73
     1
 44
1.0
1001
ACAD
1000
MTEXTBEGIN
1070
    73
1070
     1
1070
    44
1040
1.0
1070
    74
1070
     0
1000
MTEXTEND
  0
SOLID
  5
6EC66
330
37
100
AcDbEntity
  8
0
 62
     4
100
AcDbTrace
 10
414.3849692951314
 20
220.4136198784996
 30
0.0
 11
413.5274900553729
 21
219.8076253625325
 31
0.0
 12
412.1382461273517
 22
222.6830603397935
 32
0.0
 13
412.1382461273517
 23
222.6830603397935
 33
0.0
  0
LINE
  5
6EC88
330
37
100
AcDbEntity
  8
0
 62
     4
100
AcDbLine
 10
639.9071814133288
 20
225.9787131809026
 30
0.0
 11
627.9471814133287
 21
225.9787131809026
 31
0.0
  0
LINE
  5
6EC89
330
37
100
AcDbEntity
  8
0
 62
     4
100
AcDbLine
 10
627.9471814133287
 20
225.9787131809026
 30
0.0
 11
614.0938761124605
 21
244.0394160836554
 31
0.0
  0
MTEXT
  5
6EC8B
102
{ACAD_XDICTIONARY
360
70F88
102
}
330
37
100
AcDbEntity
  8
0
 62
     2
100
AcDbMText
 10
634.3271814133288
 20
228.3537131809028
 30
0.0
 40
3.149999999999999
 41
0.0
 71
     5
 72
     1
  1
\A1;4-\U+220511
 73
     1
 44
1.0
1001
ACAD
1000
MTEXTBEGIN
1070
    73
1070
     1
1070
    44
1040
1.0
1070
    74
1070
     0
1000
MTEXTEND
  0
SOLID
  5
6EC8E
330
37
100
AcDbEntity
  8
0
 62
     4
100
AcDbTrace
 10
614.5104440830725
 20
244.3589409275408
 30
0.0
 11
613.6773081418475
 21
243.7198912397703
 31
0.0
 12
612.1767270491488
 22
246.5388239073302
 32
0.0
 13
612.1767270491488
 23
246.5388239073302
 33
0.0
  0
LINE
  5
6ECB0
330
37
100
AcDbEntity
  8
0
 62
     4
100
AcDbLine
 10
866.4351526981446
 20
266.3915043393347
 30
0.0
 11
854.475152698146
 21
266.3915043393347
 31
0.0
  0
LINE
  5
6ECB1
330
37
100
AcDbEntity
  8
0
 62
     4
100
AcDbLine
 10
854.475152698146
 20
266.3915043393347
 30
0.0
 11
836.8342190831537
 21
294.2638175001471
 31
0.0
  0
MTEXT
  5
6ECB3
102
{ACAD_XDICTIONARY
360
70F8C
102
}
330
37
100
AcDbEntity
  8
0
 62
     2
100
AcDbMText
 10
860.8551526981466
 20
268.7665043393344
 30
0.0
 40
3.149999999999999
 41
0.0
 71
     5
 72
     1
  1
\A1;4-\U+220511
 73
     1
 44
1.0
1001
ACAD
1000
MTEXTBEGIN
1070
    73
1070
     1
1070
    44
1040
1.0
1070
    74
1070
     0
1000
MTEXTEND
  0
SOLID
  5
6ECB6
330
37
100
AcDbEntity
  8
0
 62
     4
100
AcDbTrace
 10
837.2778320391978
 20
294.5445888399054
 30
0.0
 11
836.3906061271098
 21
293.9830461603886
 31
0.0
 12
835.1495910446034
 22
296.9254952364123
 32
0.0
 13
835.1495910446034
 23
296.9254952364123
 33
0.0
  0
LINE
  5
6ECE1
330
37
100
AcDbEntity
  8
0
 62
     4
100
AcDbLine
 10
1111.890317975918
 20
265.0494238377038
 30
0.0
 11
1099.930317975918
 21
265.0494238377038
 31
0.0
  0
LINE
  5
6ECE2
330
37
100
AcDbEntity
  8
0
 62
     4
100
AcDbLine
 10
1099.930317975918
 20
265.0494238377038
 30
0.0
 11
1089.874353606395
 21
286.5269930518154
 31
0.0
  0
MTEXT
  5
6ECE4
102
{ACAD_XDICTIONARY
360
70F90
102
}
330
37
100
AcDbEntity
  8
0
 62
     2
100
AcDbMText
 10
1106.310317975918
 20
267.4244238377038
 30
0.0
 40
3.149999999999999
 41
0.0
 71
     5
 72
     1
  1
\A1;4-\U+220511
 73
     1
 44
1.0
1001
ACAD
1000
MTEXTBEGIN
1070
    73
1070
     1
1070
    44
1040
1.0
1070
    74
1070
     0
1000
MTEXTEND
  0
SOLID
  5
6ECE7
330
37
100
AcDbEntity
  8
0
 62
     4
100
AcDbTrace
 10
1090.34981858316
 20
286.7496094390626
 30
0.0
 11
1089.398888629633
 21
286.3043766645685
 31
0.0
 12
1088.538655282913
 22
289.3797829123988
 32
0.0
 13
1088.538655282913
 23
289.3797829123988
 33
0.0
  0
LINE
  5
6F69C
330
37
100
AcDbEntity
  8
2
  6
CENTER2
 62
     1
100
AcDbLine
 10
103.2438899492856
 20
275.9934471444014
 30
0.0
 11
103.2438899492856
 21
210.9934471444014
 31
0.0
  0
LINE
  5
6F69D
330
37
100
AcDbEntity
  8
2
  6
CENTER2
 62
     1
100
AcDbLine
 10
68.65091794928571
 20
243.4934471444013
 30
0.0
 11
137.7800199492856
 21
243.4934471444013
 31
0.0
  0
LINE
  5
6F69E
102
{ACAD_REACTORS
330
6F6F4
102
}
330
37
100
AcDbEntity
  8
1
  6
Continuous
 62
     7
100
AcDbLine
 10
76.74388994928654
 20
272.4934471444013
 30
0.0
 11
129.7438899492856
 21
272.4934471444013
 31
0.0
  0
LINE
  5
6F69F
102
{ACAD_REACTORS
330
6F6F4
102
}
330
37
100
AcDbEntity
  8
1
  6
Continuous
 62
     7
100
AcDbLine
 10
76.74388994928654
 20
214.4934471444015
 30
0.0
 11
129.7438899492856
 21
214.4934471444015
 31
0.0
  0
LINE
  5
6F6A0
102
{ACAD_REACTORS
330
6F6EB
102
}
330
37
100
AcDbEntity
  8
2
  6
CENTER2
 62
     1
100
AcDbLine
 10
75.74388994928563
 20
269.4934471444014
 30
0.0
 11
75.74388994928563
 21
259.4934471444014
 31
0.0
  0
LINE
  5
6F6A1
330
37
100
AcDbEntity
  8
2
  6
CENTER2
 62
     1
100
AcDbLine
 10
70.74388994928563
 20
264.4934471444013
 30
0.0
 11
80.74388994928563
 21
264.4934471444013
 31
0.0
  0
LINE
  5
6F6A2
330
37
100
AcDbEntity
  8
2
  6
CENTER2
 62
     1
100
AcDbLine
 10
75.74388994928563
 20
227.4934471444013
 30
0.0
 11
75.74388994928563
 21
217.4934471444014
 31
0.0
  0
LINE
  5
6F6A3
330
37
100
AcDbEntity
  8
2
  6
CENTER2
 62
     1
100
AcDbLine
 10
70.74388994928563
 20
222.4934471444013
 30
0.0
 11
80.74388994928563
 21
222.4934471444013
 31
0.0
  0
LINE
  5
6F6A4
330
37
100
AcDbEntity
  8
2
  6
CENTER2
 62
     1
100
AcDbLine
 10
130.7438899492856
 20
227.4934471444013
 30
0.0
 11
130.7438899492856
 21
217.4934471444014
 31
0.0
  0
LINE
  5
6F6A5
102
{ACAD_REACTORS
330
6F6F1
102
}
330
37
100
AcDbEntity
  8
2
  6
CENTER2
 62
     1
100
AcDbLine
 10
125.7438899492856
 20
222.4934471444013
 30
0.0
 11
135.7438899492856
 21
222.4934471444013
 31
0.0
  0
LINE
  5
6F6A6
102
{ACAD_REACTORS
330
6F6EB
102
}
330
37
100
AcDbEntity
  8
2
  6
CENTER2
 62
     1
100
AcDbLine
 10
130.7438899492856
 20
269.4934471444014
 30
0.0
 11
130.7438899492856
 21
259.4934471444014
 31
0.0
  0
LINE
  5
6F6A7
330
37
100
AcDbEntity
  8
2
  6
CENTER2
 62
     1
100
AcDbLine
 10
125.7438899492856
 20
264.4934471444013
 30
0.0
 11
135.7438899492856
 21
264.4934471444013
 31
0.0
  0
LINE
  5
6F6A8
330
37
100
AcDbEntity
  8
2
  6
CENTER2
 62
     1
100
AcDbLine
 10
103.2438899492856
 20
128.1536601444015
 30
0.0
 11
103.2438899492856
 21
175.3334311444013
 31
0.0
  0
LINE
  5
6F6A9
330
37
100
AcDbEntity
  8
1
  6
Continuous
 62
     7
100
AcDbLine
 10
68.24388994928563
 20
169.1934481444014
 30
0.0
 11
68.24388994928563
 21
171.4934471444014
 31
0.0
  0
LINE
  5
6F6AA
330
37
100
AcDbEntity
  8
2
  6
CENTER2
 62
     1
100
AcDbLine
 10
75.74388994928563
 20
166.6264081444014
 30
0.0
 11
75.74388994928563
 21
173.5768521444014
 31
0.0
  0
LINE
  5
6F6AB
330
37
100
AcDbEntity
  8
1
  6
Continuous
 62
     7
100
AcDbLine
 10
75.99388994928563
 20
169.1934451444014
 30
0.0
 11
77.72403494928562
 21
166.5154621444015
 31
0.0
  0
LINE
  5
6F6AC
330
37
100
AcDbEntity
  8
1
  6
Continuous
 62
     7
100
AcDbLine
 10
126.2438899492856
 20
165.1434491444014
 30
0.0
 11
80.24388994928562
 21
165.1434491444014
 31
0.0
  0
LINE
  5
6F6AD
330
37
100
AcDbEntity
  8
1
  6
Continuous
 62
     7
100
AcDbLine
 10
130.4938899492856
 20
169.1934431444014
 30
0.0
 11
128.7637399492857
 21
166.5154631444015
 31
0.0
  0
LINE
  5
6F6AE
330
37
100
AcDbEntity
  8
2
  6
CENTER2
 62
     1
100
AcDbLine
 10
130.7438899492856
 20
166.6264081444014
 30
0.0
 11
130.7438899492856
 21
173.5768521444014
 31
0.0
  0
LINE
  5
6F6AF
330
37
100
AcDbEntity
  8
1
  6
Continuous
 62
     7
100
AcDbLine
 10
138.2438899492856
 20
169.1934481444014
 30
0.0
 11
68.24388994928563
 21
169.1934481444014
 31
0.0
  0
LINE
  5
6F6B0
330
37
100
AcDbEntity
  8
1
  6
Continuous
 62
     7
100
AcDbLine
 10
138.2438899492856
 20
169.1934481444014
 30
0.0
 11
138.2438899492856
 21
171.4934471444014
 31
0.0
  0
LINE
  5
6F6B1
102
{ACAD_REACTORS
330
6F6F7
102
}
330
37
100
AcDbEntity
  8
1
  6
Continuous
 62
     7
100
AcDbLine
 10
138.2438899492856
 20
171.4934471444014
 30
0.0
 11
68.24388994928563
 21
171.4934471444014
 31
0.0
  0
LINE
  5
6F6B2
330
37
100
AcDbEntity
  8
1
  6
Continuous
 62
     7
100
AcDbLine
 10
67.44389094928578
 20
157.7242151444015
 30
0.0
 11
67.62937994928575
 21
155.4317101444015
 31
0.0
  0
LINE
  5
6F6B3
330
37
100
AcDbEntity
  8
1
  6
Continuous
 62
     7
100
AcDbLine
 10
67.62937994928575
 20
155.4317101444015
 30
0.0
 11
69.64731694128182
 21
155.5949838336117
 31
0.0
  0
LINE
  5
6F6B4
330
37
100
AcDbEntity
  8
1
  6
Continuous
 62
     7
100
AcDbLine
 10
126.1351899492865
 20
153.9934461444015
 30
0.0
 11
115.0619479350616
 21
153.9934461444015
 31
0.0
  0
LINE
  5
6F6B5
330
37
100
AcDbEntity
  8
1
  6
Continuous
 62
     7
100
AcDbLine
 10
78.5217299492856
 20
160.9339181444014
 30
0.0
 11
78.37847594928575
 21
159.8046721444015
 31
0.0
  0
LINE
  5
6F6B6
330
37
100
AcDbEntity
  8
1
  6
Continuous
 62
     7
100
AcDbLine
 10
67.44389094928578
 20
157.7242151444015
 30
0.0
 11
67.46548502451765
 21
157.7259623501285
 31
0.0
  0
LINE
  5
6F6B7
330
37
100
AcDbEntity
  8
1
  6
Continuous
 62
     7
100
AcDbLine
 10
127.9873699492857
 20
160.7071161444015
 30
0.0
 11
128.3895599492857
 21
154.1313281444015
 31
0.0
  0
LINE
  5
6F6B8
330
37
100
AcDbEntity
  8
2
  6
CENTER2
 62
     1
100
AcDbLine
 10
74.24388994928563
 20
154.3448491444015
 30
0.0
 11
74.24388994928654
 21
93.99345114440142
 31
0.0
  0
LINE
  5
6F6B9
330
37
100
AcDbEntity
  8
2
  6
CENTER2
 62
     1
100
AcDbLine
 10
38.28939144928563
 20
125.9934511444014
 30
0.0
 11
110.1983884492856
 21
125.9934511444014
 31
0.0
  0
LINE
  5
6F6BA
330
37
100
AcDbEntity
  8
1
  6
Continuous
 62
     7
100
AcDbLine
 10
128.3895499492857
 20
154.1313271444014
 30
0.0
 11
126.1351999492856
 21
153.9934451444014
 31
0.0
  0
LINE
  5
6F6BB
330
37
100
AcDbEntity
  8
1
  6
Continuous
 62
     7
100
AcDbLine
 10
81.99388994928563
 20
163.9934451444014
 30
0.0
 11
124.4938899492856
 21
163.9934451444014
 31
0.0
  0
LINE
  5
6F6BC
330
37
100
AcDbEntity
  8
1
  6
Continuous
 62
     7
100
AcDbLine
 10
82.6560569492865
 20
119.3957561444015
 30
0.0
 11
109.7087478899145
 21
151.5037952746395
 31
0.0
  0
LINE
  5
6F6BD
330
37
100
AcDbEntity
  8
1
  6
Continuous
 62
     7
100
AcDbLine
 10
63.52333894928574
 20
128.9471561444015
 30
0.0
 11
69.57597119996558
 21
155.2845305590501
 31
0.0
  0
CIRCLE
  5
6F6BE
330
37
100
AcDbEntity
  8
1
  6
Continuous
 62
     7
100
AcDbCircle
 10
75.74388994928563
 20
264.4934471444013
 30
0.0
 40
4.4
  0
CIRCLE
  5
6F6BF
330
37
100
AcDbEntity
  8
1
  6
Continuous
 62
     7
100
AcDbCircle
 10
75.74388994928563
 20
222.4934471444013
 30
0.0
 40
4.4
  0
CIRCLE
  5
6F6C0
330
37
100
AcDbEntity
  8
1
  6
Continuous
 62
     7
100
AcDbCircle
 10
130.7438899492856
 20
222.4934471444013
 30
0.0
 40
4.4
  0
CIRCLE
  5
6F6C1
102
{ACAD_REACTORS
330
6F6F1
102
}
330
37
100
AcDbEntity
  8
1
  6
Continuous
 62
     7
100
AcDbCircle
 10
130.7438899492856
 20
264.4934471444013
 30
0.0
 40
4.4
  0
ARC
  5
6F6C2
102
{ACAD_REACTORS
330
6F6EE
102
}
330
37
100
AcDbEntity
  8
1
  6
Continuous
 62
     7
100
AcDbCircle
 10
76.74388994928654
 20
263.9934471444013
 30
0.0
 40
8.5
100
AcDbArc
 50
89.9999820000008
 51
193.3935099999964
  0
ARC
  5
6F6C3
330
37
100
AcDbEntity
  8
1
  6
Continuous
 62
     7
100
AcDbCircle
 10
76.74388994928654
 20
222.9934471444011
 30
0.0
 40
8.5
100
AcDbArc
 50
166.6064699999969
 51
270.0
  0
ARC
  5
6F6C4
330
37
100
AcDbEntity
  8
1
  6
Continuous
 62
     7
100
AcDbCircle
 10
129.7438899492856
 20
222.9934471444011
 30
0.0
 40
8.5
100
AcDbArc
 50
270.000020000002
 51
13.39354799999751
  0
ARC
  5
6F6C5
102
{ACAD_REACTORS
330
6F6EE
102
}
330
37
100
AcDbEntity
  8
1
  6
Continuous
 62
     7
100
AcDbCircle
 10
129.7438899492856
 20
263.9934471444013
 30
0.0
 40
8.5
100
AcDbArc
 50
346.6064499999965
 51
89.9999820000008
  0
ARC
  5
6F6C6
330
37
100
AcDbEntity
  8
1
  6
Continuous
 62
     7
100
AcDbCircle
 10
215.8368599492858
 20
243.4934471444013
 30
0.0
 40
80.0
100
AcDbArc
 50
166.6064699999969
 51
193.3935099999964
  0
ARC
  5
6F6C7
330
37
100
AcDbEntity
  8
1
  6
Continuous
 62
     7
100
AcDbCircle
 10
-9.349082050714287
 20
243.4934471444013
 30
0.0
 40
80.0
100
AcDbArc
 50
346.6064499999965
 51
13.39355200000006
  0
CIRCLE
  5
6F6C8
330
37
100
AcDbEntity
  8
1
  6
Continuous
 62
     7
100
AcDbCircle
 10
103.2438899492856
 20
243.4934471444013
 30
0.0
 40
9.5
  0
CIRCLE
  5
6F6C9
330
37
100
AcDbEntity
  8
1
  6
Continuous
 62
     7
100
AcDbCircle
 10
103.2438899492856
 20
243.4934471444013
 30
0.0
 40
11.75
  0
CIRCLE
  5
6F6CA
330
37
100
AcDbEntity
  8
1
  6
Continuous
 62
     7
100
AcDbCircle
 10
103.2438899492856
 20
243.4934471444013
 30
0.0
 40
24.0
  0
CIRCLE
  5
6F6CB
330
37
100
AcDbEntity
  8
1
  6
Continuous
 62
     7
100
AcDbCircle
 10
103.2438899492856
 20
243.4934471444013
 30
0.0
 40
22.0
  0
ARC
  5
6F6CC
330
37
100
AcDbEntity
  8
1
  6
Continuous
 62
     7
100
AcDbCircle
 10
80.24388994928562
 20
168.1434491444014
 30
0.0
 40
3.0
100
AcDbArc
 50
212.8650100000054
 51
270.0
  0
ARC
  5
6F6CD
330
37
100
AcDbEntity
  8
1
  6
Continuous
 62
     7
100
AcDbCircle
 10
126.2438899492856
 20
168.1434491444014
 30
0.0
 40
3.0
100
AcDbArc
 50
270.0
 51
327.1349299999946
  0
ARC
  5
6F6CE
330
37
100
AcDbEntity
  8
1
  6
Continuous
 62
     7
100
AcDbCircle
 10
103.2438899492856
 20
165.3714451444015
 30
0.0
 40
2.778
100
AcDbArc
 50
184.7076900000007
 51
209.7383799999968
  0
ARC
  5
6F6CF
330
37
100
AcDbEntity
  8
1
  6
Continuous
 62
     7
100
AcDbCircle
 10
108.7302489492879
 20
165.3714451444015
 30
0.0
 40
2.778
100
AcDbArc
 50
189.0815400000001
 51
209.7383799999968
  0
ARC
  5
6F6D0
330
37
100
AcDbEntity
  8
1
  6
Continuous
 62
     7
100
AcDbCircle
 10
113.6698539492856
 20
165.3714451444015
 30
0.0
 40
2.778
100
AcDbArc
 50
207.2447600000052
 51
209.7383799999968
  0
ARC
  5
6F6D1
330
37
100
AcDbEntity
  8
1
  6
Continuous
 62
     7
100
AcDbCircle
 10
117.5704659492858
 20
165.3714451444015
 30
0.0
 40
2.778
100
AcDbArc
 50
330.2616299999961
 51
355.2923099999993
  0
ARC
  5
6F6D2
330
37
100
AcDbEntity
  8
1
  6
Continuous
 62
     7
100
AcDbCircle
 10
120.0433589492857
 20
165.3714451444015
 30
0.0
 40
2.778
100
AcDbArc
 50
330.2616299999961
 51
355.2923099999993
  0
ARC
  5
6F6D3
330
37
100
AcDbEntity
  8
1
  6
Continuous
 62
     7
100
AcDbCircle
 10
120.8438879492857
 20
165.3714451444015
 30
0.0
 40
2.778
100
AcDbArc
 50
330.2616299999961
 51
355.2923099999993
  0
ARC
  5
6F6D4
330
37
100
AcDbEntity
  8
1
  6
Continuous
 62
     7
100
AcDbCircle
 10
103.2438899492856
 20
165.3714451444015
 30
0.0
 40
2.778
100
AcDbArc
 50
330.2616299999961
 51
355.2923099999993
  0
ARC
  5
6F6D5
330
37
100
AcDbEntity
  8
1
  6
Continuous
 62
     7
100
AcDbCircle
 10
108.7302489492879
 20
165.3714451444015
 30
0.0
 40
2.778
100
AcDbArc
 50
330.2616299999961
 51
355.2923099999993
  0
ARC
  5
6F6D6
330
37
100
AcDbEntity
  8
1
  6
Continuous
 62
     7
100
AcDbCircle
 10
113.6698539492856
 20
165.3714451444015
 30
0.0
 40
2.778
100
AcDbArc
 50
330.2616299999961
 51
355.2923099999993
  0
ARC
  5
6F6D7
330
37
100
AcDbEntity
  8
1
  6
Continuous
 62
     7
100
AcDbCircle
 10
92.8179259492856
 20
165.3714451444015
 30
0.0
 40
2.778
100
AcDbArc
 50
184.7076900000007
 51
209.7383799999968
  0
ARC
  5
6F6D8
330
37
100
AcDbEntity
  8
1
  6
Continuous
 62
     7
100
AcDbCircle
 10
97.75753094928791
 20
165.3714451444015
 30
0.0
 40
2.778
100
AcDbArc
 50
184.7076900000007
 51
209.7383799999968
  0
ARC
  5
6F6D9
330
37
100
AcDbEntity
  8
1
  6
Continuous
 62
     7
100
AcDbCircle
 10
88.91731394928569
 20
165.3714451444015
 30
0.0
 40
2.778
100
AcDbArc
 50
184.7076900000007
 51
209.7383799999968
  0
ARC
  5
6F6DA
330
37
100
AcDbEntity
  8
1
  6
Continuous
 62
     7
100
AcDbCircle
 10
97.75753094928791
 20
165.3714451444015
 30
0.0
 40
2.778
100
AcDbArc
 50
330.2616299999961
 51
350.9184599999999
  0
ARC
  5
6F6DB
330
37
100
AcDbEntity
  8
1
  6
Continuous
 62
     7
100
AcDbCircle
 10
86.4444169492865
 20
165.3714451444015
 30
0.0
 40
2.778
100
AcDbArc
 50
184.7076900000007
 51
209.7383799999968
  0
ARC
  5
6F6DC
330
37
100
AcDbEntity
  8
1
  6
Continuous
 62
     7
100
AcDbCircle
 10
92.8179259492856
 20
165.3714451444015
 30
0.0
 40
2.778
100
AcDbArc
 50
330.2616299999961
 51
332.7552399999948
  0
ARC
  5
6F6DD
330
37
100
AcDbEntity
  8
1
  6
Continuous
 62
     7
100
AcDbCircle
 10
85.64389194928571
 20
165.3714451444015
 30
0.0
 40
2.778
100
AcDbArc
 50
184.7076900000007
 51
209.7383799999968
  0
ARC
  5
6F6E1
330
37
100
AcDbEntity
  8
1
  6
Continuous
 62
     7
100
AcDbCircle
 10
124.4938899492856
 20
160.4934461444015
 30
0.0
 40
3.5
100
AcDbArc
 50
3.499999999999546
 51
89.9999820000008
  0
ARC
  5
6F6E2
330
37
100
AcDbEntity
  8
1
  6
Continuous
 62
     7
100
AcDbCircle
 10
81.99388994928563
 20
160.4934461444015
 30
0.0
 40
3.5
100
AcDbArc
 50
89.9999820000008
 51
172.7702100000005
  0
ARC
  5
6F6E3
330
37
100
AcDbEntity
  8
1
  6
Continuous
 62
     7
100
AcDbCircle
 10
76.89038994928569
 20
159.9934461444014
 30
0.0
 40
1.5
100
AcDbArc
 50
274.6258000000034
 51
352.770200000001
  0
ARC
  5
6F6E4
330
37
100
AcDbEntity
  8
1
  6
Continuous
 62
     7
100
AcDbCircle
 10
74.24388994928563
 20
126.4834491444015
 30
0.0
 40
11.0
100
AcDbArc
 50
167.0574899999985
 51
319.8841199999948
  0
CIRCLE
  5
6F6E5
330
37
100
AcDbEntity
  8
1
  6
Continuous
 62
     4
100
AcDbCircle
 10
74.24388994928563
 20
125.9934511444015
 30
0.0
 40
2.0
  0
CIRCLE
  5
6F6E6
330
37
100
AcDbEntity
  8
1
  6
Continuous
 62
     4
100
AcDbCircle
 10
74.24388994928563
 20
125.9934511444015
 30
0.0
 40
1.5
  0
CIRCLE
  5
6F6E7
330
37
100
AcDbEntity
  8
1
  6
Continuous
 62
     7
100
AcDbCircle
 10
74.24388994928563
 20
125.9934511444015
 30
0.0
 40
6.25
  0
LWPOLYLINE
  5
6F6E8
330
37
100
AcDbEntity
  8
0
100
AcDbPolyline
 90
        6
 70
     1
 43
0.0
 10
80.49388994928563
 20
129.6018903268367
 10
74.24388994928563
 20
133.2103295092718
 10
67.99388994928563
 20
129.6018903268367
 10
67.99388994928563
 20
122.3850119619664
 10
74.24388994928563
 20
118.7765727795312
 10
80.49388994928563
 20
122.3850119619664
  0
DIMENSION
  5
6F6E9
102
{ACAD_XDICTIONARY
360
6F6EA
102
}
102
{ACAD_REACTORS
330
6F6EB
102
}
330
37
100
AcDbEntity
  8
0
100
AcDbDimension
  2
*D6933
 10
130.7438899492856
 20
279.7288258039078
 30
0.0
 11
103.2438899492856
 21
282.1038258039077
 31
0.0
 70
    32
 71
     5
 42
55.0
  3
ISO-25_WS
100
AcDbAlignedDimension
 13
75.74388994928563
 23
269.4934471444014
 33
0.0
 14
130.7438899492856
 24
269.4934471444014
 34
0.0
100
AcDbRotatedDimension
1001
ACAD
1000
DSTYLE
1002
{
1070
    40
1040
1.0
1002
}
  0
DIMENSION
  5
6F6EC
102
{ACAD_XDICTIONARY
360
6F6ED
102
}
102
{ACAD_REACTORS
330
6F6EE
102
}
330
37
100
AcDbEntity
  8
0
100
AcDbDimension
  2
*D6934
 10
138.2438899492865
 20
289.9617329782952
 30
0.0
 11
103.2438899492865
 21
292.3367329782952
 31
0.0
 70
    32
 71
     5
 42
70.0
  3
ISO-25_WS
100
AcDbAlignedDimension
 13
68.24388994928654
 23
263.9934471444013
 33
0.0
 14
138.2438899492865
 24
263.9934471444013
 34
0.0
100
AcDbRotatedDimension
1001
ACAD
1000
DSTYLE
1002
{
1070
    40
1040
1.0
1002
}
  0
DIMENSION
  5
6F6EF
102
{ACAD_XDICTIONARY
360
6F6F0
102
}
102
{ACAD_REACTORS
330
6F6F1
102
}
330
37
100
AcDbEntity
  8
0
100
AcDbDimension
  2
*D6935
 10
147.1249660417935
 20
222.4934471444013
 30
0.0
 11
144.7499660417935
 21
243.4934471444013
 31
0.0
 70
    32
 71
     5
 42
42.00000000000002
  3
ISO-25_WS
100
AcDbAlignedDimension
 13
135.1438899492856
 23
264.4934471444013
 33
0.0
 14
135.7438899492855
 24
222.4934471444013
 34
0.0
 50
90.0
100
AcDbRotatedDimension
1001
ACAD
1000
DSTYLE
1002
{
1070
    40
1040
1.0
1002
}
  0
DIMENSION
  5
6F6F2
102
{ACAD_XDICTIONARY
360
6F6F3
102
}
102
{ACAD_REACTORS
330
6F6F4
102
}
330
37
100
AcDbEntity
  8
0
100
AcDbDimension
  2
*D6936
 10
157.7817429714787
 20
214.4934471444015
 30
0.0
 11
155.4067429714786
 21
243.4934471444014
 31
0.0
 70
    32
 71
     5
 42
57.99999999999986
  3
ISO-25_WS
100
AcDbAlignedDimension
 13
129.7438899492856
 23
272.4934471444013
 33
0.0
 14
129.7438899492856
 24
214.4934471444015
 34
0.0
 50
90.0
100
AcDbRotatedDimension
1001
ACAD
1000
DSTYLE
1002
{
1070
    40
1040
1.0
1002
}
  0
DIMENSION
  5
6F6F5
102
{ACAD_XDICTIONARY
360
6F6F6
102
}
102
{ACAD_REACTORS
330
6F6F7
102
}
330
37
100
AcDbEntity
  8
0
100
AcDbDimension
  2
*D6937
 10
149.0617556336058
 20
100.9934511444014
 30
0.0
 11
146.6867556336057
 21
136.2434491444014
 31
0.0
 70
    32
 71
     5
 42
70.49999600000003
  3
ISO-25_WS
100
AcDbAlignedDimension
 13
138.2438899492856
 23
171.4934471444014
 33
0.0
 14
74.24388994928654
 24
100.9934511444014
 34
0.0
 50
90.0
100
AcDbRotatedDimension
1001
ACAD
1000
DSTYLE
1002
{
1070
    40
1040
1.0
1002
}
  0
LINE
  5
6F6FB
330
37
100
AcDbEntity
  8
0
 62
     4
100
AcDbLine
 10
104.8222979403067
 20
200.422239959274
 30
0.0
 11
90.94229794030775
 21
200.4222399592741
 31
0.0
  0
LINE
  5
6F6FC
330
37
100
AcDbEntity
  8
0
 62
     4
100
AcDbLine
 10
90.94229794030775
 20
200.4222399592741
 30
0.0
 11
80.02585953529683
 21
216.2751486259582
 31
0.0
  0
MTEXT
  5
6F6FD
102
{ACAD_XDICTIONARY
360
70F92
102
}
330
37
100
AcDbEntity
  8
0
 62
     2
100
AcDbMText
 10
98.28229794030676
 20
202.7972399592743
 30
0.0
 40
3.149999999999999
 41
0.0
 71
     5
 72
     1
  1
\A1;4-\U+22058.8
 73
     1
 44
1.0
1001
ACAD
1000
MTEXTBEGIN
1070
    73
1070
     1
1070
    44
1040
1.0
1070
    74
1070
     0
1000
MTEXTEND
  0
SOLID
  5
6F6FE
330
37
100
AcDbEntity
  8
0
 62
     4
100
AcDbTrace
 10
80.45825777664687
 20
216.5729014779654
 30
0.0
 11
79.59346129394794
 21
215.9773957739505
 31
0.0
 12
78.23934242325276
 22
218.8695380740505
 32
0.0
 13
78.23934242325276
 23
218.8695380740505
 33
0.0
  0
CIRCLE
  5
6F74C
102
{ACAD_REACTORS
330
6FC92
102
}
330
37
100
AcDbEntity
  8
0
100
AcDbCircle
 10
74.24388994928654
 20
125.9934511444014
 30
0.0
 40
25.0
  0
LINE
  5
6F93E
330
37
100
AcDbEntity
  8
0
 62
     3
100
AcDbLine
 10
534.4179733089338
 20
16.37720497796991
 30
0.0
 11
569.0584105068007
 21
16.37720497796979
 31
0.0
  0
DIMENSION
  5
6FC7D
102
{ACAD_XDICTIONARY
360
6FC89
102
}
102
{ACAD_REACTORS
330
6FC92
102
}
330
37
100
AcDbEntity
  8
0
100
AcDbDimension
  2
*D6940
 10
95.67745809246359
 20
113.1248009956162
 30
0.0
 11
26.4396578164
 21
154.6949690083443
 31
0.0
 70
   163
 71
     5
 42
50.00000000000085
  3
ISO-25_WS
100
AcDbDiametricDimension
 15
52.81032180611025
 25
138.8621012931862
 35
0.0
 40
0.0
1001
ACAD
1000
DSTYLE
1002
{
1070
    40
1040
1.0
1070
   288
1070
     1
1002
}
1001
ACAD_DSTYLE_DIMRADIAL_EXTENSION
1070
   387
1070
     1
1070
   388
1040
0.0
1070
   390
1040
0.0
  0
DIMENSION
  5
6FC93
102
{ACAD_XDICTIONARY
360
6FC9F
102
}
102
{ACAD_REACTORS
330
6FCA8
102
}
330
37
100
AcDbEntity
  8
0
100
AcDbDimension
  2
*D6941
 10
262.462014357922
 20
109.4908773468516
 30
0.0
 11
171.7840732777778
 21
162.9373232519045
 31
0.0
 70
   163
 71
     5
 42
65.00000000000014
  3
ISO-25_WS
100
AcDbDiametricDimension
 15
206.4650480809378
 25
142.4960249419513
 35
0.0
 40
0.0
1001
ACAD
1000
DSTYLE
1002
{
1070
    40
1040
1.0
1070
   288
1070
     1
1002
}
1001
ACAD_DSTYLE_DIMRADIAL_EXTENSION
1070
   387
1070
     1
1070
   388
1040
1.693779346833824
1070
   390
1040
0.5356656853406681
  0
ARC
  5
6FCC6
330
37
100
AcDbEntity
  8
1
  6
Continuous
 62
     7
100
AcDbCircle
 10
115.0619479350616
 20
146.9934461444015
 30
0.0
 40
7.0
100
AcDbArc
 50
90.0
 51
139.8841214451419
  0
ARC
  5
70111
330
37
100
AcDbEntity
  8
1
  6
Continuous
 62
     7
100
AcDbCircle
 10
67.62678060843973
 20
155.7324770267296
 30
0.0
 40
2.0
100
AcDbArc
 50
347.0574920257097
 51
94.6258017984134
  0
LINE
  5
70112
330
37
100
AcDbEntity
  8
0
100
AcDbLine
 10
67.46548502451765
 20
157.7259623501285
 30
0.0
 11
77.01136164672471
 21
158.4983321526207
 31
0.0
  0
ENDSEC
  0
SECTION
  2
OBJECTS
  0
DICTIONARY
  5
C
330
0
100
AcDbDictionary
281
     1
  3
ACAD_2007HEADERVARS_RT
350
70B7A
  3
ACAD_COLOR
350
30
  3
ACAD_GROUP
350
D
  3
ACAD_LAYOUT
350
2F
  3
ACAD_MATERIAL
350
10
  3
ACAD_MLEADERSTYLE
350
657
  3
ACAD_MLINESTYLE
350
2C
  3
ACAD_PLOTSETTINGS
350
2E
  3
ACAD_PLOTSTYLENAME
350
E
  3
ACAD_SCALELIST
350
635
  3
ACAD_TABLESTYLE
350
31
  3
ACAD_VISUALSTYLE
350
14
  3
ACDB_RECOMPOSE_DATA
350
66D
  3
AcDbVariableDictionary
350
42
  3
ASE_INDEX_DICTIONARY
350
666
  3
DWGPROPS
350
70B79
  0
DICTIONARY
  5
6C
330
2
100
AcDbDictionary
280
     1
281
     1
  3
ACAD_LAYERFILTERS
360
612
  3
ACAD_LAYERSTATES
360
74B
  3
ACLYDICTIONARY
360
611
  0
DICTIONARY
  5
65D
330
25
100
AcDbDictionary
280
     1
281
     1
  3
ADSK_XREC_LAYER_RECONCILED
360
65E
  0
DICTIONARY
  5
745
330
744
100
AcDbDictionary
280
     1
281
     1
  0
DICTIONARY
  5
7B47
330
7B46
100
AcDbDictionary
280
     1
281
     1
  0
DICTIONARY
  5
9D
330
37
100
AcDbDictionary
280
     1
281
     1
  3
ACAD_SORTENTS
360
9E
  0
DICTIONARY
  5
70F9C
330
70B23
100
AcDbDictionary
280
     1
281
     1
  3
ACAD_MTEXT_RT
360
70F9D
  0
DICTIONARY
  5
70F9E
330
70B2B
100
AcDbDictionary
280
     1
281
     1
  3
ACAD_MTEXT_RT
360
70F9F
  0
DICTIONARY
  5
70FA0
330
70B3C
100
AcDbDictionary
280
     1
281
     1
  3
ACAD_MTEXT_RT
360
70FA1
  0
DICTIONARY
  5
70FA2
330
70B4D
100
AcDbDictionary
280
     1
281
     1
  3
ACAD_MTEXT_RT
360
70FA3
  0
DICTIONARY
  5
70FA4
330
70B70
100
AcDbDictionary
280
     1
281
     1
  3
ACAD_MTEXT_RT
360
70FA5
  0
DICTIONARY
  5
70F9A
330
70B1B
100
AcDbDictionary
280
     1
281
     1
  3
ACAD_MTEXT_RT
360
70F9B
  0
DICTIONARY
  5
6E77F
330
6E772
100
AcDbDictionary
280
     1
281
     1
  3
ACAD_DIMASSOC
360
6E789
  0
DICTIONARY
  5
6E797
330
6E78A
100
AcDbDictionary
280
     1
281
     1
  3
ACAD_DIMASSOC
360
6E7A1
  0
DICTIONARY
  5
6E7AF
330
6E7A2
100
AcDbDictionary
280
     1
281
     1
  3
ACAD_DIMASSOC
360
6E7B9
  0
DICTIONARY
  5
6E7C7
330
6E7BA
100
AcDbDictionary
280
     1
281
     1
  3
ACAD_DIMASSOC
360
6E7D1
  0
DICTIONARY
  5
6E7DF
330
6E7D2
100
AcDbDictionary
280
     1
281
     1
  3
ACAD_DIMASSOC
360
6E7E9
  0
DICTIONARY
  5
6E80D
330
6E800
100
AcDbDictionary
280
     1
281
     1
  3
ACAD_DIMASSOC
360
6E817
  0
DICTIONARY
  5
6E825
330
6E818
100
AcDbDictionary
280
     1
281
     1
  3
ACAD_DIMASSOC
360
6E82F
  0
DICTIONARY
  5
6E83D
330
6E830
100
AcDbDictionary
280
     1
281
     1
  3
ACAD_DIMASSOC
360
6E847
  0
DICTIONARY
  5
6E855
330
6E848
100
AcDbDictionary
280
     1
281
     1
  3
ACAD_DIMASSOC
360
6E85F
  0
DICTIONARY
  5
6E86D
330
6E860
100
AcDbDictionary
280
     1
281
     1
  3
ACAD_DIMASSOC
360
6E877
  0
DICTIONARY
  5
6E884
330
6E878
100
AcDbDictionary
280
     1
281
     1
  3
ACAD_DIMASSOC
360
6E88D
  0
DICTIONARY
  5
6E89C
330
6E88F
100
AcDbDictionary
280
     1
281
     1
  3
ACAD_DIMASSOC
360
6E8A6
  0
DICTIONARY
  5
6E8B4
330
6E8A7
100
AcDbDictionary
280
     1
281
     1
  3
ACAD_DIMASSOC
360
6E8BE
  0
DICTIONARY
  5
6E8CC
330
6E8BF
100
AcDbDictionary
280
     1
281
     1
  3
ACAD_DIMASSOC
360
6E8D6
  0
DICTIONARY
  5
6E8E4
330
6E8D7
100
AcDbDictionary
280
     1
281
     1
  3
ACAD_DIMASSOC
360
6E8EE
  0
DICTIONARY
  5
6E8FC
330
6E8EF
100
AcDbDictionary
280
     1
281
     1
  3
ACAD_DIMASSOC
360
6E906
  0
DICTIONARY
  5
6E914
330
6E907
100
AcDbDictionary
280
     1
281
     1
  3
ACAD_DIMASSOC
360
6E91E
  0
DICTIONARY
  5
6E92D
330
6E920
100
AcDbDictionary
280
     1
281
     1
  3
ACAD_DIMASSOC
360
6E937
  0
DICTIONARY
  5
6E944
330
6E938
100
AcDbDictionary
280
     1
281
     1
  3
ACAD_DIMASSOC
360
6E94D
  0
DICTIONARY
  5
6E95C
330
6E94F
100
AcDbDictionary
280
     1
281
     1
  3
ACAD_DIMASSOC
360
6E966
  0
DICTIONARY
  5
6E974
330
6E967
100
AcDbDictionary
280
     1
281
     1
  3
ACAD_DIMASSOC
360
6E97E
  0
DICTIONARY
  5
6E98C
330
6E97F
100
AcDbDictionary
280
     1
281
     1
  3
ACAD_DIMASSOC
360
6E996
  0
DICTIONARY
  5
6E9A4
330
6E997
100
AcDbDictionary
280
     1
281
     1
  3
ACAD_DIMASSOC
360
6E9AE
  0
DICTIONARY
  5
6E9BC
330
6E9AF
100
AcDbDictionary
280
     1
281
     1
  3
ACAD_DIMASSOC
360
6E9C6
  0
DICTIONARY
  5
6E9D4
330
6E9C7
100
AcDbDictionary
280
     1
281
     1
  3
ACAD_DIMASSOC
360
6E9DE
  0
DICTIONARY
  5
6E9EC
330
6E9DF
100
AcDbDictionary
280
     1
281
     1
  3
ACAD_DIMASSOC
360
6E9F6
  0
DICTIONARY
  5
6EA03
330
6E9F7
100
AcDbDictionary
280
     1
281
     1
  3
ACAD_DIMASSOC
360
6EA0C
  0
DICTIONARY
  5
6EA1A
330
6EA0D
100
AcDbDictionary
280
     1
281
     1
  3
ACAD_DIMASSOC
360
6EA24
  0
DICTIONARY
  5
6EA32
330
6EA25
100
AcDbDictionary
280
     1
281
     1
  3
ACAD_DIMASSOC
360
6EA3C
  0
DICTIONARY
  5
6EA4A
330
6EA3D
100
AcDbDictionary
280
     1
281
     1
  3
ACAD_DIMASSOC
360
6EA54
  0
DICTIONARY
  5
6EA62
330
6EA55
100
AcDbDictionary
280
     1
281
     1
  3
ACAD_DIMASSOC
360
6EA6C
  0
DICTIONARY
  5
6EA7A
330
6EA6D
100
AcDbDictionary
280
     1
281
     1
  3
ACAD_DIMASSOC
360
6EA84
  0
DICTIONARY
  5
6EA92
330
6EA85
100
AcDbDictionary
280
     1
281
     1
  3
ACAD_DIMASSOC
360
6EA9C
  0
DICTIONARY
  5
6EAB2
330
6EAA5
100
AcDbDictionary
280
     1
281
     1
  3
ACAD_DIMASSOC
360
6EABC
  0
DICTIONARY
  5
6EAC9
330
6EABD
100
AcDbDictionary
280
     1
281
     1
  3
ACAD_DIMASSOC
360
6EAD2
  0
DICTIONARY
  5
70F80
330
6EC3B
100
AcDbDictionary
280
     1
281
     1
  3
ACAD_MTEXT_RT
360
70F81
  0
DICTIONARY
  5
70F84
330
6EC63
100
AcDbDictionary
280
     1
281
     1
  3
ACAD_MTEXT_RT
360
70F85
  0
DICTIONARY
  5
70F88
330
6EC8B
100
AcDbDictionary
280
     1
281
     1
  3
ACAD_MTEXT_RT
360
70F89
  0
DICTIONARY
  5
70F8C
330
6ECB3
100
AcDbDictionary
280
     1
281
     1
  3
ACAD_MTEXT_RT
360
70F8D
  0
DICTIONARY
  5
70F90
330
6ECE4
100
AcDbDictionary
280
     1
281
     1
  3
ACAD_MTEXT_RT
360
70F91
  0
DICTIONARY
  5
6F6EA
330
6F6E9
100
AcDbDictionary
280
     1
281
     1
  3
ACAD_DIMASSOC
360
6F6EB
  0
DICTIONARY
  5
6F6ED
330
6F6EC
100
AcDbDictionary
280
     1
281
     1
  3
ACAD_DIMASSOC
360
6F6EE
  0
DICTIONARY
  5
6F6F0
330
6F6EF
100
AcDbDictionary
280
     1
281
     1
  3
ACAD_DIMASSOC
360
6F6F1
  0
DICTIONARY
  5
6F6F3
330
6F6F2
100
AcDbDictionary
280
     1
281
     1
  3
ACAD_DIMASSOC
360
6F6F4
  0
DICTIONARY
  5
6F6F6
330
6F6F5
100
AcDbDictionary
280
     1
281
     1
  3
ACAD_DIMASSOC
360
6F6F7
  0
DICTIONARY
  5
70F92
330
6F6FD
100
AcDbDictionary
280
     1
281
     1
  3
ACAD_MTEXT_RT
360
70F93
  0
DICTIONARY
  5
6FC89
330
6FC7D
100
AcDbDictionary
280
     1
281
     1
  3
ACAD_DIMASSOC
360
6FC92
  0
DICTIONARY
  5
6FC9F
330
6FC93
100
AcDbDictionary
280
     1
281
     1
  3
ACAD_DIMASSOC
360
6FCA8
  0
DICTIONARY
  5
70B7A
102
{ACAD_REACTORS
330
C
102
}
330
C
100
AcDbDictionary
281
     1
  3
DIMFXL
350
70B7B
  0
DICTIONARY
  5
30
102
{ACAD_REACTORS
330
C
102
}
330
C
100
AcDbDictionary
281
     1
  0
DICTIONARY
  5
D
102
{ACAD_REACTORS
330
C
102
}
330
C
100
AcDbDictionary
281
     1
  0
DICTIONARY
  5
2F
102
{ACAD_REACTORS
330
C
102
}
330
C
100
AcDbDictionary
281
     1
  3
Layout1
350
36
  3
Layout2
350
3E
  3
Model
350
3A
  0
DICTIONARY
  5
10
102
{ACAD_REACTORS
330
C
102
}
330
C
100
AcDbDictionary
281
     1
  3
ByBlock
350
12
  3
ByLayer
350
11
  3
Global
350
13
  0
DICTIONARY
  5
657
102
{ACAD_REACTORS
330
C
102
}
330
C
100
AcDbDictionary
281
     1
  3
Standard
350
658
  0
DICTIONARY
  5
2C
102
{ACAD_REACTORS
330
C
102
}
330
C
100
AcDbDictionary
281
     1
  3
Standard
350
2D
  0
DICTIONARY
  5
2E
102
{ACAD_REACTORS
330
C
102
}
330
C
100
AcDbDictionary
281
     1
  0
ACDBDICTIONARYWDFLT
  5
E
102
{ACAD_REACTORS
330
C
102
}
330
C
100
AcDbDictionary
281
     1
  3
Normal
350
F
100
AcDbDictionaryWithDefault
340
F
  0
DICTIONARY
  5
635
102
{ACAD_REACTORS
330
C
102
}
330
C
100
AcDbDictionary
281
     1
  3
A0
350
636
  3
A1
350
637
  3
A2
350
638
  3
A3
350
639
  3
A4
350
63A
  3
A5
350
63B
  3
A6
350
63C
  3
A7
350
63D
  3
A8
350
63E
  3
A9
350
63F
  3
B0
350
640
  3
B1
350
641
  3
B2
350
642
  3
B3
350
643
  3
B4
350
644
  3
B5
350
645
  3
B6
350
646
  3
B7
350
647
  3
B8
350
648
  3
B9
350
649
  3
C0
350
64A
  3
C1
350
64B
  3
C2
350
64C
  3
C3
350
64D
  3
C4
350
64E
  3
C5
350
64F
  3
C6
350
650
  3
C7
350
651
  3
C8
350
652
  3
C9
350
653
  3
D0
350
654
  3
D1
350
655
  3
D2
350
656
  0
DICTIONARY
  5
31
102
{ACAD_REACTORS
330
C
102
}
330
C
100
AcDbDictionary
281
     1
  3
Standard
350
32
  0
DICTIONARY
  5
14
102
{ACAD_REACTORS
330
C
102
}
330
C
100
AcDbDictionary
281
     1
  3
2dWireframe
350
1A
  3
3D Hidden
350
1C
  3
3dWireframe
350
1B
  3
Basic
350
19
  3
Brighten
350
20
  3
ColorChange
350
24
  3
Conceptual
350
1D
  3
Dim
350
1F
  3
Facepattern
350
23
  3
Flat
350
15
  3
FlatWithEdges
350
16
  3
Gouraud
350
17
  3
GouraudWithEdges
350
18
  3
Linepattern
350
22
  3
Realistic
350
1E
  3
Thicken
350
21
  0
XRECORD
  5
66D
102
{ACAD_REACTORS
330
C
102
}
330
C
100
AcDbXrecord
280
     1
 90
        1
330
32
  0
DICTIONARY
  5
42
102
{ACAD_REACTORS
330
C
102
}
330
C
100
AcDbDictionary
281
     1
  3
CANNOSCALE
350
66A
  3
CMLEADERSTYLE
350
669
  3
CTABLESTYLE
350
43
  3
DIMASSOC
350
47
  3
HIDETEXT
350
46
  3
INDEXCTL
350
45
  3
LIGHTINGUNITS
350
AAF
  3
LOFTANG1
350
70B76
  3
LOFTANG2
350
70B77
  3
MSLTSCALE
350
AAE
  3
SORTENTS
350
44
  0
DICTIONARY
  5
666
102
{ACAD_REACTORS
330
C
102
}
330
C
100
AcDbDictionary
281
     1
  3
ASEBlockHierarchyIndexRecord
350
668
1001
DCO15
1040
1639458629.093
  0
XRECORD
  5
70B79
102
{ACAD_REACTORS
330
C
102
}
330
C
100
AcDbXrecord
280
     1
  1
DWGPROPS COOKIE
  2

  3

  4

  6

  7

  8
kj06(kj)
  9

300
=
301
=
302
=
303
=
304
=
305
=
306
=
307
=
308
=
309
=
 40
1.604215289351851
 41
2454746.567123658
 42
2454847.476256505
  1

 90
        0
  0
DICTIONARY
  5
612
102
{ACAD_REACTORS
330
6C
102
}
330
6C
100
AcDbDictionary
281
     1
  0
DICTIONARY
  5
74B
102
{ACAD_REACTORS
330
6C
102
}
330
6C
100
AcDbDictionary
281
     1
  0
DICTIONARY
  5
611
102
{ACAD_REACTORS
330
6C
102
}
330
6C
100
AcDbDictionary
281
     1
1001
ACAD
1000
<All
  0
XRECORD
  5
65E
102
{ACAD_REACTORS
330
65D
102
}
330
65D
100
AcDbXrecord
280
     1
290
     1
  0
SORTENTSTABLE
  5
9E
102
{ACAD_REACTORS
330
9D
102
}
330
9D
100
AcDbSortentsTable
330
37
331
6F6A0
  5
6F6A1
331
6EA85
  5
6EABD
331
6F6DB
  5
6F6E3
331
6F6A8
  5
6F6A9
331
6E8D7
  5
6E907
331
6F6E3
  5
6F6E9
331
6F6B0
  5
6F6B1
331
6E94F
  5
6E97F
331
6EC39
  5
6EC3E
331
6F6B8
  5
6F6BC
331
6E731
  5
6E733
331
6E739
  5
6E73B
331
6E741
  5
6E743
331
6E478
  5
6E47A
331
6E313
  5
6E315
331
6E342
  5
6E344
331
6E749
  5
6E74B
331
6E23B
  5
6E23D
331
BDD
  5
6E23B
331
6E27A
  5
6E27C
331
6E5CE
  5
6E5D0
331
6E480
  5
6E482
331
6E615
  5
6E617
331
6E31B
  5
6E31D
331
6E34A
  5
6E34C
331
6E771
  5
6E78A
331
6E704
  5
6E706
331
6E243
  5
6E245
331
6E5D6
  5
6E5D8
331
6E451
  5
6E453
331
6E488
  5
6E48A
331
6E997
  5
6E9C7
331
6E352
  5
6E36B
331
6E70C
  5
6E70E
331
6E24B
  5
6E24D
331
6E57F
  5
6E5AA
331
6E5DE
  5
6E5E0
331
6E36A
  5
6E36C
331
6E323
  5
6E325
331
6E490
  5
6E492
331
6E282
  5
6E298
331
6E29A
  5
6E307
331
6E714
  5
6E716
331
6E253
  5
6E255
331
6E5E6
  5
6E5E8
331
6EA0D
  5
6EA3D
331
6EC61
  5
6EC66
331
6F6C0
  5
6F6C6
331
6F6C8
  5
6F6CE
331
6EC89
  5
6EC8E
331
6ECB1
  5
6ECB6
331
6F6D0
  5
6F6D6
331
6E769
  5
6E76B
331
6E498
  5
6E49A
331
6E32B
  5
6E32D
331
6E459
  5
6E45B
331
6E5EE
  5
6E5F0
331
6E4A0
  5
6E4BE
331
6E5AF
  5
6E5B1
331
6E71C
  5
6E71E
331
6E41A
  5
6E41D
331
6E461
  5
6E463
331
6E25B
  5
6E25D
331
6E263
  5
6E265
331
6E5F6
  5
6E5F8
331
6E469
  5
6E46B
331
6E333
  5
6E335
331
6E422
  5
6E427
331
6E5B7
  5
6E5B9
331
6E724
  5
6E726
331
6E5BF
  5
6E5C1
331
6E72C
  5
6E72E
331
6E471
  5
6E473
331
6E26B
  5
6E26D
331
6E33B
  5
6E33D
331
6E30A
  5
6E30C
331
6E5C7
  5
6E5C9
331
6E273
  5
6E275
331
6F6A1
  5
6F6A2
331
6F6DC
  5
6F6E5
331
6F6A9
  5
6F6AA
331
6F6E4
  5
6F6EC
331
6F6B1
  5
6F6B2
331
6F74C
  5
6FCC0
331
6F6B9
  5
6F6BD
331
6E732
  5
6E734
331
6E73A
  5
6E73C
331
6E742
  5
6E744
331
6E4C0
  5
6E4C2
331
6E42A
  5
6E42C
331
6E479
  5
6E47B
331
6E74A
  5
6E769
331
6E314
  5
6E316
331
6E343
  5
6E345
331
6E23C
  5
6E23E
331
6E27B
  5
6E27D
331
6E570
  5
6E573
331
6E5CF
  5
6E5D1
331
6E34B
  5
6E34D
331
6E31C
  5
6E31E
331
6E481
  5
6E483
331
6E616
  5
6E618
331
6E772
  5
6E7A2
331
6E705
  5
6E707
331
6E244
  5
6E246
331
6E489
  5
6E48B
331
6E452
  5
6E454
331
6E5D7
  5
6E5D9
331
6E800
  5
6E830
331
6E24C
  5
6E24E
331
6E283
  5
6E299
331
6E5DF
  5
6E5E1
331
6E491
  5
6E493
331
6E324
  5
6E326
331
6E36B
  5
6E41A
331
6E580
  5
6E5AB
331
6E70D
  5
6E70F
331
6E715
  5
6E717
331
6E254
  5
6E256
331
6E5E7
  5
6E5E9
331
6E6C6
  5
6E6CC
331
6E78A
  5
6E7BA
331
6E860
  5
6E88E
331
6F6C1
  5
6F6C7
331
6F6C9
  5
6F6CF
331
6F6D1
  5
6F6D7
331
6E76A
  5
6E76C
331
6E45A
  5
6E45C
331
6E32C
  5
6E32E
331
6E499
  5
6E49B
331
6E71D
  5
6E71F
331
6E25C
  5
6E25E
331
6E5B0
  5
6E5B2
331
6E5EF
  5
6E5F1
331
6E462
  5
6E464
331
6E4A1
  5
6E4BF
331
6E725
  5
6E727
331
6E264
  5
6E266
331
6E5B8
  5
6E5BA
331
6E334
  5
6E336
331
6E46A
  5
6E46C
331
6E5F7
  5
6E5F9
331
6E30B
  5
6E30D
331
6E5C0
  5
6E5C2
331
6E72D
  5
6E72F
331
6E33C
  5
6E33E
331
6E472
  5
6E474
331
6E26C
  5
6E26E
331
6E274
  5
6E276
331
6E6FE
  5
6E700
331
6F6A2
  5
6F6A3
331
6F6DD
  5
6F6E6
331
6F6AA
  5
6F6AB
331
6E8BF
  5
6E8EF
331
6EA6D
  5
6EAA5
331
6F6E5
  5
6F6EF
331
6F6B2
  5
6F6B3
331
6ECE7
  5
6F69C
331
6FCC6
  5
6F6B6
331
6EC3B
  5
6EC60
331
6F6BA
  5
6F6BF
331
6E733
  5
6E735
331
6E73B
  5
6E73D
331
6F6EF
  5
6F6FE
331
6EABD
  5
6EC39
331
6E743
  5
6E745
331
6E47A
  5
6E47C
331
6E4C1
  5
6E570
331
6E315
  5
6E317
331
6E344
  5
6E346
331
6E74B
  5
6E76A
331
6E42B
  5
6E44F
331
6E5C8
  5
6E5CA
331
6E23D
  5
6E23F
331
6E27C
  5
6E27E
331
6E5D0
  5
6E5D2
331
6E482
  5
6E484
331
6E617
  5
6E6C6
331
6E31D
  5
6E31F
331
6E34C
  5
6E34E
331
6E706
  5
6E708
331
6E245
  5
6E247
331
6E5D8
  5
6E5DA
331
6E97F
  5
6E9AF
331
6E453
  5
6E455
331
6E48A
  5
6E48C
331
6E70E
  5
6E710
331
6E24D
  5
6E24F
331
6E5E0
  5
6E5E2
331
6E36C
  5
6E41C
331
6E325
  5
6E327
331
6E492
  5
6E494
331
6FC93
  5
70111
331
6E716
  5
6E718
331
6E255
  5
6E257
331
6E8A7
  5
6E8D7
331
6EC63
  5
6EC88
331
6F6C2
  5
6F6C8
331
6F6CA
  5
6F6D0
331
6EC8B
  5
6ECB0
331
6ECB3
  5
6ECE1
331
6F6D2
  5
6F6D8
331
6E76B
  5
6E771
331
6E49A
  5
6E49C
331
6E32D
  5
6E32F
331
6E45B
  5
6E45D
331
6E5E8
  5
6E5EA
331
6E25D
  5
6E25F
331
6E5F0
  5
6E5F2
331
6E463
  5
6E465
331
6E41C
  5
6E41E
331
6E5B1
  5
6E5B3
331
6E71E
  5
6E720
331
6E726
  5
6E728
331
6E265
  5
6E267
331
6E5F8
  5
6E615
331
6E46B
  5
6E46D
331
6E335
  5
6E337
331
6E5B9
  5
6E5BB
331
6E5C1
  5
6E5C3
331
6E72E
  5
6E730
331
6E473
  5
6E475
331
6E26D
  5
6E26F
331
6E33D
  5
6E33F
331
6E30C
  5
6E30E
331
6E6FF
  5
6E701
331
6E275
  5
6E277
331
6F6A3
  5
6F6A4
331
6F6AB
  5
6F6AC
331
6F6B3
  5
6F6B4
331
6E938
  5
6E94F
331
6F6E6
  5
6F6F2
331
6F6BB
  5
6F6C1
331
6F6E8
  5
6F6FB
331
6E734
  5
6E736
331
6F6F2
  5
6F74C
331
6E73C
  5
6E73E
331
6E744
  5
6E746
331
6E4C2
  5
6E571
331
6E5C9
  5
6E5CB
331
6E345
  5
6E347
331
6E42C
  5
6E450
331
6E316
  5
6E318
331
6E47B
  5
6E47D
331
6E618
  5
6E6CB
331
6E23E
  5
6E240
331
6E572
  5
6E574
331
6E5D1
  5
6E5D3
331
6E34D
  5
6E34F
331
6E31E
  5
6E320
331
6E483
  5
6E485
331
6E27D
  5
6E27F
331
6E707
  5
6E709
331
6E246
  5
6E248
331
6E48B
  5
6E48D
331
6E454
  5
6E456
331
6E5D9
  5
6E5DB
331
6E848
  5
6E878
331
6E24E
  5
6E250
331
6E5E1
  5
6E5E3
331
6E326
  5
6E328
331
6E493
  5
6E495
331
6E70F
  5
6E711
331
6E7D2
  5
6E800
331
6E717
  5
6E719
331
6E256
  5
6E258
331
6E88E
  5
6E8A7
331
6F93E
  5
6E23A
331
6F6C3
  5
6F6C9
331
6F6CB
  5
6F6D1
331
6F6D3
  5
6F6D9
331
6F69C
  5
6F69D
331
6E76C
  5
6E772
331
6E5AA
  5
6E5AC
331
6E5E9
  5
6E5EB
331
6E45C
  5
6E45E
331
6E32E
  5
6E330
331
6E49B
  5
6E49D
331
6E71F
  5
6E721
331
6E25E
  5
6E260
331
6E5B2
  5
6E5B4
331
6E41D
  5
6E41F
331
6E464
  5
6E466
331
6E5F1
  5
6E5F3
331
6E6D0
  5
6E6D3
331
6E727
  5
6E729
331
6E266
  5
6E268
331
6E5BA
  5
6E5BC
331
6E336
  5
6E338
331
6E46C
  5
6E46E
331
6E5F9
  5
6E616
331
6E26E
  5
6E270
331
6E30D
  5
6E30F
331
6F6FB
  5
6FC7D
331
6E474
  5
6E476
331
6E33E
  5
6E340
331
6E5C2
  5
6E5C4
331
6E72F
  5
6E731
331
6E276
  5
6E278
331
6E907
  5
6E920
331
6F6A4
  5
6F6A5
331
6F6AC
  5
6F6AD
331
6ECE1
  5
6ECE4
331
6EA55
  5
6EA85
331
6F6E7
  5
6F6F5
331
6F6B4
  5
6F6B5
331
6F6BC
  5
6F6C2
331
6F6E9
  5
6F6FC
331
6E735
  5
6E737
331
6E73D
  5
6E73F
331
6EAA5
  5
6EC38
331
6E745
  5
6E747
331
6E47C
  5
6E47E
331
6E317
  5
6E319
331
6E346
  5
6E348
331
6E5CA
  5
6E5CC
331
6E23F
  5
6E241
331
6E9C7
  5
6E9F7
331
6E27E
  5
6E280
331
6E5D2
  5
6E5D4
331
6E484
  5
6E486
331
6E31F
  5
6E321
331
6E34E
  5
6E350
331
6E573
  5
6E575
331
6E700
  5
6E702
331
6E708
  5
6E70A
331
6E247
  5
6E249
331
6E57B
  5
6E57D
331
6E5DA
  5
6E5DC
331
6E455
  5
6E457
331
6E48C
  5
6E48E
331
6E710
  5
6E712
331
6E24F
  5
6E252
331
6E5E2
  5
6E5E4
331
6E327
  5
6E32A
331
6E494
  5
6E496
331
6FC7D
  5
6FCC6
331
6E257
  5
6E259
331
6E88F
  5
6E8BF
331
6E9F7
  5
6EA25
331
6F6C4
  5
6F6CA
331
6F6CC
  5
6F6D2
331
6F6D4
  5
6F6DA
331
6F69D
  5
6F69E
331
6E718
  5
6E71A
331
6E49C
  5
6E49E
331
6E5AB
  5
6E5AD
331
6E32F
  5
6E331
331
6E45D
  5
6E45F
331
6E5EA
  5
6E5EC
331
6E25F
  5
6E261
331
6E306
  5
6E308
331
6E5F2
  5
6E5F4
331
6E465
  5
6E467
331
6E41E
  5
6E422
331
6E5B3
  5
6E5B5
331
6E720
  5
6E722
331
6E728
  5
6E72A
331
6E267
  5
6E269
331
6E5BB
  5
6E5BD
331
6E46D
  5
6E46F
331
6E6D9
  5
6E6FE
331
6E337
  5
6E339
331
6E426
  5
6E42A
331
6F6FC
  5
6FC93
331
6E5C3
  5
6E5C5
331
6E26F
  5
6E271
331
6E475
  5
6E477
331
6E33F
  5
6E341
331
6E30E
  5
6E310
331
6E277
  5
6E279
331
6F6D8
  5
6F6DF
331
6F6A5
  5
6F6A6
331
6F6AD
  5
6F6AE
331
6ECE2
  5
6ECE7
331
6F6B5
  5
6F6B7
331
6E920
  5
6E94E
331
6F6BD
  5
6F6C3
331
6EC3E
  5
6EC61
331
6E736
  5
6E738
331
6E73E
  5
6E740
331
6E310
  5
6E312
331
6E746
  5
6E748
331
6E5CB
  5
6E5CD
331
BDA
  5
BDA
331
6E347
  5
6E349
331
6E318
  5
6E31A
331
6E47D
  5
6E47F
331
6E27F
  5
6E281
331
6E701
  5
6E703
331
6E240
  5
6E242
331
6E485
  5
6E487
331
6E34F
  5
6E351
331
6E574
  5
6E57B
331
6E5D3
  5
6E5D5
331
6E830
  5
6E860
331
6E709
  5
6E70B
331
6E248
  5
6E24A
331
6E48D
  5
6E48F
331
6E57C
  5
6E57E
331
6E320
  5
6E322
331
6E456
  5
6E458
331
6E5DB
  5
6E5DD
331
6E250
  5
6E253
331
6E5E3
  5
6E5E5
331
6E495
  5
6E497
331
6E711
  5
6E713
331
6E7BA
  5
6E7EA
331
6EC66
  5
6EC89
331
6F6C5
  5
6F6CB
331
6EC8E
  5
6ECB1
331
6F6CD
  5
6F6D3
331
6F6D5
  5
6F6DB
331
6ECB6
  5
6ECE2
331
6F69E
  5
6F69F
331
6E328
  5
6E32B
331
6E719
  5
6E71B
331
6E258
  5
6E25A
331
6E5AC
  5
6E5AE
331
6E5EB
  5
6E5ED
331
6E45E
  5
6E460
331
6E49D
  5
6E49F
331
6E6D2
  5
6E6D4
331
6E721
  5
6E723
331
6E260
  5
6E262
331
6E5B4
  5
6E5B6
331
6E41F
  5
6E426
331
6E466
  5
6E468
331
6E5F3
  5
6E5F5
331
6E330
  5
6E332
331
6E307
  5
6E309
331
6E5BC
  5
6E5BE
331
6E729
  5
6E72B
331
6E338
  5
6E33A
331
6E427
  5
6E42B
331
6E46E
  5
6E470
331
6E268
  5
6E26A
331
6E270
  5
6E272
331
6E30F
  5
6E311
331
6E476
  5
6E478
331
6E5C4
  5
6E5C6
331
6F6FD
  5
6FCA9
331
6F6A6
  5
6F6A7
331
6F6D9
  5
6F6E0
331
6E8EF
  5
6E91F
331
6F6E1
  5
6F6E7
331
6F6AE
  5
6F6AF
331
6EA3D
  5
6EA6D
331
6F6B6
  5
6F6B8
331
6E967
  5
6E997
331
6F6BE
  5
6F6C4
331
6F6F5
  5
6F776
331
6E737
  5
6E739
331
6E73F
  5
6E741
331
6E311
  5
6E313
331
6E340
  5
6E342
331
6E747
  5
6E749
331
6E5CC
  5
6E5CE
331
BDB
  5
BDB
331
6E47E
  5
6E480
331
6E278
  5
6E27A
331
6E319
  5
6E31B
331
6E348
  5
6E34A
331
6E241
  5
6E243
331
6E5D4
  5
6E5D6
331
6E44F
  5
6E451
331
6E486
  5
6E488
331
6E350
  5
6E352
331
6E575
  5
6E57C
331
6E702
  5
6E704
331
6E9AF
  5
6E9DF
331
6E70A
  5
6E70C
331
6E249
  5
6E24B
331
6E57D
  5
6E57F
331
6E5DC
  5
6E5DE
331
6E457
  5
6E459
331
6E321
  5
6E323
331
6E48E
  5
6E490
331
6E280
  5
6E282
331
6E298
  5
6E29A
331
6E712
  5
6E714
331
6E496
  5
6E498
331
6E91F
  5
6E938
331
6E5E4
  5
6E5E6
331
6EA25
  5
6EA55
331
6E9DF
  5
6EA0D
331
6F6C6
  5
6F6CC
331
70111
  5
6F6BA
331
6F6CE
  5
6F6D4
331
6F6D6
  5
6F6DC
331
6F69F
  5
6F6A0
331
6E6CB
  5
6E6D0
331
6E71A
  5
6E71C
331
6E259
  5
6E25B
331
6E49E
  5
6E4A0
331
6E5AD
  5
6E5AF
331
6E45F
  5
6E461
331
6E5EC
  5
6E5EE
331
6E261
  5
6E263
331
6E5F4
  5
6E5F6
331
6E6D3
  5
6E6D9
331
6E467
  5
6E469
331
6E331
  5
6E333
331
6E5B5
  5
6E5B7
331
6E722
  5
6E724
331
6E5BD
  5
6E5BF
331
6E72A
  5
6E72C
331
6E269
  5
6E26B
331
6E46F
  5
6E471
331
6E339
  5
6E33B
331
6E4BE
  5
6E4C0
331
6E308
  5
6E30A
331
6F6FE
  5
6FCAF
331
6E5C5
  5
6E5C7
331
6E477
  5
6E479
331
6E271
  5
6E273
331
6F6DA
  5
6F6E1
331
6F6A7
  5
6F6A8
331
6F6E2
  5
6F6E8
331
6F6AF
  5
6F6B0
331
6ECE4
  5
6ECE8
331
6E94E
  5
6E967
331
6F6B7
  5
6F6BB
331
6EC38
  5
6EC3B
331
6E730
  5
6E732
331
6F6BF
  5
6F6C5
331
6E738
  5
6E73A
331
6F6EC
  5
6F6FD
331
6E740
  5
6E742
331
6E312
  5
6E314
331
6E341
  5
6E343
331
6E748
  5
6E74A
331
6E23A
  5
6E23C
331
6E5CD
  5
6E5CF
331
BDC
  5
BDC
331
6E349
  5
6E34B
331
6E31A
  5
6E31C
331
6E47F
  5
6E481
331
6E279
  5
6E27B
331
6E703
  5
6E705
331
6E242
  5
6E244
331
6E487
  5
6E489
331
6E351
  5
6E36A
331
6E450
  5
6E452
331
6E5D5
  5
6E5D7
331
6E281
  5
6E283
331
6E818
  5
6E848
331
6E5DD
  5
6E5DF
331
6E322
  5
6E324
331
6E48F
  5
6E491
331
6E57E
  5
6E580
331
6E70B
  5
6E70D
331
6E24A
  5
6E24C
331
6E252
  5
6E254
331
6E299
  5
6E306
331
6E5E5
  5
6E5E7
331
6E497
  5
6E499
331
6E713
  5
6E715
331
6E7A2
  5
6E7D2
331
6E878
  5
6E88F
331
6EC60
  5
6EC63
331
6EC88
  5
6EC8B
331
6F6C7
  5
6F6CD
331
6ECB0
  5
6ECB3
331
6F6CF
  5
6F6D5
331
6F6D7
  5
6F6DD
331
6E458
  5
6E45A
331
6E32A
  5
6E32C
331
6E71B
  5
6E71D
331
6E25A
  5
6E25C
331
6E5AE
  5
6E5B0
331
6E5ED
  5
6E5EF
331
6E460
  5
6E462
331
6E49F
  5
6E4A1
331
6E6CC
  5
6E6D2
331
6E6D4
  5
6E6DC
331
6E723
  5
6E725
331
6E262
  5
6E264
331
6E5B6
  5
6E5B8
331
6E468
  5
6E46A
331
6E5F5
  5
6E5F7
331
6E332
  5
6E334
331
6E309
  5
6E30B
331
6E6DC
  5
6E6FF
331
6E4BF
  5
6E4C1
331
6E5BE
  5
6E5C0
331
6E72B
  5
6E72D
331
6E33A
  5
6E33C
331
6E470
  5
6E472
331
6E26A
  5
6E26C
331
6E272
  5
6E274
331
6E5C6
  5
6E5C8
  0
XRECORD
  5
70F9D
102
{ACAD_REACTORS
330
70F9C
102
}
330
70F9C
100
AcDbXrecord
280
     1
 40
5138.0
  1
\A1;\U+220575
  0
XRECORD
  5
70F9F
102
{ACAD_REACTORS
330
70F9E
102
}
330
70F9E
100
AcDbXrecord
280
     1
 40
5673.0
  1
\A1;\U+2205100
  0
XRECORD
  5
70FA1
102
{ACAD_REACTORS
330
70FA0
102
}
330
70FA0
100
AcDbXrecord
280
     1
 40
5769.0
  1
\A1;\U+2205125
  0
XRECORD
  5
70FA3
102
{ACAD_REACTORS
330
70FA2
102
}
330
70FA2
100
AcDbXrecord
280
     1
 40
5738.0
  1
\A1;\U+2205150
  0
XRECORD
  5
70FA5
102
{ACAD_REACTORS
330
70FA4
102
}
330
70FA4
100
AcDbXrecord
280
     1
 40
5049.0
  1
\A1;\U+220550
  0
XRECORD
  5
70F9B
102
{ACAD_REACTORS
330
70F9A
102
}
330
70F9A
100
AcDbXrecord
280
     1
 40
5126.0
  1
\A1;\U+220565
  0
DIMASSOC
  5
6E789
102
{ACAD_REACTORS
330
6E77F
102
}
330
6E77F
100
AcDbDimAssoc
330
6E772
 90
        3
 70
     0
 71
     0
  1
AcDbOsnapPointRef
 72
    13
331
6E23E
 73
     2
 91
        0
 40
0.0
 10
0.0
 20
0.0
 30
2.000000000000000E+50
 75
     0
  1
AcDbOsnapPointRef
 72
    13
331
6E244
 73
     2
 91
        0
 40
0.0
 10
0.0
 20
0.0
 30
2.000000000000000E+50
 75
     0
  0
DIMASSOC
  5
6E7A1
102
{ACAD_REACTORS
330
6E797
102
}
330
6E797
100
AcDbDimAssoc
330
6E78A
 90
        3
 70
     0
 71
     0
  1
AcDbOsnapPointRef
 72
     5
331
6E261
 73
     2
 91
        0
 40
3.141592653589792
 10
0.0
 20
0.0
 30
0.0
 75
     0
  1
AcDbOsnapPointRef
 72
     5
331
6E264
 73
     2
 91
        0
 40
6.283185307179584
 10
0.0
 20
0.0
 30
0.0
 75
     0
  0
DIMASSOC
  5
6E7B9
102
{ACAD_REACTORS
330
6E7AF
102
}
330
6E7AF
100
AcDbDimAssoc
330
6E7A2
 90
        3
 70
     0
 71
     0
  1
AcDbOsnapPointRef
 72
     5
331
6E260
 73
     2
 91
        0
 40
0.0
 10
0.0
 20
0.0
 30
0.0
 75
     0
  1
AcDbOsnapPointRef
 72
     1
331
6E243
 73
     2
 91
        0
 40
1.0
 10
0.0
 20
0.0
 30
2.000000000000000E+50
 75
     0
  0
DIMASSOC
  5
6E7D1
102
{ACAD_REACTORS
330
6E7C7
102
}
330
6E7C7
100
AcDbDimAssoc
330
6E7BA
 90
        3
 70
     0
 71
     0
  1
AcDbOsnapPointRef
 72
     1
331
6E23C
 73
     2
 91
        0
 40
1.0
 10
0.0
 20
0.0
 30
2.000000000000000E+50
 75
     0
  1
AcDbOsnapPointRef
 72
     1
331
6E23D
 73
     2
 91
        0
 40
1.0
 10
0.0
 20
0.0
 30
2.000000000000000E+50
 75
     0
  0
DIMASSOC
  5
6E7E9
102
{ACAD_REACTORS
330
6E7DF
102
}
330
6E7DF
100
AcDbDimAssoc
330
6E7D2
 90
        3
 70
     0
 71
     0
  1
AcDbOsnapPointRef
 72
    13
331
6E24F
 73
     2
 91
        0
 40
0.0
 10
0.0
 20
0.0
 30
2.000000000000000E+50
 75
     0
  1
AcDbOsnapPointRef
 72
     5
331
6E27D
 73
     2
 91
        0
 40
4.712388980384688
 10
0.0
 20
0.0
 30
0.0
 75
     0
  0
DIMASSOC
  5
6E817
102
{ACAD_REACTORS
330
6E80D
102
}
330
6E80D
100
AcDbDimAssoc
330
6E800
 90
        3
 70
     0
 71
     0
  1
AcDbOsnapPointRef
 72
    13
331
6E30A
 73
     2
 91
        0
 40
0.0
 10
0.0
 20
0.0
 30
2.000000000000000E+50
 75
     0
  1
AcDbOsnapPointRef
 72
    13
331
6E310
 73
     2
 91
        0
 40
0.0
 10
0.0
 20
0.0
 30
2.000000000000000E+50
 75
     0
  0
DIMASSOC
  5
6E82F
102
{ACAD_REACTORS
330
6E825
102
}
330
6E825
100
AcDbDimAssoc
330
6E818
 90
        3
 70
     0
 71
     0
  1
AcDbOsnapPointRef
 72
     5
331
6E330
 73
     2
 91
        0
 40
3.141592653589792
 10
0.0
 20
0.0
 30
0.0
 75
     0
  1
AcDbOsnapPointRef
 72
     5
331
6E333
 73
     2
 91
        0
 40
6.283185307179584
 10
0.0
 20
0.0
 30
0.0
 75
     0
  0
DIMASSOC
  5
6E847
102
{ACAD_REACTORS
330
6E83D
102
}
330
6E83D
100
AcDbDimAssoc
330
6E830
 90
        3
 70
     0
 71
     0
  1
AcDbOsnapPointRef
 72
     1
331
6E311
 73
     2
 91
        0
 40
1.0
 10
0.0
 20
0.0
 30
2.000000000000000E+50
 75
     0
  1
AcDbOsnapPointRef
 72
     1
331
6E30F
 73
     2
 91
        0
 40
1.0
 10
0.0
 20
0.0
 30
2.000000000000000E+50
 75
     0
  0
DIMASSOC
  5
6E85F
102
{ACAD_REACTORS
330
6E855
102
}
330
6E855
100
AcDbDimAssoc
330
6E848
 90
        3
 70
     0
 71
     0
  1
AcDbOsnapPointRef
 72
     1
331
6E308
 73
     2
 91
        0
 40
1.0
 10
0.0
 20
0.0
 30
2.000000000000000E+50
 75
     0
  1
AcDbOsnapPointRef
 72
     1
331
6E309
 73
     2
 91
        0
 40
1.0
 10
0.0
 20
0.0
 30
2.000000000000000E+50
 75
     0
  0
DIMASSOC
  5
6E877
102
{ACAD_REACTORS
330
6E86D
102
}
330
6E86D
100
AcDbDimAssoc
330
6E860
 90
        3
 70
     0
 71
     0
  1
AcDbOsnapPointRef
 72
    13
331
6E31E
 73
     2
 91
        0
 40
0.0
 10
0.0
 20
0.0
 30
2.000000000000000E+50
 75
     0
  1
AcDbOsnapPointRef
 72
     5
331
6E34C
 73
     2
 91
        0
 40
4.712388980384688
 10
0.0
 20
0.0
 30
0.0
 75
     0
  0
DIMASSOC
  5
6E88D
102
{ACAD_REACTORS
330
6E884
102
}
330
6E884
100
AcDbDimAssoc
330
6E878
 90
        2
 70
     0
 71
     0
  1
AcDbOsnapPointRef
 72
     3
331
6E34C
 73
     2
 91
        0
 40
0.0
 10
0.0
 20
0.0
 30
0.0
 75
     0
  0
DIMASSOC
  5
6E8A6
102
{ACAD_REACTORS
330
6E89C
102
}
330
6E89C
100
AcDbDimAssoc
330
6E88F
 90
        3
 70
     0
 71
     0
  1
AcDbOsnapPointRef
 72
    13
331
6E474
 73
     2
 91
        0
 40
0.0
 10
0.0
 20
0.0
 30
2.000000000000000E+50
 75
     0
  1
AcDbOsnapPointRef
 72
    13
331
6E494
 73
     2
 91
        0
 40
0.0
 10
0.0
 20
0.0
 30
2.000000000000000E+50
 75
     0
  0
DIMASSOC
  5
6E8BE
102
{ACAD_REACTORS
330
6E8B4
102
}
330
6E8B4
100
AcDbDimAssoc
330
6E8A7
 90
        3
 70
     0
 71
     0
  1
AcDbOsnapPointRef
 72
    13
331
6E473
 73
     2
 91
        0
 40
0.0
 10
0.0
 20
0.0
 30
2.000000000000000E+50
 75
     0
  1
AcDbOsnapPointRef
 72
    13
331
6E493
 73
     2
 91
        0
 40
0.0
 10
0.0
 20
0.0
 30
2.000000000000000E+50
 75
     0
  0
DIMASSOC
  5
6E8D6
102
{ACAD_REACTORS
330
6E8CC
102
}
330
6E8CC
100
AcDbDimAssoc
330
6E8BF
 90
        3
 70
     0
 71
     0
  1
AcDbOsnapPointRef
 72
     1
331
6E472
 73
     2
 91
        0
 40
3.141592025271231
 10
0.0
 20
0.0
 30
2.000000000000000E+50
 75
     0
  1
AcDbOsnapPointRef
 72
     1
331
6E49E
 73
     2
 91
        0
 40
1.0
 10
0.0
 20
0.0
 30
2.000000000000000E+50
 75
     0
  0
DIMASSOC
  5
6E8EE
102
{ACAD_REACTORS
330
6E8E4
102
}
330
6E8E4
100
AcDbDimAssoc
330
6E8D7
 90
        3
 70
     0
 71
     0
  1
AcDbOsnapPointRef
 72
     1
331
6E497
 73
     2
 91
        0
 40
1.0
 10
0.0
 20
0.0
 30
2.000000000000000E+50
 75
     0
  1
AcDbOsnapPointRef
 72
     1
331
6E499
 73
     2
 91
        0
 40
1.0
 10
0.0
 20
0.0
 30
2.000000000000000E+50
 75
     0
  0
DIMASSOC
  5
6E906
102
{ACAD_REACTORS
330
6E8FC
102
}
330
6E8FC
100
AcDbDimAssoc
330
6E8EF
 90
        3
 70
     0
 71
     0
  1
AcDbOsnapPointRef
 72
     1
331
6E4A0
 73
     2
 91
        0
 40
1.0
 10
0.0
 20
0.0
 30
2.000000000000000E+50
 75
     0
  1
AcDbOsnapPointRef
 72
     1
331
6E498
 73
     2
 91
        0
 40
1.0
 10
0.0
 20
0.0
 30
2.000000000000000E+50
 75
     0
  0
DIMASSOC
  5
6E91E
102
{ACAD_REACTORS
330
6E914
102
}
330
6E914
100
AcDbDimAssoc
330
6E907
 90
        3
 70
     0
 71
     0
  1
AcDbOsnapPointRef
 72
    13
331
6E455
 73
     2
 91
        0
 40
0.0
 10
0.0
 20
0.0
 30
2.000000000000000E+50
 75
     0
  1
AcDbOsnapPointRef
 72
    13
331
6E482
 73
     2
 91
        0
 40
4.712389294543712
 10
0.0
 20
0.0
 30
2.000000000000000E+50
 75
     0
  0
DIMASSOC
  5
6E937
102
{ACAD_REACTORS
330
6E92D
102
}
330
6E92D
100
AcDbDimAssoc
330
6E920
 90
        3
 70
     0
 71
     0
  1
AcDbOsnapPointRef
 72
    13
331
6E48F
 73
     2
 91
        0
 40
0.0
 10
0.0
 20
0.0
 30
2.000000000000000E+50
 75
     0
  1
AcDbOsnapPointRef
 72
     5
331
6E41A
 73
     2
 91
        0
 40
4.712388980384688
 10
0.0
 20
0.0
 30
0.0
 75
     0
  0
DIMASSOC
  5
6E94D
102
{ACAD_REACTORS
330
6E944
102
}
330
6E944
100
AcDbDimAssoc
330
6E938
 90
        2
 70
     0
 71
     0
  1
AcDbOsnapPointRef
 72
     3
331
6E41A
 73
     2
 91
        0
 40
0.0
 10
0.0
 20
0.0
 30
0.0
 75
     0
  0
DIMASSOC
  5
6E966
102
{ACAD_REACTORS
330
6E95C
102
}
330
6E95C
100
AcDbDimAssoc
330
6E94F
 90
        3
 70
     0
 71
     0
  1
AcDbOsnapPointRef
 72
     1
331
6E5CF
 73
     2
 91
        0
 40
1.0
 10
0.0
 20
0.0
 30
2.000000000000000E+50
 75
     0
  1
AcDbOsnapPointRef
 72
     1
331
6E5F4
 73
     2
 91
        0
 40
1.0
 10
0.0
 20
0.0
 30
2.000000000000000E+50
 75
     0
  0
DIMASSOC
  5
6E97E
102
{ACAD_REACTORS
330
6E974
102
}
330
6E974
100
AcDbDimAssoc
330
6E967
 90
        3
 70
     0
 71
     0
  1
AcDbOsnapPointRef
 72
     1
331
6E5D1
 73
     2
 91
        0
 40
1.0
 10
0.0
 20
0.0
 30
2.000000000000000E+50
 75
     0
  1
AcDbOsnapPointRef
 72
     1
331
6E5F8
 73
     2
 91
        0
 40
1.0
 10
0.0
 20
0.0
 30
2.000000000000000E+50
 75
     0
  0
DIMASSOC
  5
6E996
102
{ACAD_REACTORS
330
6E98C
102
}
330
6E98C
100
AcDbDimAssoc
330
6E97F
 90
        3
 70
     0
 71
     0
  1
AcDbOsnapPointRef
 72
     1
331
6E5F6
 73
     2
 91
        0
 40
1.0
 10
0.0
 20
0.0
 30
2.000000000000000E+50
 75
     0
  1
AcDbOsnapPointRef
 72
     1
331
6E5EA
 73
     2
 91
        0
 40
1.0
 10
0.0
 20
0.0
 30
2.000000000000000E+50
 75
     0
  0
DIMASSOC
  5
6E9AE
102
{ACAD_REACTORS
330
6E9A4
102
}
330
6E9A4
100
AcDbDimAssoc
330
6E997
 90
        3
 70
     0
 71
     0
  1
AcDbOsnapPointRef
 72
     1
331
6E5F5
 73
     2
 91
        0
 40
1.0
 10
0.0
 20
0.0
 30
2.000000000000000E+50
 75
     0
  1
AcDbOsnapPointRef
 72
     1
331
6E5E9
 73
     2
 91
        0
 40
1.0
 10
0.0
 20
0.0
 30
2.000000000000000E+50
 75
     0
  0
DIMASSOC
  5
6E9C6
102
{ACAD_REACTORS
330
6E9BC
102
}
330
6E9BC
100
AcDbDimAssoc
330
6E9AF
 90
        3
 70
     0
 71
     0
  1
AcDbOsnapPointRef
 72
     1
331
6E5CC
 73
     2
 91
        0
 40
3.141592025271226
 10
0.0
 20
0.0
 30
2.000000000000000E+50
 75
     0
  1
AcDbOsnapPointRef
 72
    13
331
6E5F1
 73
     2
 91
        0
 40
0.0
 10
0.0
 20
0.0
 30
2.000000000000000E+50
 75
     0
  0
DIMASSOC
  5
6E9DE
102
{ACAD_REACTORS
330
6E9D4
102
}
330
6E9D4
100
AcDbDimAssoc
330
6E9C7
 90
        3
 70
     0
 71
     0
  1
AcDbOsnapPointRef
 72
     1
331
6E5F9
 73
     2
 91
        0
 40
1.0
 10
0.0
 20
0.0
 30
2.000000000000000E+50
 75
     0
  1
AcDbOsnapPointRef
 72
    13
331
6E5E3
 73
     2
 91
        0
 40
4.712389294543712
 10
0.0
 20
0.0
 30
2.000000000000000E+50
 75
     0
  0
DIMASSOC
  5
6E9F6
102
{ACAD_REACTORS
330
6E9EC
102
}
330
6E9EC
100
AcDbDimAssoc
330
6E9DF
 90
        3
 70
     0
 71
     0
  1
AcDbOsnapPointRef
 72
     1
331
6E5B6
 73
     2
 91
        0
 40
1.0
 10
0.0
 20
0.0
 30
2.000000000000000E+50
 75
     0
  1
AcDbOsnapPointRef
 72
     5
331
6E570
 73
     2
 91
        0
 40
4.712388980384688
 10
0.0
 20
0.0
 30
0.0
 75
     0
  0
DIMASSOC
  5
6EA0C
102
{ACAD_REACTORS
330
6EA03
102
}
330
6EA03
100
AcDbDimAssoc
330
6E9F7
 90
        2
 70
     0
 71
     0
  1
AcDbOsnapPointRef
 72
     3
331
6E570
 73
     2
 91
        0
 40
0.0
 10
0.0
 20
0.0
 30
0.0
 75
     0
  0
DIMASSOC
  5
6EA24
102
{ACAD_REACTORS
330
6EA1A
102
}
330
6EA1A
100
AcDbDimAssoc
330
6EA0D
 90
        3
 70
     0
 71
     0
  1
AcDbOsnapPointRef
 72
     1
331
6E727
 73
     2
 91
        0
 40
1.0
 10
0.0
 20
0.0
 30
2.000000000000000E+50
 75
     0
  1
AcDbOsnapPointRef
 72
     1
331
6E747
 73
     2
 91
        0
 40
1.0
 10
0.0
 20
0.0
 30
2.000000000000000E+50
 75
     0
  0
DIMASSOC
  5
6EA3C
102
{ACAD_REACTORS
330
6EA32
102
}
330
6EA32
100
AcDbDimAssoc
330
6EA25
 90
        3
 70
     0
 71
     0
  1
AcDbOsnapPointRef
 72
     1
331
6E728
 73
     2
 91
        0
 40
1.0
 10
0.0
 20
0.0
 30
2.000000000000000E+50
 75
     0
  1
AcDbOsnapPointRef
 72
     1
331
6E748
 73
     2
 91
        0
 40
1.0
 10
0.0
 20
0.0
 30
2.000000000000000E+50
 75
     0
  0
DIMASSOC
  5
6EA54
102
{ACAD_REACTORS
330
6EA4A
102
}
330
6EA4A
100
AcDbDimAssoc
330
6EA3D
 90
        3
 70
     0
 71
     0
  1
AcDbOsnapPointRef
 72
     1
331
6E71F
 73
     2
 91
        0
 40
3.141592025271226
 10
0.0
 20
0.0
 30
2.000000000000000E+50
 75
     0
  1
AcDbOsnapPointRef
 72
    13
331
6E73E
 73
     2
 91
        0
 40
0.0
 10
0.0
 20
0.0
 30
2.000000000000000E+50
 75
     0
  0
DIMASSOC
  5
6EA6C
102
{ACAD_REACTORS
330
6EA62
102
}
330
6EA62
100
AcDbDimAssoc
330
6EA55
 90
        3
 70
     0
 71
     0
  1
AcDbOsnapPointRef
 72
     1
331
6E745
 73
     2
 91
        0
 40
1.0
 10
0.0
 20
0.0
 30
2.000000000000000E+50
 75
     0
  1
AcDbOsnapPointRef
 72
     1
331
6E742
 73
     2
 91
        0
 40
1.0
 10
0.0
 20
0.0
 30
2.000000000000000E+50
 75
     0
  0
DIMASSOC
  5
6EA84
102
{ACAD_REACTORS
330
6EA7A
102
}
330
6EA7A
100
AcDbDimAssoc
330
6EA6D
 90
        3
 70
     0
 71
     0
  1
AcDbOsnapPointRef
 72
     1
331
6E749
 73
     2
 91
        0
 40
1.0
 10
0.0
 20
0.0
 30
2.000000000000000E+50
 75
     0
  1
AcDbOsnapPointRef
 72
     1
331
6E73C
 73
     2
 91
        0
 40
1.0
 10
0.0
 20
0.0
 30
2.000000000000000E+50
 75
     0
  0
DIMASSOC
  5
6EA9C
102
{ACAD_REACTORS
330
6EA92
102
}
330
6EA92
100
AcDbDimAssoc
330
6EA85
 90
        3
 70
     0
 71
     0
  1
AcDbOsnapPointRef
 72
     1
331
6E73E
 73
     2
 91
        0
 40
1.570796972566602
 10
0.0
 20
0.0
 30
2.000000000000000E+50
 75
     0
  1
AcDbOsnapPointRef
 72
    13
331
6E6FF
 73
     2
 91
        0
 40
0.0
 10
0.0
 20
0.0
 30
2.000000000000000E+50
 75
     0
  0
DIMASSOC
  5
6EABC
102
{ACAD_REACTORS
330
6EAB2
102
}
330
6EAB2
100
AcDbDimAssoc
330
6EAA5
 90
        3
 70
     0
 71
     0
  1
AcDbOsnapPointRef
 72
     1
331
6E702
 73
     2
 91
        0
 40
1.0
 10
0.0
 20
0.0
 30
2.000000000000000E+50
 75
     0
  1
AcDbOsnapPointRef
 72
     5
331
6E6C6
 73
     2
 91
        0
 40
4.712388980384688
 10
0.0
 20
0.0
 30
0.0
 75
     0
  0
DIMASSOC
  5
6EAD2
102
{ACAD_REACTORS
330
6EAC9
102
}
330
6EAC9
100
AcDbDimAssoc
330
6EABD
 90
        2
 70
     0
 71
     0
  1
AcDbOsnapPointRef
 72
     3
331
6E6C6
 73
     2
 91
        0
 40
0.0
 10
0.0
 20
0.0
 30
0.0
 75
     0
  0
XRECORD
  5
70F81
102
{ACAD_REACTORS
330
70F80
102
}
330
70F80
100
AcDbXrecord
280
     1
 40
7531.0
  1
\A1;4-\U+22058.8
  0
XRECORD
  5
70F85
102
{ACAD_REACTORS
330
70F84
102
}
330
70F84
100
AcDbXrecord
280
     1
 40
7531.0
  1
\A1;4-\U+22058.8
  0
XRECORD
  5
70F89
102
{ACAD_REACTORS
330
70F88
102
}
330
70F88
100
AcDbXrecord
280
     1
 40
6582.0
  1
\A1;4-\U+220511
  0
XRECORD
  5
70F8D
102
{ACAD_REACTORS
330
70F8C
102
}
330
70F8C
100
AcDbXrecord
280
     1
 40
6582.0
  1
\A1;4-\U+220511
  0
XRECORD
  5
70F91
102
{ACAD_REACTORS
330
70F90
102
}
330
70F90
100
AcDbXrecord
280
     1
 40
6582.0
  1
\A1;4-\U+220511
  0
DIMASSOC
  5
6F6EB
102
{ACAD_REACTORS
330
6F6EA
102
}
330
6F6EA
100
AcDbDimAssoc
330
6F6E9
 90
        3
 70
     0
 71
     0
  1
AcDbOsnapPointRef
 72
    13
331
6F6A0
 73
     2
 91
        0
 40
0.0
 10
0.0
 20
0.0
 30
2.000000000000000E+50
 75
     0
  1
AcDbOsnapPointRef
 72
    13
331
6F6A6
 73
     2
 91
        0
 40
0.0
 10
0.0
 20
0.0
 30
2.000000000000000E+50
 75
     0
  0
DIMASSOC
  5
6F6EE
102
{ACAD_REACTORS
330
6F6ED
102
}
330
6F6ED
100
AcDbDimAssoc
330
6F6EC
 90
        3
 70
     0
 71
     0
  1
AcDbOsnapPointRef
 72
     5
331
6F6C2
 73
     2
 91
        0
 40
3.141592653589792
 10
0.0
 20
0.0
 30
0.0
 75
     0
  1
AcDbOsnapPointRef
 72
     5
331
6F6C5
 73
     2
 91
        0
 40
6.283185307179584
 10
0.0
 20
0.0
 30
0.0
 75
     0
  0
DIMASSOC
  5
6F6F1
102
{ACAD_REACTORS
330
6F6F0
102
}
330
6F6F0
100
AcDbDimAssoc
330
6F6EF
 90
        3
 70
     0
 71
     0
  1
AcDbOsnapPointRef
 72
     5
331
6F6C1
 73
     2
 91
        0
 40
0.0
 10
0.0
 20
0.0
 30
0.0
 75
     0
  1
AcDbOsnapPointRef
 72
     1
331
6F6A5
 73
     2
 91
        0
 40
1.0
 10
0.0
 20
0.0
 30
2.000000000000000E+50
 75
     0
  0
DIMASSOC
  5
6F6F4
102
{ACAD_REACTORS
330
6F6F3
102
}
330
6F6F3
100
AcDbDimAssoc
330
6F6F2
 90
        3
 70
     0
 71
     0
  1
AcDbOsnapPointRef
 72
     1
331
6F69E
 73
     2
 91
        0
 40
1.0
 10
0.0
 20
0.0
 30
2.000000000000000E+50
 75
     0
  1
AcDbOsnapPointRef
 72
     1
331
6F69F
 73
     2
 91
        0
 40
1.0
 10
0.0
 20
0.0
 30
2.000000000000000E+50
 75
     0
  0
DIMASSOC
  5
6F6F7
102
{ACAD_REACTORS
330
6F6F6
102
}
330
6F6F6
100
AcDbDimAssoc
330
6F6F5
 90
        1
 70
     0
 71
     0
  1
AcDbOsnapPointRef
 72
    13
331
6F6B1
 73
     2
 91
        0
 40
0.0
 10
0.0
 20
0.0
 30
2.000000000000000E+50
 75
     0
  0
XRECORD
  5
70F93
102
{ACAD_REACTORS
330
70F92
102
}
330
70F92
100
AcDbXrecord
280
     1
 40
7531.0
  1
\A1;4-\U+22058.8
  0
DIMASSOC
  5
6FC92
102
{ACAD_REACTORS
330
6FC89
102
}
330
6FC89
100
AcDbDimAssoc
330
6FC7D
 90
        2
 70
     0
 71
     0
  1
AcDbOsnapPointRef
 72
     3
331
6F74C
 73
     2
 91
        0
 40
0.0
 10
0.0
 20
0.0
 30
0.0
 75
     0
  0
DIMASSOC
  5
6FCA8
102
{ACAD_REACTORS
330
6FC9F
102
}
330
6FC9F
100
AcDbDimAssoc
330
6FC93
 90
        2
 70
     0
 71
     0
  1
AcDbOsnapPointRef
 72
     3
331
6E27D
 73
     2
 91
        0
 40
0.0
 10
0.0
 20
0.0
 30
0.0
 75
     0
  0
XRECORD
  5
70B7B
102
{ACAD_REACTORS
330
70B7A
102
}
330
70B7A
100
AcDbXrecord
280
     1
 40
3.0
  0
LAYOUT
  5
36
102
{ACAD_XDICTIONARY
360
70B7D
102
}
102
{ACAD_REACTORS
330
2F
102
}
330
2F
100
AcDbPlotSettings
  1

  2
HP LaserJet 5200L PCL 5e
  4

  6

 40
0.0
 41
0.0
 42
0.0
 43
0.0
 44
0.0
 45
0.0
 46
0.0
 47
0.0
 48
0.0
 49
0.0
140
0.0
141
0.0
142
1.0
143
1.0
 70
   688
 72
     0
 73
     0
 74
     5
  7
1.ctb
 75
    16
147
1.0
148
0.0
149
0.0
100
AcDbLayout
  1
Layout1
 70
     1
 71
     1
 10
0.0
 20
0.0
 11
420.0
 21
297.0
 12
0.0
 22
0.0
 32
0.0
 14
1.000000000000000E+20
 24
1.000000000000000E+20
 34
1.000000000000000E+20
 15
-1.000000000000000E+20
 25
-1.000000000000000E+20
 35
-1.000000000000000E+20
146
0.0
 13
0.0
 23
0.0
 33
0.0
 16
1.0
 26
0.0
 36
0.0
 17
0.0
 27
1.0
 37
0.0
 76
     0
330
33
  0
LAYOUT
  5
3E
102
{ACAD_XDICTIONARY
360
70B81
102
}
102
{ACAD_REACTORS
330
2F
102
}
330
2F
100
AcDbPlotSettings
  1

  2
HP LaserJet 5200L PCL 5e
  4

  6

 40
0.0
 41
0.0
 42
0.0
 43
0.0
 44
0.0
 45
0.0
 46
0.0
 47
0.0
 48
0.0
 49
0.0
140
0.0
141
0.0
142
1.0
143
1.0
 70
   688
 72
     0
 73
     0
 74
     5
  7
1.ctb
 75
    16
147
1.0
148
0.0
149
0.0
100
AcDbLayout
  1
Layout2
 70
     1
 71
     2
 10
0.0
 20
0.0
 11
12.0
 21
9.0
 12
0.0
 22
0.0
 32
0.0
 14
0.0
 24
0.0
 34
0.0
 15
0.0
 25
0.0
 35
0.0
146
0.0
 13
0.0
 23
0.0
 33
0.0
 16
1.0
 26
0.0
 36
0.0
 17
0.0
 27
1.0
 37
0.0
 76
     0
330
3B
  0
LAYOUT
  5
3A
102
{ACAD_XDICTIONARY
360
70B7F
102
}
102
{ACAD_REACTORS
330
2F
102
}
330
2F
100
AcDbPlotSettings
  1

  2
HP LaserJet 5200L PCL 5e
  4
A4
  6

 40
6.805083274841307
 41
5.027085781097412
 42
6.805068969726562
 43
5.027069091796875
 44
209.9733276367186
 45
296.9683227539062
 46
0.0
 47
0.0
 48
0.0
 49
0.0
140
0.0
141
0.0
142
1.0
143
2.335080412357863
 70
 11952
 72
     1
 73
     1
 74
     0
  7
1.ctb
 75
     0
147
0.4282507765932752
148
37.9631755291519
149
1.597709406975269
100
AcDbLayout
  1
Model
 70
     1
 71
     0
 10
0.0
 20
0.0
 11
12.0
 21
9.0
 12
0.0
 22
0.0
 32
0.0
 14
0.0
 24
0.0
 34
0.0
 15
0.0
 25
0.0
 35
0.0
146
0.0
 13
0.0
 23
0.0
 33
0.0
 16
1.0
 26
0.0
 36
0.0
 17
0.0
 27
1.0
 37
0.0
 76
     0
330
37
331
28
1001
ACAD_PSEXT
1000
HP LaserJet 5200L PCL 5e
1000
HP LaserJet 5200L PCL 5e
1000
DOT4_001
1000

1070
     0
  0
MATERIAL
  5
12
102
{ACAD_XDICTIONARY
360
E0
102
}
102
{ACAD_REACTORS
330
10
102
}
330
10
100
AcDbMaterial
  1
ByBlock
  0
MATERIAL
  5
11
102
{ACAD_XDICTIONARY
360
DE
102
}
102
{ACAD_REACTORS
330
10
102
}
330
10
100
AcDbMaterial
  1
ByLayer
  0
MATERIAL
  5
13
102
{ACAD_XDICTIONARY
360
E2
102
}
102
{ACAD_REACTORS
330
10
102
}
330
10
100
AcDbMaterial
  1
Global
  0
MLEADERSTYLE
  5
658
102
{ACAD_REACTORS
330
657
102
}
330
657
100
AcDbMLeaderStyle
170
     2
171
     1
172
     0
 90
        2
 40
0.0
 41
0.0
173
     1
 91
-1056964608
340
29
 92
       -2
290
     1
 42
2.0
291
     1
 43
0.36
  3
Standard
 44
4.0
300

342
26
174
     1
178
     6
175
     1
176
     0
 93
-1056964608
 45
4.0
292
     0
297
     0
 46
4.0
 94
-1056964608
 47
1.0
 49
1.0
140
1.0
293
     1
141
0.0
294
     1
177
     0
142
1.0
295
     0
296
     0
143
0.125
1001
ACAD_MLEADERVER
1070
     2
  0
MLINESTYLE
  5
2D
102
{ACAD_REACTORS
330
2C
102
}
330
2C
100
AcDbMlineStyle
  2
STANDARD
 70
     0
  3

 62
   256
 51
90.0
 52
90.0
 71
     2
 49
0.5
 62
   256
  6
BYLAYER
 49
-0.5
 62
   256
  6
BYLAYER
  0
ACDBPLACEHOLDER
  5
F
102
{ACAD_REACTORS
330
E
102
}
330
E
  0
SCALE
  5
636
102
{ACAD_REACTORS
330
635
102
}
330
635
100
AcDbScale
 70
     0
300
1:1
140
1.0
141
1.0
290
     1
  0
SCALE
  5
637
102
{ACAD_REACTORS
330
635
102
}
330
635
100
AcDbScale
 70
     0
300
1:2
140
1.0
141
2.0
290
     0
  0
SCALE
  5
638
102
{ACAD_REACTORS
330
635
102
}
330
635
100
AcDbScale
 70
     0
300
1:4
140
1.0
141
4.0
290
     0
  0
SCALE
  5
639
102
{ACAD_REACTORS
330
635
102
}
330
635
100
AcDbScale
 70
     0
300
1:5
140
1.0
141
5.0
290
     0
  0
SCALE
  5
63A
102
{ACAD_REACTORS
330
635
102
}
330
635
100
AcDbScale
 70
     0
300
1:8
140
1.0
141
8.0
290
     0
  0
SCALE
  5
63B
102
{ACAD_REACTORS
330
635
102
}
330
635
100
AcDbScale
 70
     0
300
1:10
140
1.0
141
10.0
290
     0
  0
SCALE
  5
63C
102
{ACAD_REACTORS
330
635
102
}
330
635
100
AcDbScale
 70
     0
300
1:16
140
1.0
141
16.0
290
     0
  0
SCALE
  5
63D
102
{ACAD_REACTORS
330
635
102
}
330
635
100
AcDbScale
 70
     0
300
1:20
140
1.0
141
20.0
290
     0
  0
SCALE
  5
63E
102
{ACAD_REACTORS
330
635
102
}
330
635
100
AcDbScale
 70
     0
300
1:30
140
1.0
141
30.0
290
     0
  0
SCALE
  5
63F
102
{ACAD_REACTORS
330
635
102
}
330
635
100
AcDbScale
 70
     0
300
1:40
140
1.0
141
40.0
290
     0
  0
SCALE
  5
640
102
{ACAD_REACTORS
330
635
102
}
330
635
100
AcDbScale
 70
     0
300
1:50
140
1.0
141
50.0
290
     0
  0
SCALE
  5
641
102
{ACAD_REACTORS
330
635
102
}
330
635
100
AcDbScale
 70
     0
300
1:100
140
1.0
141
100.0
290
     0
  0
SCALE
  5
642
102
{ACAD_REACTORS
330
635
102
}
330
635
100
AcDbScale
 70
     0
300
2:1
140
2.0
141
1.0
290
     0
  0
SCALE
  5
643
102
{ACAD_REACTORS
330
635
102
}
330
635
100
AcDbScale
 70
     0
300
4:1
140
4.0
141
1.0
290
     0
  0
SCALE
  5
644
102
{ACAD_REACTORS
330
635
102
}
330
635
100
AcDbScale
 70
     0
300
8:1
140
8.0
141
1.0
290
     0
  0
SCALE
  5
645
102
{ACAD_REACTORS
330
635
102
}
330
635
100
AcDbScale
 70
     0
300
10:1
140
10.0
141
1.0
290
     0
  0
SCALE
  5
646
102
{ACAD_REACTORS
330
635
102
}
330
635
100
AcDbScale
 70
     0
300
100:1
140
100.0
141
1.0
290
     0
  0
SCALE
  5
647
102
{ACAD_REACTORS
330
635
102
}
330
635
100
AcDbScale
 70
     0
300
1/128" = 1'-0"
140
0.0078125
141
12.0
290
     0
  0
SCALE
  5
648
102
{ACAD_REACTORS
330
635
102
}
330
635
100
AcDbScale
 70
     0
300
1/64" = 1'-0"
140
0.015625
141
12.0
290
     0
  0
SCALE
  5
649
102
{ACAD_REACTORS
330
635
102
}
330
635
100
AcDbScale
 70
     0
300
1/32" = 1'-0"
140
0.03125
141
12.0
290
     0
  0
SCALE
  5
64A
102
{ACAD_REACTORS
330
635
102
}
330
635
100
AcDbScale
 70
     0
300
1/16" = 1'-0"
140
0.0625
141
12.0
290
     0
  0
SCALE
  5
64B
102
{ACAD_REACTORS
330
635
102
}
330
635
100
AcDbScale
 70
     0
300
3/32" = 1'-0"
140
0.09375
141
12.0
290
     0
  0
SCALE
  5
64C
102
{ACAD_REACTORS
330
635
102
}
330
635
100
AcDbScale
 70
     0
300
1/8" = 1'-0"
140
0.125
141
12.0
290
     0
  0
SCALE
  5
64D
102
{ACAD_REACTORS
330
635
102
}
330
635
100
AcDbScale
 70
     0
300
3/16" = 1'-0"
140
0.1875
141
12.0
290
     0
  0
SCALE
  5
64E
102
{ACAD_REACTORS
330
635
102
}
330
635
100
AcDbScale
 70
     0
300
1/4" = 1'-0"
140
0.25
141
12.0
290
     0
  0
SCALE
  5
64F
102
{ACAD_REACTORS
330
635
102
}
330
635
100
AcDbScale
 70
     0
300
3/8" = 1'-0"
140
0.375
141
12.0
290
     0
  0
SCALE
  5
650
102
{ACAD_REACTORS
330
635
102
}
330
635
100
AcDbScale
 70
     0
300
1/2" = 1'-0"
140
0.5
141
12.0
290
     0
  0
SCALE
  5
651
102
{ACAD_REACTORS
330
635
102
}
330
635
100
AcDbScale
 70
     0
300
3/4" = 1'-0"
140
0.75
141
12.0
290
     0
  0
SCALE
  5
652
102
{ACAD_REACTORS
330
635
102
}
330
635
100
AcDbScale
 70
     0
300
1" = 1'-0"
140
1.0
141
12.0
290
     0
  0
SCALE
  5
653
102
{ACAD_REACTORS
330
635
102
}
330
635
100
AcDbScale
 70
     0
300
1-1/2" = 1'-0"
140
1.5
141
12.0
290
     0
  0
SCALE
  5
654
102
{ACAD_REACTORS
330
635
102
}
330
635
100
AcDbScale
 70
     0
300
3" = 1'-0"
140
3.0
141
12.0
290
     0
  0
SCALE
  5
655
102
{ACAD_REACTORS
330
635
102
}
330
635
100
AcDbScale
 70
     0
300
6" = 1'-0"
140
6.0
141
12.0
290
     0
  0
SCALE
  5
656
102
{ACAD_REACTORS
330
635
102
}
330
635
100
AcDbScale
 70
     0
300
1'-0" = 1'-0"
140
12.0
141
12.0
290
     0
  0
TABLESTYLE
  5
32
102
{ACAD_XDICTIONARY
360
66B
102
}
102
{ACAD_REACTORS
330
31
102
}
330
31
100
AcDbTableStyle
  3
Standard
 70
     0
 71
     0
 40
1.5
 41
1.5
280
     0
281
     0
  7
Standard
140
4.5
170
     2
 62
     0
 63
     7
283
     0
274
    -2
284
     1
 64
     0
275
    -2
285
     1
 65
     0
276
    -2
286
     1
 66
     0
277
    -2
287
     1
 67
     0
278
    -2
288
     1
 68
     0
279
    -2
289
     1
 69
     0
  7
Standard
140
6.0
170
     5
 62
     0
 63
     7
283
     0
274
    -2
284
     1
 64
     0
275
    -2
285
     1
 65
     0
276
    -2
286
     1
 66
     0
277
    -2
287
     1
 67
     0
278
    -2
288
     1
 68
     0
279
    -2
289
     1
 69
     0
  7
Standard
140
4.5
170
     5
 62
     0
 63
     7
283
     0
274
    -2
284
     1
 64
     0
275
    -2
285
     1
 65
     0
276
    -2
286
     1
 66
     0
277
    -2
287
     1
 67
     0
278
    -2
288
     1
 68
     0
279
    -2
289
     1
 69
     0
  0
VISUALSTYLE
  5
1A
102
{ACAD_REACTORS
330
14
102
}
330
14
100
AcDbVisualStyle
  2
2dWireframe
 70
     4
 71
     0
 72
     2
 73
     0
 90
        0
 40
-0.6
 41
-30.0
 62
     5
 63
     7
 74
     1
 91
        4
 64
     7
 65
   257
 75
     1
175
     1
 42
1.0
 92
        0
 66
   257
 43
1.0
 76
     1
 77
     6
 78
     2
 67
     7
 79
     5
170
     0
171
     0
290
     0
174
     0
 93
        1
 44
0.0
173
     0
291
     0
 45
0.0
1001
ACAD
1000
AcDbSavedByObjectVersion
1070
     0
1000
AcDbSavedByObjectVersion
1070
     0
1000
AcDbSavedByObjectVersion
1070
     0
1000
AcDbSavedByObjectVersion
1070
     0
1000
AcDbSavedByObjectVersion
1070
     0
1000
AcDbSavedByObjectVersion
1070
     0
1000
AcDbSavedByObjectVersion
1070
     0
1000
AcDbSavedByObjectVersion
1070
     0
1000
AcDbSavedByObjectVersion
1070
     0
1000
AcDbSavedByObjectVersion
1070
     0
1000
AcDbSavedByObjectVersion
1070
     0
1000
AcDbSavedByObjectVersion
1070
     0
1000
AcDbSavedByObjectVersion
1070
     0
1000
AcDbSavedByObjectVersion
1070
     0
1000
AcDbSavedByObjectVersion
1070
     0
1000
AcDbSavedByObjectVersion
1070
     0
1000
AcDbSavedByObjectVersion
1070
     0
1000
AcDbSavedByObjectVersion
1070
     0
1000
AcDbSavedByObjectVersion
1070
     0
1000
AcDbSavedByObjectVersion
1070
     0
1000
AcDbSavedByObjectVersion
1070
     0
1000
AcDbSavedByObjectVersion
1070
     0
1000
AcDbSavedByObjectVersion
1070
     0
  0
VISUALSTYLE
  5
1C
102
{ACAD_REACTORS
330
14
102
}
330
14
100
AcDbVisualStyle
  2
3D Hidden
 70
     6
 71
     1
 72
     2
 73
     2
 90
        0
 40
-0.6
 41
-30.0
 62
     5
 63
     7
 74
     2
 91
        2
 64
     7
 65
   257
 75
     2
175
     1
 42
40.0
 92
        0
 66
   257
 43
1.0
 76
     1
 77
     6
 78
     2
 67
     7
 79
     3
170
     0
171
     0
290
     0
174
     0
 93
        1
 44
0.0
173
     0
291
     0
 45
0.0
1001
ACAD
1000
AcDbSavedByObjectVersion
1070
     0
1000
AcDbSavedByObjectVersion
1070
     0
1000
AcDbSavedByObjectVersion
1070
     0
1000
AcDbSavedByObjectVersion
1070
     0
1000
AcDbSavedByObjectVersion
1070
     0
1000
AcDbSavedByObjectVersion
1070
     0
1000
AcDbSavedByObjectVersion
1070
     0
1000
AcDbSavedByObjectVersion
1070
     0
1000
AcDbSavedByObjectVersion
1070
     0
1000
AcDbSavedByObjectVersion
1070
     0
1000
AcDbSavedByObjectVersion
1070
     0
1000
AcDbSavedByObjectVersion
1070
     0
1000
AcDbSavedByObjectVersion
1070
     0
1000
AcDbSavedByObjectVersion
1070
     0
1000
AcDbSavedByObjectVersion
1070
     0
1000
AcDbSavedByObjectVersion
1070
     0
1000
AcDbSavedByObjectVersion
1070
     0
1000
AcDbSavedByObjectVersion
1070
     0
1000
AcDbSavedByObjectVersion
1070
     0
1000
AcDbSavedByObjectVersion
1070
     0
1000
AcDbSavedByObjectVersion
1070
     0
1000
AcDbSavedByObjectVersion
1070
     0
1000
AcDbSavedByObjectVersion
1070
     0
  0
VISUALSTYLE
  5
1B
102
{ACAD_REACTORS
330
14
102
}
330
14
100
AcDbVisualStyle
  2
3dWireframe
 70
     5
 71
     0
 72
     2
 73
     0
 90
        0
 40
-0.6
 41
-30.0
 62
     5
 63
     7
 74
     1
 91
        4
 64
     7
 65
   257
 75
     1
175
     1
 42
1.0
 92
        0
 66
   257
 43
1.0
 76
     1
 77
     6
 78
     2
 67
     7
 79
     5
170
     0
171
     0
290
     0
174
     0
 93
        1
 44
0.0
173
     0
291
     0
 45
0.0
1001
ACAD
1000
AcDbSavedByObjectVersion
1070
     0
1000
AcDbSavedByObjectVersion
1070
     0
1000
AcDbSavedByObjectVersion
1070
     0
1000
AcDbSavedByObjectVersion
1070
     0
1000
AcDbSavedByObjectVersion
1070
     0
1000
AcDbSavedByObjectVersion
1070
     0
1000
AcDbSavedByObjectVersion
1070
     0
1000
AcDbSavedByObjectVersion
1070
     0
1000
AcDbSavedByObjectVersion
1070
     0
1000
AcDbSavedByObjectVersion
1070
     0
1000
AcDbSavedByObjectVersion
1070
     0
1000
AcDbSavedByObjectVersion
1070
     0
1000
AcDbSavedByObjectVersion
1070
     0
1000
AcDbSavedByObjectVersion
1070
     0
1000
AcDbSavedByObjectVersion
1070
     0
1000
AcDbSavedByObjectVersion
1070
     0
1000
AcDbSavedByObjectVersion
1070
     0
1000
AcDbSavedByObjectVersion
1070
     0
1000
AcDbSavedByObjectVersion
1070
     0
1000
AcDbSavedByObjectVersion
1070
     0
1000
AcDbSavedByObjectVersion
1070
     0
1000
AcDbSavedByObjectVersion
1070
     0
1000
AcDbSavedByObjectVersion
1070
     0
  0
VISUALSTYLE
  5
19
102
{ACAD_REACTORS
330
14
102
}
330
14
100
AcDbVisualStyle
  2
Basic
 70
     7
 71
     1
 72
     0
 73
     1
 90
        0
 40
-0.6
 41
-30.0
 62
     5
 63
     7
 74
     0
 91
        4
 64
     7
 65
   257
 75
     1
175
     1
 42
1.0
 92
        8
 66
     7
 43
1.0
 76
     1
 77
     6
 78
     2
 67
     7
 79
     5
170
     0
171
     0
290
     0
174
     0
 93
        1
 44
0.0
173
     0
291
     1
 45
0.0
1001
ACAD
1000
AcDbSavedByObjectVersion
1070
     0
1000
AcDbSavedByObjectVersion
1070
     0
1000
AcDbSavedByObjectVersion
1070
     0
1000
AcDbSavedByObjectVersion
1070
     0
1000
AcDbSavedByObjectVersion
1070
     0
1000
AcDbSavedByObjectVersion
1070
     0
1000
AcDbSavedByObjectVersion
1070
     0
1000
AcDbSavedByObjectVersion
1070
     0
1000
AcDbSavedByObjectVersion
1070
     0
1000
AcDbSavedByObjectVersion
1070
     0
1000
AcDbSavedByObjectVersion
1070
     0
1000
AcDbSavedByObjectVersion
1070
     0
1000
AcDbSavedByObjectVersion
1070
     0
1000
AcDbSavedByObjectVersion
1070
     0
1000
AcDbSavedByObjectVersion
1070
     0
1000
AcDbSavedByObjectVersion
1070
     0
1000
AcDbSavedByObjectVersion
1070
     0
1000
AcDbSavedByObjectVersion
1070
     0
1000
AcDbSavedByObjectVersion
1070
     0
1000
AcDbSavedByObjectVersion
1070
     0
1000
AcDbSavedByObjectVersion
1070
     0
1000
AcDbSavedByObjectVersion
1070
     0
1000
AcDbSavedByObjectVersion
1070
     0
  0
VISUALSTYLE
  5
20
102
{ACAD_REACTORS
330
14
102
}
330
14
100
AcDbVisualStyle
  2
Brighten
 70
    12
 71
     2
 72
     2
 73
     0
 90
        0
 40
-0.6
 41
-30.0
 62
     5
 63
     7
 74
     1
 91
        4
 64
     7
 65
   257
 75
     1
175
     1
 42
1.0
 92
        8
 66
     7
 43
1.0
 76
     1
 77
     6
 78
     2
 67
     7
 79
     5
170
     0
171
     0
290
     0
174
     0
 93
        1
 44
50.0
173
     0
291
     1
 45
0.0
1001
ACAD
1000
AcDbSavedByObjectVersion
1070
     0
1000
AcDbSavedByObjectVersion
1070
     0
1000
AcDbSavedByObjectVersion
1070
     0
1000
AcDbSavedByObjectVersion
1070
     0
1000
AcDbSavedByObjectVersion
1070
     0
1000
AcDbSavedByObjectVersion
1070
     0
1000
AcDbSavedByObjectVersion
1070
     0
1000
AcDbSavedByObjectVersion
1070
     0
1000
AcDbSavedByObjectVersion
1070
     0
1000
AcDbSavedByObjectVersion
1070
     0
1000
AcDbSavedByObjectVersion
1070
     0
1000
AcDbSavedByObjectVersion
1070
     0
1000
AcDbSavedByObjectVersion
1070
     0
1000
AcDbSavedByObjectVersion
1070
     0
1000
AcDbSavedByObjectVersion
1070
     0
1000
AcDbSavedByObjectVersion
1070
     0
1000
AcDbSavedByObjectVersion
1070
     0
1000
AcDbSavedByObjectVersion
1070
     0
1000
AcDbSavedByObjectVersion
1070
     0
1000
AcDbSavedByObjectVersion
1070
     0
1000
AcDbSavedByObjectVersion
1070
     0
1000
AcDbSavedByObjectVersion
1070
     0
1000
AcDbSavedByObjectVersion
1070
     0
  0
VISUALSTYLE
  5
24
102
{ACAD_REACTORS
330
14
102
}
330
14
100
AcDbVisualStyle
  2
ColorChange
 70
    16
 71
     2
 72
     2
 73
     3
 90
        0
 40
-0.6
 41
-30.0
 62
     5
 63
     8
 74
     1
 91
        4
 64
     7
 65
   257
 75
     1
175
     1
 42
1.0
 92
        8
 66
     8
 43
1.0
 76
     1
 77
     6
 78
     2
 67
     7
 79
     5
170
     0
171
     0
290
     0
174
     0
 93
        1
 44
0.0
173
     0
291
     1
 45
0.0
1001
ACAD
1000
AcDbSavedByObjectVersion
1070
     0
1000
AcDbSavedByObjectVersion
1070
     0
1000
AcDbSavedByObjectVersion
1070
     0
1000
AcDbSavedByObjectVersion
1070
     0
1000
AcDbSavedByObjectVersion
1070
     0
1000
AcDbSavedByObjectVersion
1070
     0
1000
AcDbSavedByObjectVersion
1070
     0
1000
AcDbSavedByObjectVersion
1070
     0
1000
AcDbSavedByObjectVersion
1070
     0
1000
AcDbSavedByObjectVersion
1070
     0
1000
AcDbSavedByObjectVersion
1070
     0
1000
AcDbSavedByObjectVersion
1070
     0
1000
AcDbSavedByObjectVersion
1070
     0
1000
AcDbSavedByObjectVersion
1070
     0
1000
AcDbSavedByObjectVersion
1070
     0
1000
AcDbSavedByObjectVersion
1070
     0
1000
AcDbSavedByObjectVersion
1070
     0
1000
AcDbSavedByObjectVersion
1070
     0
1000
AcDbSavedByObjectVersion
1070
     0
1000
AcDbSavedByObjectVersion
1070
     0
1000
AcDbSavedByObjectVersion
1070
     0
1000
AcDbSavedByObjectVersion
1070
     0
1000
AcDbSavedByObjectVersion
1070
     0
  0
VISUALSTYLE
  5
1D
102
{ACAD_REACTORS
330
14
102
}
330
14
100
AcDbVisualStyle
  2
Conceptual
 70
     9
 71
     3
 72
     2
 73
     0
 90
        0
 40
-0.6
 41
-30.0
 62
     5
 63
     7
 74
     2
 91
        2
 64
     7
 65
   257
 75
     1
175
     1
 42
40.0
 92
        8
 66
     7
 43
1.0
 76
     1
 77
     6
 78
     2
 67
     7
 79
     3
170
     0
171
     0
290
     0
174
     0
 93
        1
 44
0.0
173
     0
291
     0
 45
0.0
1001
ACAD
1000
AcDbSavedByObjectVersion
1070
     0
1000
AcDbSavedByObjectVersion
1070
     0
1000
AcDbSavedByObjectVersion
1070
     0
1000
AcDbSavedByObjectVersion
1070
     0
1000
AcDbSavedByObjectVersion
1070
     0
1000
AcDbSavedByObjectVersion
1070
     0
1000
AcDbSavedByObjectVersion
1070
     0
1000
AcDbSavedByObjectVersion
1070
     0
1000
AcDbSavedByObjectVersion
1070
     0
1000
AcDbSavedByObjectVersion
1070
     0
1000
AcDbSavedByObjectVersion
1070
     0
1000
AcDbSavedByObjectVersion
1070
     0
1000
AcDbSavedByObjectVersion
1070
     0
1000
AcDbSavedByObjectVersion
1070
     0
1000
AcDbSavedByObjectVersion
1070
     0
1000
AcDbSavedByObjectVersion
1070
     0
1000
AcDbSavedByObjectVersion
1070
     0
1000
AcDbSavedByObjectVersion
1070
     0
1000
AcDbSavedByObjectVersion
1070
     0
1000
AcDbSavedByObjectVersion
1070
     0
1000
AcDbSavedByObjectVersion
1070
     0
1000
AcDbSavedByObjectVersion
1070
     0
1000
AcDbSavedByObjectVersion
1070
     0
  0
VISUALSTYLE
  5
1F
102
{ACAD_REACTORS
330
14
102
}
330
14
100
AcDbVisualStyle
  2
Dim
 70
    11
 71
     2
 72
     2
 73
     0
 90
        0
 40
-0.6
 41
-30.0
 62
     5
 63
     7
 74
     1
 91
        4
 64
     7
 65
   257
 75
     1
175
     1
 42
1.0
 92
        8
 66
     7
 43
1.0
 76
     1
 77
     6
 78
     2
 67
     7
 79
     5
170
     0
171
     0
290
     0
174
     0
 93
        1
 44
-50.0
173
     0
291
     1
 45
0.0
1001
ACAD
1000
AcDbSavedByObjectVersion
1070
     0
1000
AcDbSavedByObjectVersion
1070
     0
1000
AcDbSavedByObjectVersion
1070
     0
1000
AcDbSavedByObjectVersion
1070
     0
1000
AcDbSavedByObjectVersion
1070
     0
1000
AcDbSavedByObjectVersion
1070
     0
1000
AcDbSavedByObjectVersion
1070
     0
1000
AcDbSavedByObjectVersion
1070
     0
1000
AcDbSavedByObjectVersion
1070
     0
1000
AcDbSavedByObjectVersion
1070
     0
1000
AcDbSavedByObjectVersion
1070
     0
1000
AcDbSavedByObjectVersion
1070
     0
1000
AcDbSavedByObjectVersion
1070
     0
1000
AcDbSavedByObjectVersion
1070
     0
1000
AcDbSavedByObjectVersion
1070
     0
1000
AcDbSavedByObjectVersion
1070
     0
1000
AcDbSavedByObjectVersion
1070
     0
1000
AcDbSavedByObjectVersion
1070
     0
1000
AcDbSavedByObjectVersion
1070
     0
1000
AcDbSavedByObjectVersion
1070
     0
1000
AcDbSavedByObjectVersion
1070
     0
1000
AcDbSavedByObjectVersion
1070
     0
1000
AcDbSavedByObjectVersion
1070
     0
  0
VISUALSTYLE
  5
23
102
{ACAD_REACTORS
330
14
102
}
330
14
100
AcDbVisualStyle
  2
Facepattern
 70
    15
 71
     2
 72
     2
 73
     0
 90
        0
 40
-0.6
 41
-30.0
 62
     5
 63
     7
 74
     1
 91
        4
 64
     7
 65
   257
 75
     1
175
     1
 42
1.0
 92
        8
 66
     7
 43
1.0
 76
     1
 77
     6
 78
     2
 67
     7
 79
     5
170
     0
171
     0
290
     0
174
     0
 93
        1
 44
0.0
173
     0
291
     1
 45
0.0
1001
ACAD
1000
AcDbSavedByObjectVersion
1070
     0
1000
AcDbSavedByObjectVersion
1070
     0
1000
AcDbSavedByObjectVersion
1070
     0
1000
AcDbSavedByObjectVersion
1070
     0
1000
AcDbSavedByObjectVersion
1070
     0
1000
AcDbSavedByObjectVersion
1070
     0
1000
AcDbSavedByObjectVersion
1070
     0
1000
AcDbSavedByObjectVersion
1070
     0
1000
AcDbSavedByObjectVersion
1070
     0
1000
AcDbSavedByObjectVersion
1070
     0
1000
AcDbSavedByObjectVersion
1070
     0
1000
AcDbSavedByObjectVersion
1070
     0
1000
AcDbSavedByObjectVersion
1070
     0
1000
AcDbSavedByObjectVersion
1070
     0
1000
AcDbSavedByObjectVersion
1070
     0
1000
AcDbSavedByObjectVersion
1070
     0
1000
AcDbSavedByObjectVersion
1070
     0
1000
AcDbSavedByObjectVersion
1070
     0
1000
AcDbSavedByObjectVersion
1070
     0
1000
AcDbSavedByObjectVersion
1070
     0
1000
AcDbSavedByObjectVersion
1070
     0
1000
AcDbSavedByObjectVersion
1070
     0
1000
AcDbSavedByObjectVersion
1070
     0
  0
VISUALSTYLE
  5
15
102
{ACAD_REACTORS
330
14
102
}
330
14
100
AcDbVisualStyle
  2
Flat
 70
     0
 71
     2
 72
     1
 73
     1
 90
        2
 40
-0.6
 41
30.0
 62
     5
 63
     7
 74
     0
 91
        4
 64
     7
 65
   257
 75
     1
175
     1
 42
1.0
 92
        8
 66
     7
 43
1.0
 76
     1
 77
     6
 78
     2
 67
     7
 79
     5
170
     0
171
     0
290
     0
174
     0
 93
       13
 44
0.0
173
     0
291
     1
 45
0.0
1001
ACAD
1000
AcDbSavedByObjectVersion
1070
     0
1000
AcDbSavedByObjectVersion
1070
     0
1000
AcDbSavedByObjectVersion
1070
     0
1000
AcDbSavedByObjectVersion
1070
     0
1000
AcDbSavedByObjectVersion
1070
     0
1000
AcDbSavedByObjectVersion
1070
     0
1000
AcDbSavedByObjectVersion
1070
     0
1000
AcDbSavedByObjectVersion
1070
     0
1000
AcDbSavedByObjectVersion
1070
     0
1000
AcDbSavedByObjectVersion
1070
     0
1000
AcDbSavedByObjectVersion
1070
     0
1000
AcDbSavedByObjectVersion
1070
     0
1000
AcDbSavedByObjectVersion
1070
     0
1000
AcDbSavedByObjectVersion
1070
     0
1000
AcDbSavedByObjectVersion
1070
     0
1000
AcDbSavedByObjectVersion
1070
     0
1000
AcDbSavedByObjectVersion
1070
     0
1000
AcDbSavedByObjectVersion
1070
     0
1000
AcDbSavedByObjectVersion
1070
     0
1000
AcDbSavedByObjectVersion
1070
     0
1000
AcDbSavedByObjectVersion
1070
     0
1000
AcDbSavedByObjectVersion
1070
     0
1000
AcDbSavedByObjectVersion
1070
     0
  0
VISUALSTYLE
  5
16
102
{ACAD_REACTORS
330
14
102
}
330
14
100
AcDbVisualStyle
  2
FlatWithEdges
 70
     1
 71
     2
 72
     1
 73
     1
 90
        2
 40
-0.6
 41
30.0
 62
     5
 63
     7
 74
     1
 91
        4
 64
     7
 65
   257
 75
     1
175
     1
 42
1.0
 92
        0
 66
   257
 43
1.0
 76
     1
 77
     6
 78
     2
 67
     7
 79
     5
170
     0
171
     0
290
     0
174
     0
 93
       13
 44
0.0
173
     0
291
     1
 45
0.0
1001
ACAD
1000
AcDbSavedByObjectVersion
1070
     0
1000
AcDbSavedByObjectVersion
1070
     0
1000
AcDbSavedByObjectVersion
1070
     0
1000
AcDbSavedByObjectVersion
1070
     0
1000
AcDbSavedByObjectVersion
1070
     0
1000
AcDbSavedByObjectVersion
1070
     0
1000
AcDbSavedByObjectVersion
1070
     0
1000
AcDbSavedByObjectVersion
1070
     0
1000
AcDbSavedByObjectVersion
1070
     0
1000
AcDbSavedByObjectVersion
1070
     0
1000
AcDbSavedByObjectVersion
1070
     0
1000
AcDbSavedByObjectVersion
1070
     0
1000
AcDbSavedByObjectVersion
1070
     0
1000
AcDbSavedByObjectVersion
1070
     0
1000
AcDbSavedByObjectVersion
1070
     0
1000
AcDbSavedByObjectVersion
1070
     0
1000
AcDbSavedByObjectVersion
1070
     0
1000
AcDbSavedByObjectVersion
1070
     0
1000
AcDbSavedByObjectVersion
1070
     0
1000
AcDbSavedByObjectVersion
1070
     0
1000
AcDbSavedByObjectVersion
1070
     0
1000
AcDbSavedByObjectVersion
1070
     0
1000
AcDbSavedByObjectVersion
1070
     0
  0
VISUALSTYLE
  5
17
102
{ACAD_REACTORS
330
14
102
}
330
14
100
AcDbVisualStyle
  2
Gouraud
 70
     2
 71
     2
 72
     2
 73
     1
 90
        2
 40
-0.6
 41
30.0
 62
     5
 63
     7
 74
     0
 91
        4
 64
     7
 65
   257
 75
     1
175
     1
 42
1.0
 92
        0
 66
     7
 43
1.0
 76
     1
 77
     6
 78
     2
 67
     7
 79
     5
170
     0
171
     0
290
     0
174
     0
 93
       13
 44
0.0
173
     0
291
     1
 45
0.0
1001
ACAD
1000
AcDbSavedByObjectVersion
1070
     0
1000
AcDbSavedByObjectVersion
1070
     0
1000
AcDbSavedByObjectVersion
1070
     0
1000
AcDbSavedByObjectVersion
1070
     0
1000
AcDbSavedByObjectVersion
1070
     0
1000
AcDbSavedByObjectVersion
1070
     0
1000
AcDbSavedByObjectVersion
1070
     0
1000
AcDbSavedByObjectVersion
1070
     0
1000
AcDbSavedByObjectVersion
1070
     0
1000
AcDbSavedByObjectVersion
1070
     0
1000
AcDbSavedByObjectVersion
1070
     0
1000
AcDbSavedByObjectVersion
1070
     0
1000
AcDbSavedByObjectVersion
1070
     0
1000
AcDbSavedByObjectVersion
1070
     0
1000
AcDbSavedByObjectVersion
1070
     0
1000
AcDbSavedByObjectVersion
1070
     0
1000
AcDbSavedByObjectVersion
1070
     0
1000
AcDbSavedByObjectVersion
1070
     0
1000
AcDbSavedByObjectVersion
1070
     0
1000
AcDbSavedByObjectVersion
1070
     0
1000
AcDbSavedByObjectVersion
1070
     0
1000
AcDbSavedByObjectVersion
1070
     0
1000
AcDbSavedByObjectVersion
1070
     0
  0
VISUALSTYLE
  5
18
102
{ACAD_REACTORS
330
14
102
}
330
14
100
AcDbVisualStyle
  2
GouraudWithEdges
 70
     3
 71
     2
 72
     2
 73
     1
 90
        2
 40
-0.6
 41
30.0
 62
     5
 63
     7
 74
     1
 91
        4
 64
     7
 65
   257
 75
     1
175
     1
 42
1.0
 92
        0
 66
   257
 43
1.0
 76
     1
 77
     6
 78
     2
 67
     7
 79
     5
170
     0
171
     0
290
     0
174
     0
 93
       13
 44
0.0
173
     0
291
     1
 45
0.0
1001
ACAD
1000
AcDbSavedByObjectVersion
1070
     0
1000
AcDbSavedByObjectVersion
1070
     0
1000
AcDbSavedByObjectVersion
1070
     0
1000
AcDbSavedByObjectVersion
1070
     0
1000
AcDbSavedByObjectVersion
1070
     0
1000
AcDbSavedByObjectVersion
1070
     0
1000
AcDbSavedByObjectVersion
1070
     0
1000
AcDbSavedByObjectVersion
1070
     0
1000
AcDbSavedByObjectVersion
1070
     0
1000
AcDbSavedByObjectVersion
1070
     0
1000
AcDbSavedByObjectVersion
1070
     0
1000
AcDbSavedByObjectVersion
1070
     0
1000
AcDbSavedByObjectVersion
1070
     0
1000
AcDbSavedByObjectVersion
1070
     0
1000
AcDbSavedByObjectVersion
1070
     0
1000
AcDbSavedByObjectVersion
1070
     0
1000
AcDbSavedByObjectVersion
1070
     0
1000
AcDbSavedByObjectVersion
1070
     0
1000
AcDbSavedByObjectVersion
1070
     0
1000
AcDbSavedByObjectVersion
1070
     0
1000
AcDbSavedByObjectVersion
1070
     0
1000
AcDbSavedByObjectVersion
1070
     0
1000
AcDbSavedByObjectVersion
1070
     0
  0
VISUALSTYLE
  5
22
102
{ACAD_REACTORS
330
14
102
}
330
14
100
AcDbVisualStyle
  2
Linepattern
 70
    14
 71
     2
 72
     2
 73
     0
 90
        0
 40
-0.6
 41
-30.0
 62
     5
 63
     7
 74
     1
 91
        4
 64
     7
 65
   257
 75
     7
175
     7
 42
1.0
 92
        8
 66
     7
 43
1.0
 76
     1
 77
     6
 78
     2
 67
     7
 79
     5
170
     0
171
     0
290
     0
174
     0
 93
        1
 44
0.0
173
     0
291
     1
 45
0.0
1001
ACAD
1000
AcDbSavedByObjectVersion
1070
     0
1000
AcDbSavedByObjectVersion
1070
     0
1000
AcDbSavedByObjectVersion
1070
     0
1000
AcDbSavedByObjectVersion
1070
     0
1000
AcDbSavedByObjectVersion
1070
     0
1000
AcDbSavedByObjectVersion
1070
     0
1000
AcDbSavedByObjectVersion
1070
     0
1000
AcDbSavedByObjectVersion
1070
     0
1000
AcDbSavedByObjectVersion
1070
     0
1000
AcDbSavedByObjectVersion
1070
     0
1000
AcDbSavedByObjectVersion
1070
     0
1000
AcDbSavedByObjectVersion
1070
     0
1000
AcDbSavedByObjectVersion
1070
     0
1000
AcDbSavedByObjectVersion
1070
     0
1000
AcDbSavedByObjectVersion
1070
     0
1000
AcDbSavedByObjectVersion
1070
     0
1000
AcDbSavedByObjectVersion
1070
     0
1000
AcDbSavedByObjectVersion
1070
     0
1000
AcDbSavedByObjectVersion
1070
     0
1000
AcDbSavedByObjectVersion
1070
     0
1000
AcDbSavedByObjectVersion
1070
     0
1000
AcDbSavedByObjectVersion
1070
     0
1000
AcDbSavedByObjectVersion
1070
     0
  0
VISUALSTYLE
  5
1E
102
{ACAD_REACTORS
330
14
102
}
330
14
100
AcDbVisualStyle
  2
Realistic
 70
     8
 71
     2
 72
     2
 73
     0
 90
        0
 40
-0.6
 41
-30.0
 62
     5
 63
     7
 74
     1
 91
        0
 64
     7
 65
   257
 75
     1
175
     1
 42
1.0
 92
        8
 66
     8
 43
1.0
 76
     1
 77
     6
 78
     2
 67
     7
 79
     5
170
     0
171
     0
290
     0
174
     0
 93
       13
 44
0.0
173
     0
291
     0
 45
0.0
1001
ACAD
1000
AcDbSavedByObjectVersion
1070
     0
1000
AcDbSavedByObjectVersion
1070
     0
1000
AcDbSavedByObjectVersion
1070
     0
1000
AcDbSavedByObjectVersion
1070
     0
1000
AcDbSavedByObjectVersion
1070
     0
1000
AcDbSavedByObjectVersion
1070
     0
1000
AcDbSavedByObjectVersion
1070
     0
1000
AcDbSavedByObjectVersion
1070
     0
1000
AcDbSavedByObjectVersion
1070
     0
1000
AcDbSavedByObjectVersion
1070
     0
1000
AcDbSavedByObjectVersion
1070
     0
1000
AcDbSavedByObjectVersion
1070
     0
1000
AcDbSavedByObjectVersion
1070
     0
1000
AcDbSavedByObjectVersion
1070
     0
1000
AcDbSavedByObjectVersion
1070
     0
1000
AcDbSavedByObjectVersion
1070
     0
1000
AcDbSavedByObjectVersion
1070
     0
1000
AcDbSavedByObjectVersion
1070
     0
1000
AcDbSavedByObjectVersion
1070
     0
1000
AcDbSavedByObjectVersion
1070
     0
1000
AcDbSavedByObjectVersion
1070
     0
1000
AcDbSavedByObjectVersion
1070
     0
1000
AcDbSavedByObjectVersion
1070
     0
  0
VISUALSTYLE
  5
21
102
{ACAD_REACTORS
330
14
102
}
330
14
100
AcDbVisualStyle
  2
Thicken
 70
    13
 71
     2
 72
     2
 73
     0
 90
        0
 40
-0.6
 41
-30.0
 62
     5
 63
     7
 74
     1
 91
        4
 64
     7
 65
   257
 75
     1
175
     1
 42
1.0
 92
       12
 66
     7
 43
1.0
 76
     1
 77
     6
 78
     2
 67
     7
 79
     5
170
     0
171
     0
290
     0
174
     0
 93
        1
 44
0.0
173
     0
291
     1
 45
0.0
1001
ACAD
1000
AcDbSavedByObjectVersion
1070
     0
1000
AcDbSavedByObjectVersion
1070
     0
1000
AcDbSavedByObjectVersion
1070
     0
1000
AcDbSavedByObjectVersion
1070
     0
1000
AcDbSavedByObjectVersion
1070
     0
1000
AcDbSavedByObjectVersion
1070
     0
1000
AcDbSavedByObjectVersion
1070
     0
1000
AcDbSavedByObjectVersion
1070
     0
1000
AcDbSavedByObjectVersion
1070
     0
1000
AcDbSavedByObjectVersion
1070
     0
1000
AcDbSavedByObjectVersion
1070
     0
1000
AcDbSavedByObjectVersion
1070
     0
1000
AcDbSavedByObjectVersion
1070
     0
1000
AcDbSavedByObjectVersion
1070
     0
1000
AcDbSavedByObjectVersion
1070
     0
1000
AcDbSavedByObjectVersion
1070
     0
1000
AcDbSavedByObjectVersion
1070
     0
1000
AcDbSavedByObjectVersion
1070
     0
1000
AcDbSavedByObjectVersion
1070
     0
1000
AcDbSavedByObjectVersion
1070
     0
1000
AcDbSavedByObjectVersion
1070
     0
1000
AcDbSavedByObjectVersion
1070
     0
1000
AcDbSavedByObjectVersion
1070
     0
  0
DICTIONARYVAR
  5
66A
102
{ACAD_REACTORS
330
42
102
}
330
42
100
DictionaryVariables
280
     0
  1
1:1
  0
DICTIONARYVAR
  5
669
102
{ACAD_REACTORS
330
42
102
}
330
42
100
DictionaryVariables
280
     0
  1
STANDARD
  0
DICTIONARYVAR
  5
43
102
{ACAD_REACTORS
330
42
102
}
330
42
100
DictionaryVariables
280
     0
  1
STANDARD
  0
DICTIONARYVAR
  5
47
102
{ACAD_REACTORS
330
42
102
}
330
42
100
DictionaryVariables
280
     0
  1
2
  0
DICTIONARYVAR
  5
46
102
{ACAD_REACTORS
330
42
102
}
330
42
100
DictionaryVariables
280
     0
  1
1
  0
DICTIONARYVAR
  5
45
102
{ACAD_REACTORS
330
42
102
}
330
42
100
DictionaryVariables
280
     0
  1
0
  0
DICTIONARYVAR
  5
AAF
102
{ACAD_REACTORS
330
42
102
}
330
42
100
DictionaryVariables
280
     0
  1
0
  0
DICTIONARYVAR
  5
70B76
102
{ACAD_REACTORS
330
42
102
}
330
42
100
DictionaryVariables
280
     0
  1
1.570796
  0
DICTIONARYVAR
  5
70B77
102
{ACAD_REACTORS
330
42
102
}
330
42
100
DictionaryVariables
280
     0
  1
1.570796
  0
DICTIONARYVAR
  5
AAE
102
{ACAD_REACTORS
330
42
102
}
330
42
100
DictionaryVariables
280
     0
  1
0
  0
DICTIONARYVAR
  5
44
102
{ACAD_REACTORS
330
42
102
}
330
42
100
DictionaryVariables
280
     0
  1
127
  0
XRECORD
  5
668
102
{ACAD_REACTORS
330
666
102
}
330
666
100
AcDbXrecord
280
     1
  0
DICTIONARY
  5
70B7D
330
36
100
AcDbDictionary
280
     1
281
     1
  3
ACAD_XREC_ROUNDTRIP
360
70B7E
  0
DICTIONARY
  5
70B81
330
3E
100
AcDbDictionary
280
     1
281
     1
  3
ACAD_XREC_ROUNDTRIP
360
70B82
  0
DICTIONARY
  5
70B7F
330
3A
100
AcDbDictionary
280
     1
281
     1
  3
ACAD_XREC_ROUNDTRIP
360
70B80
  0
DICTIONARY
  5
E0
330
12
100
AcDbDictionary
280
     1
281
     1
  3
ACAD_XREC_ROUNDTRIP
360
E1
  0
DICTIONARY
  5
DE
330
11
100
AcDbDictionary
280
     1
281
     1
  3
ACAD_XREC_ROUNDTRIP
360
DF
  0
DICTIONARY
  5
E2
330
13
100
AcDbDictionary
280
     1
281
     1
  3
ACAD_XREC_ROUNDTRIP
360
E3
  0
DICTIONARY
  5
66B
330
32
100
AcDbDictionary
280
     1
281
     1
  3
ACAD_ROUNDTRIP_2008_TABLESTYLE_CELLSTYLEMAP
360
70B78
  3
ACAD_XREC_ROUNDTRIP
360
70B7C
  0
XRECORD
  5
70B7E
102
{ACAD_REACTORS
330
70B7D
102
}
330
70B7D
100
AcDbXrecord
280
     1
102
SHADEPLOT
 70
     0
102
SHADEPLOTRESLEVEL
 70
     2
102
SHADEPLOTCUSTOMDPI
 70
   300
  0
XRECORD
  5
70B82
102
{ACAD_REACTORS
330
70B81
102
}
330
70B81
100
AcDbXrecord
280
     1
102
SHADEPLOT
 70
     0
102
SHADEPLOTRESLEVEL
 70
     2
102
SHADEPLOTCUSTOMDPI
 70
   300
  0
XRECORD
  5
70B80
102
{ACAD_REACTORS
330
70B7F
102
}
330
70B7F
100
AcDbXrecord
280
     1
102
SHADEPLOT
 70
     0
102
SHADEPLOTRESLEVEL
 70
     2
102
SHADEPLOTCUSTOMDPI
 70
   300
  0
XRECORD
  5
E1
102
{ACAD_REACTORS
330
E0
102
}
330
E0
100
AcDbXrecord
280
     1
102
MATERIAL
148
0.0
149
0.0
149
0.0
 93
        0
 94
      127
282
     0
 72
     1
 77
     1
171
     1
175
     1
179
     1
273
     0
  0
XRECORD
  5
DF
102
{ACAD_REACTORS
330
DE
102
}
330
DE
100
AcDbXrecord
280
     1
102
MATERIAL
148
0.0
149
0.0
149
0.0
 93
        0
 94
      127
282
     0
 72
     1
 77
     1
171
     1
175
     1
179
     1
273
     0
  0
XRECORD
  5
E3
102
{ACAD_REACTORS
330
E2
102
}
330
E2
100
AcDbXrecord
280
     1
102
MATERIAL
148
0.0
149
0.0
149
0.0
 93
        0
 94
      127
282
     0
 72
     1
 77
     1
171
     1
175
     1
179
     1
273
     0
  0
CELLSTYLEMAP
  5
70B78
102
{ACAD_REACTORS
330
66B
102
}
330
66B
100
AcDbCellStyleMap
 90
        3
300
CELLSTYLE
  1
TABLEFORMAT_BEGIN
 90
        5
170
     1
 91
        0
 92
    32768
 62
   257
 93
        1
300
CONTENTFORMAT
  1
CONTENTFORMAT_BEGIN
 90
        0
 91
        0
 92
      512
 93
        0
300

 40
0.0
140
1.0
 94
        5
 62
     0
340
26
144
6.0
309
CONTENTFORMAT_END
171
     1
301
MARGIN
  1
CELLMARGIN_BEGIN
 40
1.5
 40
1.5
 40
1.5
 40
1.5
 40
0.18
 40
0.18
309
CELLMARGIN_END
 94
        6
 95
        1
302
GRIDFORMAT
  1
GRIDFORMAT_BEGIN
 90
        0
 91
        1
 62
     0
 92
       -2
340
0
 93
        0
 40
0.045
309
GRIDFORMAT_END
 95
        2
302
GRIDFORMAT
  1
GRIDFORMAT_BEGIN
 90
        0
 91
        1
 62
     0
 92
       -2
340
0
 93
        0
 40
0.045
309
GRIDFORMAT_END
 95
        4
302
GRIDFORMAT
  1
GRIDFORMAT_BEGIN
 90
        0
 91
        1
 62
     0
 92
       -2
340
0
 93
        0
 40
0.045
309
GRIDFORMAT_END
 95
        8
302
GRIDFORMAT
  1
GRIDFORMAT_BEGIN
 90
        0
 91
        1
 62
     0
 92
       -2
340
0
 93
        0
 40
0.045
309
GRIDFORMAT_END
 95
       16
302
GRIDFORMAT
  1
GRIDFORMAT_BEGIN
 90
        0
 91
        1
 62
     0
 92
       -2
340
0
 93
        0
 40
0.045
309
GRIDFORMAT_END
 95
       32
302
GRIDFORMAT
  1
GRIDFORMAT_BEGIN
 90
        0
 91
        1
 62
     0
 92
       -2
340
0
 93
        0
 40
0.045
309
GRIDFORMAT_END
309
TABLEFORMAT_END
  1
CELLSTYLE_BEGIN
 90
        1
 91
        1
300
_TITLE
309
CELLSTYLE_END
300
CELLSTYLE
  1
TABLEFORMAT_BEGIN
 90
        5
170
     1
 91
        0
 92
        0
 62
   257
 93
        1
300
CONTENTFORMAT
  1
CONTENTFORMAT_BEGIN
 90
        0
 91
        0
 92
      512
 93
        0
300

 40
0.0
140
1.0
 94
        5
 62
     0
340
26
144
4.5
309
CONTENTFORMAT_END
171
     1
301
MARGIN
  1
CELLMARGIN_BEGIN
 40
1.5
 40
1.5
 40
1.5
 40
1.5
 40
0.18
 40
0.18
309
CELLMARGIN_END
 94
        6
 95
        1
302
GRIDFORMAT
  1
GRIDFORMAT_BEGIN
 90
        0
 91
        1
 62
     0
 92
       -2
340
0
 93
        0
 40
0.045
309
GRIDFORMAT_END
 95
        2
302
GRIDFORMAT
  1
GRIDFORMAT_BEGIN
 90
        0
 91
        1
 62
     0
 92
       -2
340
0
 93
        0
 40
0.045
309
GRIDFORMAT_END
 95
        4
302
GRIDFORMAT
  1
GRIDFORMAT_BEGIN
 90
        0
 91
        1
 62
     0
 92
       -2
340
0
 93
        0
 40
0.045
309
GRIDFORMAT_END
 95
        8
302
GRIDFORMAT
  1
GRIDFORMAT_BEGIN
 90
        0
 91
        1
 62
     0
 92
       -2
340
0
 93
        0
 40
0.045
309
GRIDFORMAT_END
 95
       16
302
GRIDFORMAT
  1
GRIDFORMAT_BEGIN
 90
        0
 91
        1
 62
     0
 92
       -2
340
0
 93
        0
 40
0.045
309
GRIDFORMAT_END
 95
       32
302
GRIDFORMAT
  1
GRIDFORMAT_BEGIN
 90
        0
 91
        1
 62
     0
 92
       -2
340
0
 93
        0
 40
0.045
309
GRIDFORMAT_END
309
TABLEFORMAT_END
  1
CELLSTYLE_BEGIN
 90
        2
 91
        1
300
_HEADER
309
CELLSTYLE_END
300
CELLSTYLE
  1
TABLEFORMAT_BEGIN
 90
        5
170
     1
 91
        0
 92
        0
 62
   257
 93
        1
300
CONTENTFORMAT
  1
CONTENTFORMAT_BEGIN
 90
        0
 91
        0
 92
      512
 93
        0
300

 40
0.0
140
1.0
 94
        2
 62
     0
340
26
144
4.5
309
CONTENTFORMAT_END
171
     1
301
MARGIN
  1
CELLMARGIN_BEGIN
 40
1.5
 40
1.5
 40
1.5
 40
1.5
 40
0.18
 40
0.18
309
CELLMARGIN_END
 94
        6
 95
        1
302
GRIDFORMAT
  1
GRIDFORMAT_BEGIN
 90
        0
 91
        1
 62
     0
 92
       -2
340
0
 93
        0
 40
0.045
309
GRIDFORMAT_END
 95
        2
302
GRIDFORMAT
  1
GRIDFORMAT_BEGIN
 90
        0
 91
        1
 62
     0
 92
       -2
340
0
 93
        0
 40
0.045
309
GRIDFORMAT_END
 95
        4
302
GRIDFORMAT
  1
GRIDFORMAT_BEGIN
 90
        0
 91
        1
 62
     0
 92
       -2
340
0
 93
        0
 40
0.045
309
GRIDFORMAT_END
 95
        8
302
GRIDFORMAT
  1
GRIDFORMAT_BEGIN
 90
        0
 91
        1
 62
     0
 92
       -2
340
0
 93
        0
 40
0.045
309
GRIDFORMAT_END
 95
       16
302
GRIDFORMAT
  1
GRIDFORMAT_BEGIN
 90
        0
 91
        1
 62
     0
 92
       -2
340
0
 93
        0
 40
0.045
309
GRIDFORMAT_END
 95
       32
302
GRIDFORMAT
  1
GRIDFORMAT_BEGIN
 90
        0
 91
        1
 62
     0
 92
       -2
340
0
 93
        0
 40
0.045
309
GRIDFORMAT_END
309
TABLEFORMAT_END
  1
CELLSTYLE_BEGIN
 90
        3
 91
        2
300
_DATA
309
CELLSTYLE_END
  0
XRECORD
  5
70B7C
102
{ACAD_REACTORS
330
66B
102
}
330
66B
100
AcDbXrecord
280
     1
102
ACAD_ROUNDTRIP_PRE2007_TABLESTYLE
 90
      512
 91
        0
  1

 92
      512
 93
        0
  2

 94
      512
 95
        0
  3

  0
ENDSEC
  0
EOF
