  0
SECTION
  2
HEADER
  9
$ACADVER
  1
AC1015
  9
$ACADMAINTVER
 70
    20
  9
$DWGCODEPAGE
  3
ANSI_949
  9
$INSBASE
 10
0.0
 20
0.0
 30
0.0
  9
$EXTMIN
 10
74.45010140861564
 20
-49.69355512170409
 30
0.0
  9
$EXTMAX
 10
470.6937047500334
 20
679.5014841158971
 30
0.0
  9
$LIMMIN
 10
0.0
 20
0.0
  9
$LIMMAX
 10
594.0
 20
420.0
  9
$ORTHOMODE
 70
     1
  9
$REGENMODE
 70
     1
  9
$FILLMODE
 70
     1
  9
$QTEXTMODE
 70
     0
  9
$MIRRTEXT
 70
     0
  9
$LTSCALE
 40
1.0
  9
$ATTMODE
 70
     1
  9
$TEXTSIZE
 40
2.5
  9
$TRACEWID
 40
1.0
  9
$TEXTSTYLE
  7
Standard
  9
$CLAYER
  8
0
  9
$CELTYPE
  6
ByLayer
  9
$CECOLOR
 62
     6
  9
$CELTSCALE
 40
1.0
  9
$DISPSILH
 70
     0
  9
$DIMSCALE
 40
0.0
  9
$DIMASZ
 40
3.149999999999999
  9
$DIMEXO
 40
1.0
  9
$DIMDLI
 40
8.0
  9
$DIMRND
 40
0.0
  9
$DIMDLE
 40
0.0
  9
$DIMEXE
 40
2.0
  9
$DIMTP
 40
0.0
  9
$DIMTM
 40
0.2
  9
$DIMTXT
 40
3.149999999999999
  9
$DIMCEN
 40
0.0
  9
$DIMTSZ
 40
0.0
  9
$DIMTOL
 70
     0
  9
$DIMLIM
 70
     0
  9
$DIMTIH
 70
     0
  9
$DIMTOH
 70
     0
  9
$DIMSE1
 70
     0
  9
$DIMSE2
 70
     0
  9
$DIMTAD
 70
     1
  9
$DIMZIN
 70
     8
  9
$DIMBLK
  1

  9
$DIMASO
 70
     1
  9
$DIMSHO
 70
     1
  9
$DIMPOST
  1

  9
$DIMAPOST
  1

  9
$DIMALT
 70
     0
  9
$DIMALTD
 70
     4
  9
$DIMALTF
 40
0.0394
  9
$DIMLFAC
 40
1.0
  9
$DIMTOFL
 70
     1
  9
$DIMTVP
 40
0.0
  9
$DIMTIX
 70
     0
  9
$DIMSOXD
 70
     0
  9
$DIMSAH
 70
     0
  9
$DIMBLK1
  1

  9
$DIMBLK2
  1

  9
$DIMSTYLE
  2
ISO-25_WS
  9
$DIMCLRD
 70
     4
  9
$DIMCLRE
 70
     4
  9
$DIMCLRT
 70
     2
  9
$DIMTFAC
 40
0.7
  9
$DIMGAP
 40
0.8
  9
$DIMJUST
 70
     0
  9
$DIMSD1
 70
     0
  9
$DIMSD2
 70
     0
  9
$DIMTOLJ
 70
     1
  9
$DIMTZIN
 70
     8
  9
$DIMALTZ
 70
     0
  9
$DIMALTTZ
 70
     0
  9
$DIMUPT
 70
     0
  9
$DIMDEC
 70
     1
  9
$DIMTDEC
 70
     1
  9
$DIMALTU
 70
     8
  9
$DIMALTTD
 70
     4
  9
$DIMTXSTY
  7
ROMAN
  9
$DIMAUNIT
 70
     0
  9
$DIMADEC
 70
     0
  9
$DIMALTRND
 40
0.0
  9
$DIMAZIN
 70
     0
  9
$DIMDSEP
 70
    46
  9
$DIMATFIT
 70
     3
  9
$DIMFRAC
 70
     0
  9
$DIMLDRBLK
  1

  9
$DIMLUNIT
 70
     2
  9
$DIMLWD
 70
    -2
  9
$DIMLWE
 70
    -2
  9
$DIMTMOVE
 70
     0
  9
$LUNITS
 70
     2
  9
$LUPREC
 70
     4
  9
$SKETCHINC
 40
1.0
  9
$FILLETRAD
 40
3.0
  9
$AUNITS
 70
     0
  9
$AUPREC
 70
     0
  9
$MENU
  1
.
  9
$ELEVATION
 40
0.0
  9
$PELEVATION
 40
0.0
  9
$THICKNESS
 40
0.0
  9
$LIMCHECK
 70
     0
  9
$CHAMFERA
 40
0.5
  9
$CHAMFERB
 40
0.5
  9
$CHAMFERC
 40
0.0
  9
$CHAMFERD
 40
0.0
  9
$SKPOLY
 70
     0
  9
$TDCREATE
 40
2454746.567123658
  9
$TDUCREATE
 40
2454746.192123658
  9
$TDUPDATE
 40
2455014.429360162
  9
$TDUUPDATE
 40
2455014.054360162
  9
$TDINDWG
 40
0.4097541088
  9
$TDUSRTIMER
 40
0.4097499421
  9
$USRTIMER
 70
     1
  9
$ANGBASE
 50
0.0
  9
$ANGDIR
 70
     0
  9
$PDMODE
 70
     0
  9
$PDSIZE
 40
0.0
  9
$PLINEWID
 40
0.0
  9
$SPLFRAME
 70
     0
  9
$SPLINETYPE
 70
     6
  9
$SPLINESEGS
 70
     8
  9
$HANDSEED
  5
1319B
  9
$SURFTAB1
 70
     6
  9
$SURFTAB2
 70
     6
  9
$SURFTYPE
 70
     6
  9
$SURFU
 70
     6
  9
$SURFV
 70
     6
  9
$UCSBASE
  2

  9
$UCSNAME
  2

  9
$UCSORG
 10
0.0
 20
0.0
 30
0.0
  9
$UCSXDIR
 10
1.0
 20
0.0
 30
0.0
  9
$UCSYDIR
 10
0.0
 20
1.0
 30
0.0
  9
$UCSORTHOREF
  2

  9
$UCSORTHOVIEW
 70
     0
  9
$UCSORGTOP
 10
0.0
 20
0.0
 30
0.0
  9
$UCSORGBOTTOM
 10
0.0
 20
0.0
 30
0.0
  9
$UCSORGLEFT
 10
0.0
 20
0.0
 30
0.0
  9
$UCSORGRIGHT
 10
0.0
 20
0.0
 30
0.0
  9
$UCSORGFRONT
 10
0.0
 20
0.0
 30
0.0
  9
$UCSORGBACK
 10
0.0
 20
0.0
 30
0.0
  9
$PUCSBASE
  2

  9
$PUCSNAME
  2

  9
$PUCSORG
 10
0.0
 20
0.0
 30
0.0
  9
$PUCSXDIR
 10
1.0
 20
0.0
 30
0.0
  9
$PUCSYDIR
 10
0.0
 20
1.0
 30
0.0
  9
$PUCSORTHOREF
  2

  9
$PUCSORTHOVIEW
 70
     0
  9
$PUCSORGTOP
 10
0.0
 20
0.0
 30
0.0
  9
$PUCSORGBOTTOM
 10
0.0
 20
0.0
 30
0.0
  9
$PUCSORGLEFT
 10
0.0
 20
0.0
 30
0.0
  9
$PUCSORGRIGHT
 10
0.0
 20
0.0
 30
0.0
  9
$PUCSORGFRONT
 10
0.0
 20
0.0
 30
0.0
  9
$PUCSORGBACK
 10
0.0
 20
0.0
 30
0.0
  9
$USERI1
 70
     0
  9
$USERI2
 70
     0
  9
$USERI3
 70
     0
  9
$USERI4
 70
     0
  9
$USERI5
 70
     0
  9
$USERR1
 40
0.0
  9
$USERR2
 40
0.0
  9
$USERR3
 40
0.0
  9
$USERR4
 40
0.0
  9
$USERR5
 40
0.0
  9
$WORLDVIEW
 70
     1
  9
$SHADEDGE
 70
     3
  9
$SHADEDIF
 70
    70
  9
$TILEMODE
 70
     1
  9
$MAXACTVP
 70
    64
  9
$PINSBASE
 10
0.0
 20
0.0
 30
0.0
  9
$PLIMCHECK
 70
     0
  9
$PEXTMIN
 10
1.000000000000000E+20
 20
1.000000000000000E+20
 30
1.000000000000000E+20
  9
$PEXTMAX
 10
-1.000000000000000E+20
 20
-1.000000000000000E+20
 30
-1.000000000000000E+20
  9
$PLIMMIN
 10
0.0
 20
0.0
  9
$PLIMMAX
 10
420.0
 20
297.0
  9
$UNITMODE
 70
     0
  9
$VISRETAIN
 70
     1
  9
$PLINEGEN
 70
     0
  9
$PSLTSCALE
 70
     1
  9
$TREEDEPTH
 70
  3020
  9
$CMLSTYLE
  2
Standard
  9
$CMLJUST
 70
     0
  9
$CMLSCALE
 40
20.0
  9
$PROXYGRAPHICS
 70
     1
  9
$MEASUREMENT
 70
     1
  9
$CELWEIGHT
370
    -1
  9
$ENDCAPS
280
     0
  9
$JOINSTYLE
280
     0
  9
$LWDISPLAY
290
     0
  9
$INSUNITS
 70
     4
  9
$HYPERLINKBASE
  1

  9
$STYLESHEET
  1
1.CTB
  9
$XEDIT
290
     1
  9
$CEPSNTYPE
380
     0
  9
$PSTYLEMODE
290
     1
  9
$FINGERPRINTGUID
  2
{EF8575CC-8DD8-48E6-8D82-C69C905C8F60}
  9
$VERSIONGUID
  2
{07AD4C4A-62B9-4F9A-90C1-D7207A9E3350}
  9
$EXTNAMES
290
     1
  9
$PSVPSCALE
 40
0.0
  9
$OLESTARTUP
290
     0
  0
ENDSEC
  0
SECTION
  2
CLASSES
  0
CLASS
  1
ACDBDICTIONARYWDFLT
  2
AcDbDictionaryWithDefault
  3
ObjectDBX Classes
 90
        0
280
     0
281
     0
  0
CLASS
  1
MATERIAL
  2
AcDbMaterial
  3
ObjectDBX Classes
 90
     1153
280
     0
281
     0
  0
CLASS
  1
VISUALSTYLE
  2
AcDbVisualStyle
  3
ObjectDBX Classes
 90
     4095
280
     0
281
     0
  0
CLASS
  1
TABLESTYLE
  2
AcDbTableStyle
  3
ObjectDBX Classes
 90
     4095
280
     0
281
     0
  0
CLASS
  1
DICTIONARYVAR
  2
AcDbDictionaryVar
  3
ObjectDBX Classes
 90
        0
280
     0
281
     0
  0
CLASS
  1
SORTENTSTABLE
  2
AcDbSortentsTable
  3
ObjectDBX Classes
 90
        0
280
     0
281
     0
  0
CLASS
  1
DIMASSOC
  2
AcDbDimAssoc
  3
"AcDbDimAssoc|Product Desc:     AcDim ARX App For Dimension|Company:          Autodesk, Inc.|WEB Address:      www.autodesk.com"
 90
        0
280
     0
281
     0
  0
CLASS
  1
SCALE
  2
AcDbScale
  3
ObjectDBX Classes
 90
     1153
280
     0
281
     0
  0
CLASS
  1
MLEADERSTYLE
  2
AcDbMLeaderStyle
  3
ACDB_MLEADERSTYLE_CLASS
 90
     4095
280
     0
281
     0
  0
CLASS
  1
CELLSTYLEMAP
  2
AcDbCellStyleMap
  3
ObjectDBX Classes
 90
     1152
280
     0
281
     0
  0
CLASS
  1
ACDBPLACEHOLDER
  2
AcDbPlaceHolder
  3
ObjectDBX Classes
 90
        0
280
     0
281
     0
  0
CLASS
  1
LAYOUT
  2
AcDbLayout
  3
ObjectDBX Classes
 90
        0
280
     0
281
     0
  0
ENDSEC
  0
SECTION
  2
TABLES
  0
TABLE
  2
VPORT
  5
8
102
{ACAD_XDICTIONARY
360
4D8
102
}
330
0
100
AcDbSymbolTable
 70
     1
  0
VPORT
  5
28
330
8
100
AcDbSymbolTableRecord
100
AcDbViewportTableRecord
  2
*Active
 70
     0
 10
0.0
 20
0.0
 11
1.0
 21
1.0
 12
290.3567920584527
 22
259.9959586311875
 13
0.0
 23
0.0
 14
10.0
 24
10.0
 15
10.0
 25
10.0
 16
0.0
 26
0.0
 36
1.0
 17
0.0
 27
0.0
 37
0.0
 40
1187.180604688878
 41
1.597350993377483
 42
50.0
 43
0.0
 44
0.0
 50
0.0
 51
0.0
 71
     0
 72
  5000
 73
     1
 74
     2
 75
     0
 76
     0
 77
     0
 78
     0
281
     0
 65
     1
110
0.0
120
0.0
130
0.0
111
1.0
121
0.0
131
0.0
112
0.0
122
1.0
132
0.0
 79
     0
146
0.0
  0
ENDTAB
  0
TABLE
  2
LTYPE
  5
5
330
0
100
AcDbSymbolTable
 70
     7
  0
LTYPE
  5
29
330
5
100
AcDbSymbolTableRecord
100
AcDbLinetypeTableRecord
  2
ByBlock
 70
     0
  3

 72
    65
 73
     0
 40
0.0
  0
LTYPE
  5
2A
330
5
100
AcDbSymbolTableRecord
100
AcDbLinetypeTableRecord
  2
ByLayer
 70
     0
  3

 72
    65
 73
     0
 40
0.0
  0
LTYPE
  5
2B
330
5
100
AcDbSymbolTableRecord
100
AcDbLinetypeTableRecord
  2
Continuous
 70
     0
  3
Solid line
 72
    65
 73
     0
 40
0.0
  0
LTYPE
  5
69
330
5
100
AcDbSymbolTableRecord
100
AcDbLinetypeTableRecord
  2
CENTER2
 70
     0
  3
Center (.5x) ___ _ ___ _ ___ _ ___ _ ___ _ ___
 72
    65
 73
     4
 40
28.575
 49
19.05
 74
     0
 49
-3.174999999999998
 74
     0
 49
3.174999999999998
 74
     0
 49
-3.174999999999998
 74
     0
  0
LTYPE
  5
6A
330
5
100
AcDbSymbolTableRecord
100
AcDbLinetypeTableRecord
  2
PHANTOM2
 70
     0
  3
Phantom (.5x) ___ _ _ ___ _ _ ___ _ _ ___ _ _
 72
    65
 73
     6
 40
31.75
 49
15.875
 74
     0
 49
-3.174999999999998
 74
     0
 49
3.174999999999998
 74
     0
 49
-3.174999999999998
 74
     0
 49
3.174999999999998
 74
     0
 49
-3.174999999999998
 74
     0
  0
LTYPE
  5
6B
330
5
100
AcDbSymbolTableRecord
100
AcDbLinetypeTableRecord
  2
HIDDEN2
 70
     0
  3
Hidden (.5x) _ _ _ _ _ _ _ _ _ _ _ _ _ _ _ _ _
 72
    65
 73
     2
 40
4.762499999999998
 49
3.174999999999998
 74
     0
 49
-1.587499999999999
 74
     0
  0
LTYPE
  5
A61
330
5
100
AcDbSymbolTableRecord
100
AcDbLinetypeTableRecord
  2
CENTER
 70
     0
  3
Center ____ _ ____ _ ____ _ ____ _ ____ _ ____
 72
    65
 73
     4
 40
50.8
 49
31.75
 74
     0
 49
-6.349999999999997
 74
     0
 49
6.349999999999997
 74
     0
 49
-6.349999999999997
 74
     0
  0
LTYPE
  5
A373
330
5
100
AcDbSymbolTableRecord
100
AcDbLinetypeTableRecord
  2
HIDDEN
 70
     0
  3
Hidden __ __ __ __ __ __ __ __ __ __ __ __ __ _
 72
    65
 73
     2
 40
0.375
 49
0.25
 74
     0
 49
-0.125
 74
     0
  0
ENDTAB
  0
TABLE
  2
LAYER
  5
2
102
{ACAD_XDICTIONARY
360
6C
102
}
330
0
100
AcDbSymbolTable
 70
     3
  0
LAYER
  5
25
102
{ACAD_XDICTIONARY
360
AA1
102
}
330
2
100
AcDbSymbolTableRecord
100
AcDbLayerTableRecord
  2
0
 70
     0
 62
     7
  6
Continuous
370
    -3
390
F
  0
LAYER
  5
66
102
{ACAD_XDICTIONARY
360
AA7
102
}
330
2
100
AcDbSymbolTableRecord
100
AcDbLayerTableRecord
  2
C
 70
     0
 62
     1
  6
CENTER2
370
    -3
390
F
1001
AcAecLayerStandard
1000

1000

  0
LAYER
  5
4EF
330
2
100
AcDbSymbolTableRecord
100
AcDbLayerTableRecord
  2
Defpoints
 70
     0
 62
     7
  6
Continuous
290
     0
370
    -3
390
F
  0
ENDTAB
  0
TABLE
  2
STYLE
  5
3
330
0
100
AcDbSymbolTable
 70
     4
  0
STYLE
  5
26
330
3
100
AcDbSymbolTableRecord
100
AcDbTextStyleTableRecord
  2
Standard
 70
     0
 40
0.0
 41
0.8
 50
0.0
 71
     0
 42
2.5
  3
romans.shx
  4

  0
STYLE
  5
13E
330
3
100
AcDbSymbolTableRecord
100
AcDbTextStyleTableRecord
  2
R
 70
     0
 40
0.0
 41
0.8
 50
0.0
 71
     0
 42
1.7
  3
ROMANS.shx
  4

  0
STYLE
  5
970
330
3
100
AcDbSymbolTableRecord
100
AcDbTextStyleTableRecord
  2
RR
 70
     0
 40
0.0
 41
0.8
 50
0.0
 71
     0
 42
2.5
  3
Batang.ttf
  4

1001
ACAD
1000
Batang
1071
    33042
  0
STYLE
  5
971
330
3
100
AcDbSymbolTableRecord
100
AcDbTextStyleTableRecord
  2
ROMAN
 70
     0
 40
0.0
 41
1.0
 50
0.0
 71
     0
 42
4.0
  3
SIMPLEX.shx
  4

  0
ENDTAB
  0
TABLE
  2
VIEW
  5
6
330
0
100
AcDbSymbolTable
 70
     0
  0
ENDTAB
  0
TABLE
  2
UCS
  5
7
330
0
100
AcDbSymbolTable
 70
     0
  0
ENDTAB
  0
TABLE
  2
APPID
  5
9
330
0
100
AcDbSymbolTable
 70
     9
  0
APPID
  5
27
330
9
100
AcDbSymbolTableRecord
100
AcDbRegAppTableRecord
  2
ACAD
 70
     0
  0
APPID
  5
63
330
9
100
AcDbSymbolTableRecord
100
AcDbRegAppTableRecord
  2
AcAecLayerStandard
 70
     0
  0
APPID
  5
70
330
9
100
AcDbSymbolTableRecord
100
AcDbRegAppTableRecord
  2
ACAD_EXEMPT_FROM_CAD_STANDARDS
 70
     0
  0
APPID
  5
8B
330
9
100
AcDbSymbolTableRecord
100
AcDbRegAppTableRecord
  2
ACAD_PSEXT
 70
     0
  0
APPID
  5
6C8
330
9
100
AcDbSymbolTableRecord
100
AcDbRegAppTableRecord
  2
ACAD_MLEADERVER
 70
     0
  0
APPID
  5
809
330
9
100
AcDbSymbolTableRecord
100
AcDbRegAppTableRecord
  2
ACAD_DSTYLE_DIMRADIAL_EXTENSION
 70
     0
  0
APPID
  5
AED
330
9
100
AcDbSymbolTableRecord
100
AcDbRegAppTableRecord
  2
ACAD_DSTYLE_DIMJAG
 70
     0
  0
APPID
  5
AEE
330
9
100
AcDbSymbolTableRecord
100
AcDbRegAppTableRecord
  2
ACAD_DSTYLE_DIMTALN
 70
     0
  0
APPID
  5
1C67
330
9
100
AcDbSymbolTableRecord
100
AcDbRegAppTableRecord
  2
AcadAnnotative
 70
     0
  0
ENDTAB
  0
TABLE
  2
DIMSTYLE
  5
A
330
0
100
AcDbSymbolTable
 70
     3
100
AcDbDimStyleTable
 71
     1
340
972
  0
DIMSTYLE
105
13F
330
A
100
AcDbSymbolTableRecord
100
AcDbDimStyleTableRecord
  2
STANDARD
 70
     0
274
     4
279
     2
284
     8
285
     8
286
     8
340
13E
  0
DIMSTYLE
105
972
102
{ACAD_REACTORS
330
123D4
330
12400
330
1243D
330
12455
330
124D0
330
124E8
330
12506
330
12529
330
12542
330
1255E
330
12576
330
1258E
330
125B0
330
125F4
330
12646
330
1265E
330
12676
330
12693
330
126AB
330
126C6
330
126DE
330
126F6
330
12712
330
1272F
330
12762
330
1277A
330
12928
330
12940
330
12958
330
12977
330
12A00
330
12A1D
330
12A6B
330
12A83
330
12A9C
330
12AB8
330
12AEE
330
12B20
330
12B39
102
}
330
A
100
AcDbSymbolTableRecord
100
AcDbDimStyleTableRecord
  2
ISO-25_WS
 70
     0
 40
0.0
 41
3.149999999999999
 42
1.0
 43
8.0
 44
2.0
 48
0.2
 73
     0
 74
     0
 77
     1
 78
     8
140
3.149999999999999
141
0.0
143
0.0394
146
0.7
147
0.8
171
     4
172
     1
176
     4
177
     4
178
     2
271
     1
272
     1
273
     8
274
     4
284
     8
340
971
1001
ACAD_DSTYLE_DIMJAG
1070
   388
1040
1.5
1001
ACAD_DSTYLE_DIMTALN
1070
   392
1070
     0
  0
ENDTAB
  0
TABLE
  2
BLOCK_RECORD
  5
1
330
0
100
AcDbSymbolTable
 70
    41
  0
BLOCK_RECORD
  5
37
102
{ACAD_XDICTIONARY
360
9D
102
}
330
1
100
AcDbSymbolTableRecord
100
AcDbBlockTableRecord
  2
*Model_Space
340
3A
  0
BLOCK_RECORD
  5
33
330
1
100
AcDbSymbolTableRecord
100
AcDbBlockTableRecord
  2
*Paper_Space
340
36
  0
BLOCK_RECORD
  5
3B
330
1
100
AcDbSymbolTableRecord
100
AcDbBlockTableRecord
  2
*Paper_Space0
340
3E
  0
BLOCK_RECORD
  5
123D5
330
1
100
AcDbSymbolTableRecord
100
AcDbBlockTableRecord
  2
*D1
340
0
  0
BLOCK_RECORD
  5
12401
330
1
100
AcDbSymbolTableRecord
100
AcDbBlockTableRecord
  2
*D2
340
0
  0
BLOCK_RECORD
  5
1243E
330
1
100
AcDbSymbolTableRecord
100
AcDbBlockTableRecord
  2
*D3
340
0
  0
BLOCK_RECORD
  5
12456
330
1
100
AcDbSymbolTableRecord
100
AcDbBlockTableRecord
  2
*D4
340
0
  0
BLOCK_RECORD
  5
124D1
330
1
100
AcDbSymbolTableRecord
100
AcDbBlockTableRecord
  2
*D5
340
0
  0
BLOCK_RECORD
  5
124E9
330
1
100
AcDbSymbolTableRecord
100
AcDbBlockTableRecord
  2
*D6
340
0
  0
BLOCK_RECORD
  5
12507
330
1
100
AcDbSymbolTableRecord
100
AcDbBlockTableRecord
  2
*D7
340
0
  0
BLOCK_RECORD
  5
1252A
330
1
100
AcDbSymbolTableRecord
100
AcDbBlockTableRecord
  2
*D8
340
0
  0
BLOCK_RECORD
  5
12543
330
1
100
AcDbSymbolTableRecord
100
AcDbBlockTableRecord
  2
*D9
340
0
  0
BLOCK_RECORD
  5
1255F
330
1
100
AcDbSymbolTableRecord
100
AcDbBlockTableRecord
  2
*D10
340
0
  0
BLOCK_RECORD
  5
12577
330
1
100
AcDbSymbolTableRecord
100
AcDbBlockTableRecord
  2
*D11
340
0
  0
BLOCK_RECORD
  5
1258F
330
1
100
AcDbSymbolTableRecord
100
AcDbBlockTableRecord
  2
*D12
340
0
  0
BLOCK_RECORD
  5
125B1
330
1
100
AcDbSymbolTableRecord
100
AcDbBlockTableRecord
  2
*D13
340
0
  0
BLOCK_RECORD
  5
125F5
330
1
100
AcDbSymbolTableRecord
100
AcDbBlockTableRecord
  2
*D14
340
0
  0
BLOCK_RECORD
  5
12647
330
1
100
AcDbSymbolTableRecord
100
AcDbBlockTableRecord
  2
*D15
340
0
  0
BLOCK_RECORD
  5
1265F
330
1
100
AcDbSymbolTableRecord
100
AcDbBlockTableRecord
  2
*D16
340
0
  0
BLOCK_RECORD
  5
12677
330
1
100
AcDbSymbolTableRecord
100
AcDbBlockTableRecord
  2
*D17
340
0
  0
BLOCK_RECORD
  5
12694
330
1
100
AcDbSymbolTableRecord
100
AcDbBlockTableRecord
  2
*D18
340
0
  0
BLOCK_RECORD
  5
126AC
330
1
100
AcDbSymbolTableRecord
100
AcDbBlockTableRecord
  2
*D19
340
0
  0
BLOCK_RECORD
  5
126C7
330
1
100
AcDbSymbolTableRecord
100
AcDbBlockTableRecord
  2
*D20
340
0
  0
BLOCK_RECORD
  5
126DF
330
1
100
AcDbSymbolTableRecord
100
AcDbBlockTableRecord
  2
*D21
340
0
  0
BLOCK_RECORD
  5
126F7
330
1
100
AcDbSymbolTableRecord
100
AcDbBlockTableRecord
  2
*D22
340
0
  0
BLOCK_RECORD
  5
12713
330
1
100
AcDbSymbolTableRecord
100
AcDbBlockTableRecord
  2
*D23
340
0
  0
BLOCK_RECORD
  5
12730
330
1
100
AcDbSymbolTableRecord
100
AcDbBlockTableRecord
  2
*D24
340
0
  0
BLOCK_RECORD
  5
12763
330
1
100
AcDbSymbolTableRecord
100
AcDbBlockTableRecord
  2
*D25
340
0
  0
BLOCK_RECORD
  5
1277B
330
1
100
AcDbSymbolTableRecord
100
AcDbBlockTableRecord
  2
*D26
340
0
  0
BLOCK_RECORD
  5
12929
330
1
100
AcDbSymbolTableRecord
100
AcDbBlockTableRecord
  2
*D27
340
0
  0
BLOCK_RECORD
  5
12941
330
1
100
AcDbSymbolTableRecord
100
AcDbBlockTableRecord
  2
*D28
340
0
  0
BLOCK_RECORD
  5
12959
330
1
100
AcDbSymbolTableRecord
100
AcDbBlockTableRecord
  2
*D29
340
0
  0
BLOCK_RECORD
  5
12978
330
1
100
AcDbSymbolTableRecord
100
AcDbBlockTableRecord
  2
*D30
340
0
  0
BLOCK_RECORD
  5
12A01
330
1
100
AcDbSymbolTableRecord
100
AcDbBlockTableRecord
  2
*D31
340
0
  0
BLOCK_RECORD
  5
12A1E
330
1
100
AcDbSymbolTableRecord
100
AcDbBlockTableRecord
  2
*D32
340
0
  0
BLOCK_RECORD
  5
12A6C
330
1
100
AcDbSymbolTableRecord
100
AcDbBlockTableRecord
  2
*D33
340
0
  0
BLOCK_RECORD
  5
12A84
330
1
100
AcDbSymbolTableRecord
100
AcDbBlockTableRecord
  2
*D34
340
0
  0
BLOCK_RECORD
  5
12A9D
330
1
100
AcDbSymbolTableRecord
100
AcDbBlockTableRecord
  2
*D35
340
0
  0
BLOCK_RECORD
  5
12AB9
330
1
100
AcDbSymbolTableRecord
100
AcDbBlockTableRecord
  2
*D36
340
0
  0
BLOCK_RECORD
  5
12AEF
330
1
100
AcDbSymbolTableRecord
100
AcDbBlockTableRecord
  2
*D37
340
0
  0
BLOCK_RECORD
  5
12B21
330
1
100
AcDbSymbolTableRecord
100
AcDbBlockTableRecord
  2
*D38
340
0
  0
BLOCK_RECORD
  5
12B3A
330
1
100
AcDbSymbolTableRecord
100
AcDbBlockTableRecord
  2
*D39
340
0
  0
ENDTAB
  0
ENDSEC
  0
SECTION
  2
BLOCKS
  0
BLOCK
  5
38
330
37
100
AcDbEntity
  8
0
100
AcDbBlockBegin
  2
*Model_Space
 70
     0
 10
0.0
 20
0.0
 30
0.0
  3
*Model_Space
  1

  0
ENDBLK
  5
39
330
37
100
AcDbEntity
  8
0
100
AcDbBlockEnd
  0
BLOCK
  5
34
330
33
100
AcDbEntity
 67
     1
  8
0
100
AcDbBlockBegin
  2
*Paper_Space
 70
     0
 10
0.0
 20
0.0
 30
0.0
  3
*Paper_Space
  1

  0
ENDBLK
  5
35
330
33
100
AcDbEntity
 67
     1
  8
0
100
AcDbBlockEnd
  0
BLOCK
  5
3C
330
3B
100
AcDbEntity
 67
     1
  8
0
100
AcDbBlockBegin
  2
*Paper_Space0
 70
     0
 10
0.0
 20
0.0
 30
0.0
  3
*Paper_Space0
  1

  0
ENDBLK
  5
3D
330
3B
100
AcDbEntity
 67
     1
  8
0
100
AcDbBlockEnd
  0
BLOCK
  5
123D6
330
123D5
100
AcDbEntity
  8
0
100
AcDbBlockBegin
  2
*D1
 70
     1
 10
0.0
 20
0.0
 30
0.0
  3
*D1
  1

  0
LINE
  5
12C19
330
123D5
100
AcDbEntity
  8
0
 62
     4
370
    -2
100
AcDbLine
 10
84.67890442808025
 20
592.499238924001
 30
0.0
 11
84.67890442808025
 21
652.1417053465668
 31
0.0
  0
LINE
  5
12C1A
330
123D5
100
AcDbEntity
  8
0
 62
     4
370
    -2
100
AcDbLine
 10
226.6789044280803
 20
592.4992389231532
 30
0.0
 11
226.6789044280803
 21
652.1417053465668
 31
0.0
  0
LINE
  5
12C1B
330
123D5
100
AcDbEntity
  8
0
 62
     4
370
    -2
100
AcDbLine
 10
87.82890442808028
 20
650.1417053465668
 30
0.0
 11
223.5289044280803
 21
650.1417053465668
 31
0.0
  0
SOLID
  5
12C1C
330
123D5
100
AcDbEntity
  8
0
 62
     4
100
AcDbTrace
 10
87.82890442808028
 20
650.6667053465663
 30
0.0
 11
87.82890442808028
 21
649.6167053465667
 31
0.0
 12
84.67890442808025
 22
650.1417053465668
 32
0.0
 13
84.67890442808025
 23
650.1417053465668
 33
0.0
  0
SOLID
  5
12C1D
330
123D5
100
AcDbEntity
  8
0
 62
     4
100
AcDbTrace
 10
223.5289044280803
 20
650.6667053465663
 30
0.0
 11
223.5289044280803
 21
649.6167053465667
 31
0.0
 12
226.6789044280803
 22
650.1417053465668
 32
0.0
 13
226.6789044280803
 23
650.1417053465668
 33
0.0
  0
MTEXT
  5
12C1E
330
123D5
100
AcDbEntity
  8
0
 62
     2
100
AcDbMText
 10
155.6789044280803
 20
652.5167053465668
 30
0.0
 40
3.149999999999999
 41
0.0
 71
     5
 72
     1
  1
\A1;142
  7
ROMAN
 73
     1
 44
1.0
1001
ACAD
1000
MTEXTBEGIN
1070
    73
1070
     1
1070
    44
1040
1.0
1070
    74
1070
     0
1000
MTEXTEND
  0
POINT
  5
12C1F
330
123D5
100
AcDbEntity
  8
Defpoints
 62
     0
100
AcDbPoint
 10
84.67890442808025
 20
591.499238924001
 30
0.0
  0
POINT
  5
12C20
330
123D5
100
AcDbEntity
  8
Defpoints
 62
     0
100
AcDbPoint
 10
226.6789044280803
 20
591.4992389231533
 30
0.0
  0
POINT
  5
12C21
330
123D5
100
AcDbEntity
  8
Defpoints
 62
     0
100
AcDbPoint
 10
226.6789044280803
 20
650.1417053465668
 30
0.0
  0
ENDBLK
  5
123D7
330
123D5
100
AcDbEntity
  8
0
100
AcDbBlockEnd
  0
BLOCK
  5
12402
330
12401
100
AcDbEntity
  8
0
100
AcDbBlockBegin
  2
*D2
 70
     1
 10
0.0
 20
0.0
 30
0.0
  3
*D2
  1

  0
LINE
  5
12C22
330
12401
100
AcDbEntity
  8
0
 62
     4
370
    -2
100
AcDbLine
 10
100.6789044280715
 20
573.9992389239902
 30
0.0
 11
100.6789044280715
 21
539.0506812347345
 31
0.0
  0
LINE
  5
12C23
330
12401
100
AcDbEntity
  8
0
 62
     4
370
    -2
100
AcDbLine
 10
210.6789044280759
 20
573.9992389239741
 30
0.0
 11
210.6789044280759
 21
539.0506812347345
 31
0.0
  0
LINE
  5
12C24
330
12401
100
AcDbEntity
  8
0
 62
     4
370
    -2
100
AcDbLine
 10
103.8289044280715
 20
541.0506812347343
 30
0.0
 11
207.5289044280758
 21
541.0506812347343
 31
0.0
  0
SOLID
  5
12C25
330
12401
100
AcDbEntity
  8
0
 62
     4
100
AcDbTrace
 10
103.8289044280715
 20
541.5756812347344
 30
0.0
 11
103.8289044280715
 21
540.5256812347345
 31
0.0
 12
100.6789044280715
 22
541.0506812347343
 32
0.0
 13
100.6789044280715
 23
541.0506812347343
 33
0.0
  0
SOLID
  5
12C26
330
12401
100
AcDbEntity
  8
0
 62
     4
100
AcDbTrace
 10
207.5289044280758
 20
541.5756812347344
 30
0.0
 11
207.5289044280758
 21
540.5256812347345
 31
0.0
 12
210.6789044280759
 22
541.0506812347343
 32
0.0
 13
210.6789044280759
 23
541.0506812347343
 33
0.0
  0
MTEXT
  5
12C27
330
12401
100
AcDbEntity
  8
0
 62
     2
100
AcDbMText
 10
155.6789044280736
 20
543.4256812347345
 30
0.0
 40
3.149999999999999
 41
0.0
 71
     5
 72
     1
  1
\A1;110
  7
ROMAN
 73
     1
 44
1.0
1001
ACAD
1000
MTEXTBEGIN
1070
    73
1070
     1
1070
    44
1040
1.0
1070
    74
1070
     0
1000
MTEXTEND
  0
POINT
  5
12C28
330
12401
100
AcDbEntity
  8
Defpoints
 62
     0
100
AcDbPoint
 10
100.6789044280715
 20
574.9992389239902
 30
0.0
  0
POINT
  5
12C29
330
12401
100
AcDbEntity
  8
Defpoints
 62
     0
100
AcDbPoint
 10
210.6789044280759
 20
574.9992389239742
 30
0.0
  0
POINT
  5
12C2A
330
12401
100
AcDbEntity
  8
Defpoints
 62
     0
100
AcDbPoint
 10
210.6789044280759
 20
541.0506812347343
 30
0.0
  0
ENDBLK
  5
12403
330
12401
100
AcDbEntity
  8
0
100
AcDbBlockEnd
  0
BLOCK
  5
1243F
330
1243E
100
AcDbEntity
  8
0
100
AcDbBlockBegin
  2
*D3
 70
     1
 10
0.0
 20
0.0
 30
0.0
  3
*D3
  1

  0
LINE
  5
13145
330
1243E
100
AcDbEntity
  8
0
 62
     4
370
    -2
100
AcDbLine
 10
156.6789044280744
 20
603.2492389239916
 30
0.0
 11
248.6027881896758
 21
603.2492389239916
 31
0.0
  0
LINE
  5
13146
330
1243E
100
AcDbEntity
  8
0
 62
     4
370
    -2
100
AcDbLine
 10
156.6789044280776
 20
569.2674917183381
 30
0.0
 11
248.6027881896758
 21
569.2674917183381
 31
0.0
  0
LINE
  5
13147
330
1243E
100
AcDbEntity
  8
0
 62
     4
370
    -2
100
AcDbLine
 10
246.6027881896758
 20
600.0992389239915
 30
0.0
 11
246.6027881896758
 21
572.417491718338
 31
0.0
  0
SOLID
  5
13148
330
1243E
100
AcDbEntity
  8
0
 62
     4
100
AcDbTrace
 10
246.0777881896758
 20
600.0992389239915
 30
0.0
 11
247.1277881896758
 21
600.0992389239915
 31
0.0
 12
246.6027881896758
 22
603.2492389239916
 32
0.0
 13
246.6027881896758
 23
603.2492389239916
 33
0.0
  0
SOLID
  5
13149
330
1243E
100
AcDbEntity
  8
0
 62
     4
100
AcDbTrace
 10
246.0777881896758
 20
572.417491718338
 30
0.0
 11
247.1277881896758
 21
572.417491718338
 31
0.0
 12
246.6027881896758
 22
569.2674917183381
 32
0.0
 13
246.6027881896758
 23
569.2674917183381
 33
0.0
  0
MTEXT
  5
1314A
330
1243E
100
AcDbEntity
  8
0
 62
     2
100
AcDbMText
 10
244.2277881896757
 20
586.2583653211648
 30
0.0
 40
3.149999999999999
 41
0.0
 71
     5
 72
     1
  1
\A1;34
  7
ROMAN
 11
0.0000000000000001
 21
1.0
 31
0.0
 73
     1
 44
1.0
1001
ACAD
1000
MTEXTBEGIN
1070
    73
1070
     1
1070
    44
1040
1.0
1070
    74
1070
     0
1000
MTEXTEND
  0
POINT
  5
1314B
330
1243E
100
AcDbEntity
  8
Defpoints
 62
     0
100
AcDbPoint
 10
155.6789044280744
 20
603.2492389239916
 30
0.0
  0
POINT
  5
1314C
330
1243E
100
AcDbEntity
  8
Defpoints
 62
     0
100
AcDbPoint
 10
155.6789044280776
 20
569.2674917183381
 30
0.0
  0
POINT
  5
1314D
330
1243E
100
AcDbEntity
  8
Defpoints
 62
     0
100
AcDbPoint
 10
246.6027881896758
 20
569.2674917183381
 30
0.0
  0
ENDBLK
  5
12440
330
1243E
100
AcDbEntity
  8
0
100
AcDbBlockEnd
  0
BLOCK
  5
12457
330
12456
100
AcDbEntity
  8
0
100
AcDbBlockBegin
  2
*D4
 70
     1
 10
0.0
 20
0.0
 30
0.0
  3
*D4
  1

  0
LINE
  5
1314E
330
12456
100
AcDbEntity
  8
0
 62
     4
370
    -2
100
AcDbLine
 10
156.6789044280771
 20
623.9992389231296
 30
0.0
 11
264.8589717154434
 21
623.9992389231296
 31
0.0
  0
LINE
  5
1314F
330
12456
100
AcDbEntity
  8
0
 62
     4
370
    -2
100
AcDbLine
 10
156.6790904074528
 20
558.9992389316823
 30
0.0
 11
264.8589717154434
 21
558.9992389316822
 31
0.0
  0
LINE
  5
13150
330
12456
100
AcDbEntity
  8
0
 62
     4
370
    -2
100
AcDbLine
 10
262.8589717154434
 20
620.8492389231296
 30
0.0
 11
262.8589717154434
 21
562.1492389316822
 31
0.0
  0
SOLID
  5
13151
330
12456
100
AcDbEntity
  8
0
 62
     4
100
AcDbTrace
 10
262.3339717154435
 20
620.8492389231296
 30
0.0
 11
263.3839717154434
 21
620.8492389231296
 31
0.0
 12
262.8589717154434
 22
623.9992389231296
 32
0.0
 13
262.8589717154434
 23
623.9992389231296
 33
0.0
  0
SOLID
  5
13152
330
12456
100
AcDbEntity
  8
0
 62
     4
100
AcDbTrace
 10
262.3339717154435
 20
562.1492389316822
 30
0.0
 11
263.3839717154434
 21
562.1492389316822
 31
0.0
 12
262.8589717154434
 22
558.9992389316822
 32
0.0
 13
262.8589717154434
 23
558.9992389316822
 33
0.0
  0
MTEXT
  5
13153
330
12456
100
AcDbEntity
  8
0
 62
     2
100
AcDbMText
 10
260.4839717154434
 20
591.499238927406
 30
0.0
 40
3.149999999999999
 41
0.0
 71
     5
 72
     1
  1
\A1;65
  7
ROMAN
 11
0.0000000000000001
 21
1.0
 31
0.0
 73
     1
 44
1.0
1001
ACAD
1000
MTEXTBEGIN
1070
    73
1070
     1
1070
    44
1040
1.0
1070
    74
1070
     0
1000
MTEXTEND
  0
POINT
  5
13154
330
12456
100
AcDbEntity
  8
Defpoints
 62
     0
100
AcDbPoint
 10
155.6789044280771
 20
623.9992389231296
 30
0.0
  0
POINT
  5
13155
330
12456
100
AcDbEntity
  8
Defpoints
 62
     0
100
AcDbPoint
 10
155.6790904074528
 20
558.9992389316823
 30
0.0
  0
POINT
  5
13156
330
12456
100
AcDbEntity
  8
Defpoints
 62
     0
100
AcDbPoint
 10
262.8589717154434
 20
558.9992389316822
 30
0.0
  0
ENDBLK
  5
12458
330
12456
100
AcDbEntity
  8
0
100
AcDbBlockEnd
  0
BLOCK
  5
124D2
330
124D1
100
AcDbEntity
  8
0
100
AcDbBlockBegin
  2
*D5
 70
     1
 10
0.0
 20
0.0
 30
0.0
  3
*D5
  1

  0
LINE
  5
13157
330
124D1
100
AcDbEntity
  8
0
 62
     4
370
    -2
100
AcDbLine
 10
98.17890442807772
 20
493.6499388918084
 30
0.0
 11
98.17890442807772
 21
480.8655668523953
 31
0.0
  0
LINE
  5
13158
330
124D1
100
AcDbEntity
  8
0
 62
     4
370
    -2
100
AcDbLine
 10
213.1789044280778
 20
493.4577470262801
 30
0.0
 11
213.1789044280778
 21
480.8655668523953
 31
0.0
  0
LINE
  5
13159
330
124D1
100
AcDbEntity
  8
0
 62
     4
370
    -2
100
AcDbLine
 10
101.3289044280777
 20
482.8655668523953
 30
0.0
 11
210.0289044280778
 21
482.8655668523953
 31
0.0
  0
SOLID
  5
1315A
330
124D1
100
AcDbEntity
  8
0
 62
     4
100
AcDbTrace
 10
101.3289044280777
 20
483.3905668523953
 30
0.0
 11
101.3289044280777
 21
482.3405668523953
 31
0.0
 12
98.17890442807772
 22
482.8655668523953
 32
0.0
 13
98.17890442807772
 23
482.8655668523953
 33
0.0
  0
SOLID
  5
1315B
330
124D1
100
AcDbEntity
  8
0
 62
     4
100
AcDbTrace
 10
210.0289044280778
 20
483.3905668523953
 30
0.0
 11
210.0289044280778
 21
482.3405668523953
 31
0.0
 12
213.1789044280778
 22
482.8655668523953
 32
0.0
 13
213.1789044280778
 23
482.8655668523953
 33
0.0
  0
MTEXT
  5
1315C
330
124D1
100
AcDbEntity
  8
0
 62
     2
100
AcDbMText
 10
155.6789044280777
 20
485.2405668523953
 30
0.0
 40
3.149999999999999
 41
0.0
 71
     5
 72
     1
  1
\A1;115
  7
ROMAN
 73
     1
 44
1.0
1001
ACAD
1000
MTEXTBEGIN
1070
    73
1070
     1
1070
    44
1040
1.0
1070
    74
1070
     0
1000
MTEXTEND
  0
POINT
  5
1315D
330
124D1
100
AcDbEntity
  8
Defpoints
 62
     0
100
AcDbPoint
 10
98.17890442807772
 20
494.6499388918084
 30
0.0
  0
POINT
  5
1315E
330
124D1
100
AcDbEntity
  8
Defpoints
 62
     0
100
AcDbPoint
 10
213.1789044280778
 20
494.45774702628
 30
0.0
  0
POINT
  5
1315F
330
124D1
100
AcDbEntity
  8
Defpoints
 62
     0
100
AcDbPoint
 10
213.1789044280778
 20
482.8655668523953
 30
0.0
  0
ENDBLK
  5
124D3
330
124D1
100
AcDbEntity
  8
0
100
AcDbBlockEnd
  0
BLOCK
  5
124EA
330
124E9
100
AcDbEntity
  8
0
100
AcDbBlockBegin
  2
*D6
 70
     1
 10
0.0
 20
0.0
 30
0.0
  3
*D6
  1

  0
LINE
  5
12C46
330
124E9
100
AcDbEntity
  8
0
 62
     4
370
    -2
100
AcDbLine
 10
92.67549683565443
 20
491.4851845258395
 30
0.0
 11
92.67549683565443
 21
468.9529531225247
 31
0.0
  0
LINE
  5
12C47
330
124E9
100
AcDbEntity
  8
0
 62
     4
370
    -2
100
AcDbLine
 10
218.6823120205015
 20
491.4851845258395
 30
0.0
 11
218.6823120205015
 21
468.9529531225247
 31
0.0
  0
LINE
  5
12C48
330
124E9
100
AcDbEntity
  8
0
 62
     4
370
    -2
100
AcDbLine
 10
95.82549683565444
 20
470.9529531225247
 30
0.0
 11
215.5323120205014
 21
470.9529531225247
 31
0.0
  0
SOLID
  5
12C49
330
124E9
100
AcDbEntity
  8
0
 62
     4
100
AcDbTrace
 10
95.82549683565444
 20
471.4779531225246
 30
0.0
 11
95.82549683565444
 21
470.4279531225247
 31
0.0
 12
92.67549683565443
 22
470.9529531225247
 32
0.0
 13
92.67549683565443
 23
470.9529531225247
 33
0.0
  0
SOLID
  5
12C4A
330
124E9
100
AcDbEntity
  8
0
 62
     4
100
AcDbTrace
 10
215.5323120205014
 20
471.4779531225246
 30
0.0
 11
215.5323120205014
 21
470.4279531225247
 31
0.0
 12
218.6823120205015
 22
470.9529531225247
 32
0.0
 13
218.6823120205015
 23
470.9529531225247
 33
0.0
  0
MTEXT
  5
12C4B
330
124E9
100
AcDbEntity
  8
0
 62
     2
100
AcDbMText
 10
155.6789044280779
 20
473.3279531225247
 30
0.0
 40
3.149999999999999
 41
0.0
 71
     5
 72
     1
  1
\A1;126
  7
ROMAN
 73
     1
 44
1.0
1001
ACAD
1000
MTEXTBEGIN
1070
    73
1070
     1
1070
    44
1040
1.0
1070
    74
1070
     0
1000
MTEXTEND
  0
POINT
  5
12C4C
330
124E9
100
AcDbEntity
  8
Defpoints
 62
     0
100
AcDbPoint
 10
92.67549683565443
 20
492.4851845258395
 30
0.0
  0
POINT
  5
12C4D
330
124E9
100
AcDbEntity
  8
Defpoints
 62
     0
100
AcDbPoint
 10
218.6823120205015
 20
492.4851845258395
 30
0.0
  0
POINT
  5
12C4E
330
124E9
100
AcDbEntity
  8
Defpoints
 62
     0
100
AcDbPoint
 10
218.6823120205015
 20
470.9529531225247
 30
0.0
  0
ENDBLK
  5
124EB
330
124E9
100
AcDbEntity
  8
0
100
AcDbBlockEnd
  0
BLOCK
  5
12508
330
12507
100
AcDbEntity
  8
0
100
AcDbBlockBegin
  2
*D7
 70
     1
 10
0.0
 20
0.0
 30
0.0
  3
*D7
  1

  0
LINE
  5
130F1
330
12507
100
AcDbEntity
  8
0
 62
     4
370
    -2
100
AcDbLine
 10
306.9666415645163
 20
598.66504385687
 30
0.0
 11
306.9666415645163
 21
566.1759827090905
 31
0.0
  0
LINE
  5
130F2
330
12507
100
AcDbEntity
  8
0
 62
     4
370
    -2
100
AcDbLine
 10
422.9672578799899
 20
600.1781929295845
 30
0.0
 11
422.9672578799899
 21
566.1759827090905
 31
0.0
  0
LINE
  5
130F3
330
12507
100
AcDbEntity
  8
0
 62
     4
370
    -2
100
AcDbLine
 10
310.1166415645163
 20
568.1759827090904
 30
0.0
 11
419.8172578799899
 21
568.1759827090904
 31
0.0
  0
SOLID
  5
130F4
330
12507
100
AcDbEntity
  8
0
 62
     4
100
AcDbTrace
 10
310.1166415645163
 20
568.7009827090904
 30
0.0
 11
310.1166415645163
 21
567.6509827090905
 31
0.0
 12
306.9666415645163
 22
568.1759827090904
 32
0.0
 13
306.9666415645163
 23
568.1759827090904
 33
0.0
  0
SOLID
  5
130F5
330
12507
100
AcDbEntity
  8
0
 62
     4
100
AcDbTrace
 10
419.8172578799899
 20
568.7009827090904
 30
0.0
 11
419.8172578799899
 21
567.6509827090905
 31
0.0
 12
422.9672578799899
 22
568.1759827090904
 32
0.0
 13
422.9672578799899
 23
568.1759827090904
 33
0.0
  0
MTEXT
  5
130F6
330
12507
100
AcDbEntity
  8
0
 62
     2
100
AcDbMText
 10
364.9669497222531
 20
570.5509827090905
 30
0.0
 40
3.149999999999999
 41
0.0
 71
     5
 72
     1
  1
\A1;116
  7
ROMAN
 73
     1
 44
1.0
1001
ACAD
1000
MTEXTBEGIN
1070
    73
1070
     1
1070
    44
1040
1.0
1070
    74
1070
     0
1000
MTEXTEND
  0
POINT
  5
130F7
330
12507
100
AcDbEntity
  8
Defpoints
 62
     0
100
AcDbPoint
 10
306.9666415645163
 20
599.66504385687
 30
0.0
  0
POINT
  5
130F8
330
12507
100
AcDbEntity
  8
Defpoints
 62
     0
100
AcDbPoint
 10
422.9672578799899
 20
601.1781929295846
 30
0.0
  0
POINT
  5
130F9
330
12507
100
AcDbEntity
  8
Defpoints
 62
     0
100
AcDbPoint
 10
422.9672578799899
 20
568.1759827090904
 30
0.0
  0
ENDBLK
  5
12509
330
12507
100
AcDbEntity
  8
0
100
AcDbBlockEnd
  0
BLOCK
  5
1252B
330
1252A
100
AcDbEntity
  8
0
100
AcDbBlockBegin
  2
*D8
 70
     1
 10
0.0
 20
0.0
 30
0.0
  3
*D8
  1

  0
LINE
  5
12C58
330
1252A
100
AcDbEntity
  8
0
 62
     4
370
    -2
100
AcDbLine
 10
301.9669645318477
 20
609.6648881288717
 30
0.0
 11
301.9669645318477
 21
553.5772621421083
 31
0.0
  0
LINE
  5
12C59
330
1252A
100
AcDbEntity
  8
0
 62
     4
370
    -2
100
AcDbLine
 10
427.9669645309389
 20
609.6648881288717
 30
0.0
 11
427.9669645309389
 21
553.5772621421083
 31
0.0
  0
LINE
  5
12C5A
330
1252A
100
AcDbEntity
  8
0
 62
     4
370
    -2
100
AcDbLine
 10
305.1169645318477
 20
555.5772621421083
 30
0.0
 11
424.8169645309388
 21
555.5772621421083
 31
0.0
  0
SOLID
  5
12C5B
330
1252A
100
AcDbEntity
  8
0
 62
     4
100
AcDbTrace
 10
305.1169645318477
 20
556.1022621421084
 30
0.0
 11
305.1169645318477
 21
555.0522621421086
 31
0.0
 12
301.9669645318477
 22
555.5772621421083
 32
0.0
 13
301.9669645318477
 23
555.5772621421083
 33
0.0
  0
SOLID
  5
12C5C
330
1252A
100
AcDbEntity
  8
0
 62
     4
100
AcDbTrace
 10
424.8169645309388
 20
556.1022621421084
 30
0.0
 11
424.8169645309388
 21
555.0522621421086
 31
0.0
 12
427.9669645309389
 22
555.5772621421083
 32
0.0
 13
427.9669645309389
 23
555.5772621421083
 33
0.0
  0
MTEXT
  5
12C5D
330
1252A
100
AcDbEntity
  8
0
 62
     2
100
AcDbMText
 10
364.9669645313933
 20
557.9522621421083
 30
0.0
 40
3.149999999999999
 41
0.0
 71
     5
 72
     1
  1
\A1;126
  7
ROMAN
 73
     1
 44
1.0
1001
ACAD
1000
MTEXTBEGIN
1070
    73
1070
     1
1070
    44
1040
1.0
1070
    74
1070
     0
1000
MTEXTEND
  0
POINT
  5
12C5E
330
1252A
100
AcDbEntity
  8
Defpoints
 62
     0
100
AcDbPoint
 10
301.9669645318477
 20
610.6648881288718
 30
0.0
  0
POINT
  5
12C5F
330
1252A
100
AcDbEntity
  8
Defpoints
 62
     0
100
AcDbPoint
 10
427.9669645309389
 20
610.6648881288718
 30
0.0
  0
POINT
  5
12C60
330
1252A
100
AcDbEntity
  8
Defpoints
 62
     0
100
AcDbPoint
 10
427.9669645309389
 20
555.5772621421083
 30
0.0
  0
ENDBLK
  5
1252C
330
1252A
100
AcDbEntity
  8
0
100
AcDbBlockEnd
  0
BLOCK
  5
12544
330
12543
100
AcDbEntity
  8
0
100
AcDbBlockBegin
  2
*D9
 70
     1
 10
0.0
 20
0.0
 30
0.0
  3
*D9
  1

  0
LINE
  5
12C61
330
12543
100
AcDbEntity
  8
0
 62
     4
370
    -2
100
AcDbLine
 10
428.9669645309388
 20
619.6648881288762
 30
0.0
 11
456.9835112560808
 21
619.6648881288762
 31
0.0
  0
LINE
  5
12C62
330
12543
100
AcDbEntity
  8
0
 62
     4
370
    -2
100
AcDbLine
 10
428.9669645309388
 20
612.6648881288762
 30
0.0
 11
456.9835112560808
 21
612.6648881288762
 31
0.0
  0
LINE
  5
12C63
330
12543
100
AcDbEntity
  8
0
 62
     4
370
    -2
100
AcDbLine
 10
454.9835112560812
 20
622.8148881288762
 30
0.0
 11
454.9835112560812
 21
625.9648881288763
 31
0.0
  0
LINE
  5
12C64
330
12543
100
AcDbEntity
  8
0
 62
     4
370
    -2
100
AcDbLine
 10
454.9835112560812
 20
609.5148881288762
 30
0.0
 11
454.9835112560812
 21
606.3648881288762
 31
0.0
  0
LINE
  5
12C65
330
12543
100
AcDbEntity
  8
0
 62
     4
370
    -2
100
AcDbLine
 10
454.9835112560812
 20
619.6648881288762
 30
0.0
 11
454.9835112560812
 21
612.6648881288762
 31
0.0
  0
SOLID
  5
12C66
330
12543
100
AcDbEntity
  8
0
 62
     4
100
AcDbTrace
 10
454.458511256081
 20
622.8148881288762
 30
0.0
 11
455.508511256081
 21
622.8148881288762
 31
0.0
 12
454.9835112560812
 22
619.6648881288762
 32
0.0
 13
454.9835112560812
 23
619.6648881288762
 33
0.0
  0
SOLID
  5
12C67
330
12543
100
AcDbEntity
  8
0
 62
     4
100
AcDbTrace
 10
454.458511256081
 20
609.5148881288762
 30
0.0
 11
455.508511256081
 21
609.5148881288762
 31
0.0
 12
454.9835112560812
 22
612.6648881288762
 32
0.0
 13
454.9835112560812
 23
612.6648881288762
 33
0.0
  0
MTEXT
  5
12C68
330
12543
100
AcDbEntity
  8
0
 62
     2
100
AcDbMText
 10
452.6085112560807
 20
616.1648881288762
 30
0.0
 40
3.149999999999999
 41
0.0
 71
     5
 72
     1
  1
\A1;7
  7
ROMAN
 11
0.0000000000000001
 21
1.0
 31
0.0
 73
     1
 44
1.0
1001
ACAD
1000
MTEXTBEGIN
1070
    73
1070
     1
1070
    44
1040
1.0
1070
    74
1070
     0
1000
MTEXTEND
  0
POINT
  5
12C69
330
12543
100
AcDbEntity
  8
Defpoints
 62
     0
100
AcDbPoint
 10
427.966964530939
 20
619.6648881288762
 30
0.0
  0
POINT
  5
12C6A
330
12543
100
AcDbEntity
  8
Defpoints
 62
     0
100
AcDbPoint
 10
427.966964530939
 20
612.6648881288762
 30
0.0
  0
POINT
  5
12C6B
330
12543
100
AcDbEntity
  8
Defpoints
 62
     0
100
AcDbPoint
 10
454.9835112560812
 20
612.6648881288762
 30
0.0
  0
ENDBLK
  5
12545
330
12543
100
AcDbEntity
  8
0
100
AcDbBlockEnd
  0
BLOCK
  5
12560
330
1255F
100
AcDbEntity
  8
0
100
AcDbBlockBegin
  2
*D10
 70
     1
 10
0.0
 20
0.0
 30
0.0
  3
*D10
  1

  0
LINE
  5
1300A
330
1255F
100
AcDbEntity
  8
0
 62
     4
370
    -2
100
AcDbLine
 10
415.7172874998038
 20
641.1648889923581
 30
0.0
 11
470.6937047500334
 21
641.1648889923581
 31
0.0
  0
LINE
  5
1300B
330
1255F
100
AcDbEntity
  8
0
 62
     4
370
    -2
100
AcDbLine
 10
415.7172874998038
 20
591.1648872653946
 30
0.0
 11
470.6937047500333
 21
591.1648872653946
 31
0.0
  0
LINE
  5
1300C
330
1255F
100
AcDbEntity
  8
0
 62
     4
370
    -2
100
AcDbLine
 10
468.6937047500333
 20
638.0148889923581
 30
0.0
 11
468.6937047500333
 21
594.3148872653945
 31
0.0
  0
SOLID
  5
1300D
330
1255F
100
AcDbEntity
  8
0
 62
     4
100
AcDbTrace
 10
468.1687047500333
 20
638.0148889923581
 30
0.0
 11
469.2187047500333
 21
638.0148889923581
 31
0.0
 12
468.6937047500334
 22
641.1648889923581
 32
0.0
 13
468.6937047500334
 23
641.1648889923581
 33
0.0
  0
SOLID
  5
1300E
330
1255F
100
AcDbEntity
  8
0
 62
     4
100
AcDbTrace
 10
468.1687047500333
 20
594.3148872653945
 30
0.0
 11
469.2187047500333
 21
594.3148872653945
 31
0.0
 12
468.6937047500333
 22
591.1648872653946
 32
0.0
 13
468.6937047500333
 23
591.1648872653946
 33
0.0
  0
MTEXT
  5
1300F
330
1255F
100
AcDbEntity
  8
0
 62
     2
100
AcDbMText
 10
466.3187047500333
 20
616.1648881288764
 30
0.0
 40
3.149999999999999
 41
0.0
 71
     5
 72
     1
  1
\A1;50
  7
ROMAN
 11
0.0000000000000001
 21
1.0
 31
0.0
 73
     1
 44
1.0
1001
ACAD
1000
MTEXTBEGIN
1070
    73
1070
     1
1070
    44
1040
1.0
1070
    74
1070
     0
1000
MTEXTEND
  0
POINT
  5
13010
330
1255F
100
AcDbEntity
  8
Defpoints
 62
     0
100
AcDbPoint
 10
414.7172874998038
 20
641.1648889923581
 30
0.0
  0
POINT
  5
13011
330
1255F
100
AcDbEntity
  8
Defpoints
 62
     0
100
AcDbPoint
 10
414.7172874998038
 20
591.1648872653946
 30
0.0
  0
POINT
  5
13012
330
1255F
100
AcDbEntity
  8
Defpoints
 62
     0
100
AcDbPoint
 10
468.6937047500333
 20
591.1648872653946
 30
0.0
  0
ENDBLK
  5
12561
330
1255F
100
AcDbEntity
  8
0
100
AcDbBlockEnd
  0
BLOCK
  5
12578
330
12577
100
AcDbEntity
  8
0
100
AcDbBlockBegin
  2
*D11
 70
     1
 10
0.0
 20
0.0
 30
0.0
  3
*D11
  1

  0
LINE
  5
1310B
330
12577
100
AcDbEntity
  8
0
 62
     4
370
    -2
100
AcDbLine
 10
340.2823380163348
 20
493.5929830515215
 30
0.0
 11
340.2823380163348
 21
478.9018966087319
 31
0.0
  0
LINE
  5
1310C
330
12577
100
AcDbEntity
  8
0
 62
     4
370
    -2
100
AcDbLine
 10
389.2823380163349
 20
493.1793537327273
 30
0.0
 11
389.2823380163349
 21
478.9018966087319
 31
0.0
  0
LINE
  5
1310D
330
12577
100
AcDbEntity
  8
0
 62
     4
370
    -2
100
AcDbLine
 10
343.4323380163347
 20
480.901896608732
 30
0.0
 11
386.1323380163349
 21
480.901896608732
 31
0.0
  0
SOLID
  5
1310E
330
12577
100
AcDbEntity
  8
0
 62
     4
100
AcDbTrace
 10
343.4323380163347
 20
481.4268966087319
 30
0.0
 11
343.4323380163347
 21
480.376896608732
 31
0.0
 12
340.2823380163348
 22
480.901896608732
 32
0.0
 13
340.2823380163348
 23
480.901896608732
 33
0.0
  0
SOLID
  5
1310F
330
12577
100
AcDbEntity
  8
0
 62
     4
100
AcDbTrace
 10
386.1323380163349
 20
481.4268966087319
 30
0.0
 11
386.1323380163349
 21
480.376896608732
 31
0.0
 12
389.2823380163349
 22
480.901896608732
 32
0.0
 13
389.2823380163349
 23
480.901896608732
 33
0.0
  0
MTEXT
  5
13110
330
12577
100
AcDbEntity
  8
0
 62
     2
100
AcDbMText
 10
364.7823380163348
 20
483.276896608732
 30
0.0
 40
3.149999999999999
 41
0.0
 71
     5
 72
     1
  1
\A1;49
  7
ROMAN
 73
     1
 44
1.0
1001
ACAD
1000
MTEXTBEGIN
1070
    73
1070
     1
1070
    44
1040
1.0
1070
    74
1070
     0
1000
MTEXTEND
  0
POINT
  5
13111
330
12577
100
AcDbEntity
  8
Defpoints
 62
     0
100
AcDbPoint
 10
340.2823380163348
 20
494.5929830515215
 30
0.0
  0
POINT
  5
13112
330
12577
100
AcDbEntity
  8
Defpoints
 62
     0
100
AcDbPoint
 10
389.2823380163349
 20
494.1793537327273
 30
0.0
  0
POINT
  5
13113
330
12577
100
AcDbEntity
  8
Defpoints
 62
     0
100
AcDbPoint
 10
389.2823380163349
 20
480.901896608732
 30
0.0
  0
ENDBLK
  5
12579
330
12577
100
AcDbEntity
  8
0
100
AcDbBlockEnd
  0
BLOCK
  5
12590
330
1258F
100
AcDbEntity
  8
0
100
AcDbBlockBegin
  2
*D12
 70
     1
 10
0.0
 20
0.0
 30
0.0
  3
*D12
  1

  0
LINE
  5
12C7E
330
1258F
100
AcDbEntity
  8
0
 62
     4
370
    -2
100
AcDbLine
 10
377.9879319376989
 20
515.1491183490345
 30
0.0
 11
413.4559801192057
 21
515.1491183490345
 31
0.0
  0
LINE
  5
12C7F
330
1258F
100
AcDbEntity
  8
0
 62
     4
370
    -2
100
AcDbLine
 10
398.7823380163659
 20
502.6793537327272
 30
0.0
 11
413.4559801192057
 21
502.6793537327272
 31
0.0
  0
LINE
  5
12C80
330
1258F
100
AcDbEntity
  8
0
 62
     4
370
    -2
100
AcDbLine
 10
411.4559801192057
 20
511.9991183490346
 30
0.0
 11
411.4559801192057
 21
505.8293537327274
 31
0.0
  0
SOLID
  5
12C81
330
1258F
100
AcDbEntity
  8
0
 62
     4
100
AcDbTrace
 10
410.9309801192059
 20
511.9991183490346
 30
0.0
 11
411.9809801192056
 21
511.9991183490346
 31
0.0
 12
411.4559801192057
 22
515.1491183490345
 32
0.0
 13
411.4559801192057
 23
515.1491183490345
 33
0.0
  0
SOLID
  5
12C82
330
1258F
100
AcDbEntity
  8
0
 62
     4
100
AcDbTrace
 10
410.9309801192059
 20
505.8293537327274
 30
0.0
 11
411.9809801192056
 21
505.8293537327274
 31
0.0
 12
411.4559801192057
 22
502.6793537327272
 32
0.0
 13
411.4559801192057
 23
502.6793537327272
 33
0.0
  0
MTEXT
  5
12C83
330
1258F
100
AcDbEntity
  8
0
 62
     2
100
AcDbMText
 10
409.0809801192055
 20
508.9142360408811
 30
0.0
 40
3.149999999999999
 41
0.0
 71
     5
 72
     1
  1
\A1;12.5
  7
ROMAN
 11
0.0000000000000001
 21
1.0
 31
0.0
 73
     1
 44
1.0
1001
ACAD
1000
MTEXTBEGIN
1070
    73
1070
     1
1070
    44
1040
1.0
1070
    74
1070
     0
1000
MTEXTEND
  0
POINT
  5
12C84
330
1258F
100
AcDbEntity
  8
Defpoints
 62
     0
100
AcDbPoint
 10
376.9879319376989
 20
515.1491183490345
 30
0.0
  0
POINT
  5
12C85
330
1258F
100
AcDbEntity
  8
Defpoints
 62
     0
100
AcDbPoint
 10
397.7823380163659
 20
502.6793537327272
 30
0.0
  0
POINT
  5
12C86
330
1258F
100
AcDbEntity
  8
Defpoints
 62
     0
100
AcDbPoint
 10
411.4559801192057
 20
502.6793537327272
 30
0.0
  0
ENDBLK
  5
12591
330
1258F
100
AcDbEntity
  8
0
100
AcDbBlockEnd
  0
BLOCK
  5
125B2
330
125B1
100
AcDbEntity
  8
0
100
AcDbBlockBegin
  2
*D13
 70
     1
 10
0.0
 20
0.0
 30
0.0
  3
*D13
  1

  0
LINE
  5
1311F
330
125B1
100
AcDbEntity
  8
0
 62
     4
370
    -2
100
AcDbLine
 10
386.3971192385398
 20
493.1793537327273
 30
0.0
 11
413.4559801192057
 21
493.1793537327273
 31
0.0
  0
LINE
  5
13120
330
125B1
100
AcDbEntity
  8
0
 62
     4
370
    -2
100
AcDbLine
 10
398.7823380163659
 20
502.6793537327272
 30
0.0
 11
413.4559801192057
 21
502.6793537327272
 31
0.0
  0
LINE
  5
13121
330
125B1
100
AcDbEntity
  8
0
 62
     4
370
    -2
100
AcDbLine
 10
411.4559801192057
 20
499.5293537327271
 30
0.0
 11
411.4559801192057
 21
496.3293537327273
 31
0.0
  0
LINE
  5
13122
330
125B1
100
AcDbEntity
  8
0
 62
     4
370
    -2
100
AcDbLine
 10
411.4559801192057
 20
493.1793537327273
 30
0.0
 11
411.4559801192057
 21
474.8203269498469
 31
0.0
  0
SOLID
  5
13123
330
125B1
100
AcDbEntity
  8
0
 62
     4
100
AcDbTrace
 10
410.9309801192057
 20
499.5293537327271
 30
0.0
 11
411.9809801192056
 21
499.5293537327271
 31
0.0
 12
411.4559801192057
 22
502.6793537327272
 32
0.0
 13
411.4559801192057
 23
502.6793537327272
 33
0.0
  0
SOLID
  5
13124
330
125B1
100
AcDbEntity
  8
0
 62
     4
100
AcDbTrace
 10
410.9309801192057
 20
496.3293537327273
 30
0.0
 11
411.9809801192056
 21
496.3293537327273
 31
0.0
 12
411.4559801192057
 22
493.1793537327273
 32
0.0
 13
411.4559801192057
 23
493.1793537327273
 33
0.0
  0
MTEXT
  5
13125
330
125B1
100
AcDbEntity
  8
0
 62
     2
100
AcDbMText
 10
409.0809801192056
 20
478.920326949847
 30
0.0
 40
3.149999999999999
 41
0.0
 71
     5
 72
     1
  1
\A1;9.5
  7
ROMAN
 11
0.0000000000000001
 21
1.0
 31
0.0
 73
     1
 44
1.0
1001
ACAD
1000
MTEXTBEGIN
1070
    73
1070
     1
1070
    44
1040
1.0
1070
    74
1070
     0
1000
MTEXTEND
  0
POINT
  5
13126
330
125B1
100
AcDbEntity
  8
Defpoints
 62
     0
100
AcDbPoint
 10
385.3971192385398
 20
493.1793537327273
 30
0.0
  0
POINT
  5
13127
330
125B1
100
AcDbEntity
  8
Defpoints
 62
     0
100
AcDbPoint
 10
397.7823380163659
 20
502.6793537327272
 30
0.0
  0
POINT
  5
13128
330
125B1
100
AcDbEntity
  8
Defpoints
 62
     0
100
AcDbPoint
 10
411.4559801192057
 20
502.6793537327272
 30
0.0
  0
ENDBLK
  5
125B3
330
125B1
100
AcDbEntity
  8
0
100
AcDbBlockEnd
  0
BLOCK
  5
125F6
330
125F5
100
AcDbEntity
  8
0
100
AcDbBlockBegin
  2
*D14
 70
     1
 10
0.0
 20
0.0
 30
0.0
  3
*D14
  1

  0
LINE
  5
12D07
330
125F5
100
AcDbEntity
  8
0
 62
     4
370
    -2
100
AcDbLine
 10
83.47651143222519
 20
369.278265320693
 30
0.0
 11
83.47651143222519
 21
415.664318265613
 31
0.0
  0
LINE
  5
12D08
330
125F5
100
AcDbEntity
  8
0
 62
     4
370
    -2
100
AcDbLine
 10
195.4748447608919
 20
369.2782653204868
 30
0.0
 11
195.4748447608919
 21
415.664318265613
 31
0.0
  0
LINE
  5
12D09
330
125F5
100
AcDbEntity
  8
0
 62
     4
370
    -2
100
AcDbLine
 10
86.62651143222523
 20
413.664318265613
 30
0.0
 11
192.3248447608919
 21
413.664318265613
 31
0.0
  0
SOLID
  5
12D0A
330
125F5
100
AcDbEntity
  8
0
 62
     4
100
AcDbTrace
 10
86.62651143222523
 20
414.1893182656128
 30
0.0
 11
86.62651143222523
 21
413.1393182656131
 31
0.0
 12
83.47651143222519
 22
413.664318265613
 32
0.0
 13
83.47651143222519
 23
413.664318265613
 33
0.0
  0
SOLID
  5
12D0B
330
125F5
100
AcDbEntity
  8
0
 62
     4
100
AcDbTrace
 10
192.3248447608919
 20
414.1893182656128
 30
0.0
 11
192.3248447608919
 21
413.1393182656131
 31
0.0
 12
195.4748447608919
 22
413.664318265613
 32
0.0
 13
195.4748447608919
 23
413.664318265613
 33
0.0
  0
MTEXT
  5
12D0C
330
125F5
100
AcDbEntity
  8
0
 62
     2
100
AcDbMText
 10
139.4756780965584
 20
416.0393182656131
 30
0.0
 40
3.149999999999999
 41
0.0
 71
     5
 72
     1
  1
\A1;112
  7
ROMAN
 73
     1
 44
1.0
1001
ACAD
1000
MTEXTBEGIN
1070
    73
1070
     1
1070
    44
1040
1.0
1070
    74
1070
     0
1000
MTEXTEND
  0
POINT
  5
12D0D
330
125F5
100
AcDbEntity
  8
Defpoints
 62
     0
100
AcDbPoint
 10
83.47651143222519
 20
368.278265320693
 30
0.0
  0
POINT
  5
12D0E
330
125F5
100
AcDbEntity
  8
Defpoints
 62
     0
100
AcDbPoint
 10
195.4748447608919
 20
368.2782653204868
 30
0.0
  0
POINT
  5
12D0F
330
125F5
100
AcDbEntity
  8
Defpoints
 62
     0
100
AcDbPoint
 10
195.4748447608919
 20
413.664318265613
 30
0.0
  0
ENDBLK
  5
125F7
330
125F5
100
AcDbEntity
  8
0
100
AcDbBlockEnd
  0
BLOCK
  5
12648
330
12647
100
AcDbEntity
  8
0
100
AcDbBlockBegin
  2
*D15
 70
     1
 10
0.0
 20
0.0
 30
0.0
  3
*D15
  1

  0
LINE
  5
13160
330
12647
100
AcDbEntity
  8
0
 62
     4
370
    -2
100
AcDbLine
 10
97.47484476255628
 20
358.3359622425358
 30
0.0
 11
97.47484476255628
 21
329.1501324701306
 31
0.0
  0
LINE
  5
13161
330
12647
100
AcDbEntity
  8
0
 62
     4
370
    -2
100
AcDbLine
 10
181.4748447625562
 20
358.3359622427663
 30
0.0
 11
181.4748447625562
 21
329.1501324701306
 31
0.0
  0
LINE
  5
13162
330
12647
100
AcDbEntity
  8
0
 62
     4
370
    -2
100
AcDbLine
 10
100.6248447625563
 20
331.1501324701306
 30
0.0
 11
178.3248447625562
 21
331.1501324701306
 31
0.0
  0
SOLID
  5
13163
330
12647
100
AcDbEntity
  8
0
 62
     4
100
AcDbTrace
 10
100.6248447625563
 20
331.6751324701306
 30
0.0
 11
100.6248447625563
 21
330.6251324701307
 31
0.0
 12
97.47484476255628
 22
331.1501324701306
 32
0.0
 13
97.47484476255628
 23
331.1501324701306
 33
0.0
  0
SOLID
  5
13164
330
12647
100
AcDbEntity
  8
0
 62
     4
100
AcDbTrace
 10
178.3248447625562
 20
331.6751324701306
 30
0.0
 11
178.3248447625562
 21
330.6251324701307
 31
0.0
 12
181.4748447625562
 22
331.1501324701306
 32
0.0
 13
181.4748447625562
 23
331.1501324701306
 33
0.0
  0
MTEXT
  5
13165
330
12647
100
AcDbEntity
  8
0
 62
     2
100
AcDbMText
 10
139.4748447625562
 20
333.5251324701307
 30
0.0
 40
3.149999999999999
 41
0.0
 71
     5
 72
     1
  1
\A1;84
  7
ROMAN
 73
     1
 44
1.0
1001
ACAD
1000
MTEXTBEGIN
1070
    73
1070
     1
1070
    44
1040
1.0
1070
    74
1070
     0
1000
MTEXTEND
  0
POINT
  5
13166
330
12647
100
AcDbEntity
  8
Defpoints
 62
     0
100
AcDbPoint
 10
97.47484476255628
 20
359.3359622425359
 30
0.0
  0
POINT
  5
13167
330
12647
100
AcDbEntity
  8
Defpoints
 62
     0
100
AcDbPoint
 10
181.4748447625562
 20
359.3359622427663
 30
0.0
  0
POINT
  5
13168
330
12647
100
AcDbEntity
  8
Defpoints
 62
     0
100
AcDbPoint
 10
181.4748447625562
 20
331.1501324701306
 30
0.0
  0
ENDBLK
  5
12649
330
12647
100
AcDbEntity
  8
0
100
AcDbBlockEnd
  0
BLOCK
  5
12660
330
1265F
100
AcDbEntity
  8
0
100
AcDbBlockBegin
  2
*D16
 70
     1
 10
0.0
 20
0.0
 30
0.0
  3
*D16
  1

  0
LINE
  5
12CA2
330
1265F
100
AcDbEntity
  8
0
 62
     4
370
    -2
100
AcDbLine
 10
140.4748447625239
 20
377.7782653205262
 30
0.0
 11
218.1522780317278
 21
377.7782653205262
 31
0.0
  0
LINE
  5
12CA3
330
1265F
100
AcDbEntity
  8
0
 62
     4
370
    -2
100
AcDbLine
 10
140.4748447626299
 20
352.7782653205262
 30
0.0
 11
218.1522780317278
 21
352.7782653205262
 31
0.0
  0
LINE
  5
12CA4
330
1265F
100
AcDbEntity
  8
0
 62
     4
370
    -2
100
AcDbLine
 10
216.1522780317278
 20
374.6282653205261
 30
0.0
 11
216.1522780317278
 21
355.9282653205261
 31
0.0
  0
SOLID
  5
12CA5
330
1265F
100
AcDbEntity
  8
0
 62
     4
100
AcDbTrace
 10
215.6272780317278
 20
374.6282653205261
 30
0.0
 11
216.6772780317278
 21
374.6282653205261
 31
0.0
 12
216.1522780317278
 22
377.7782653205262
 32
0.0
 13
216.1522780317278
 23
377.7782653205262
 33
0.0
  0
SOLID
  5
12CA6
330
1265F
100
AcDbEntity
  8
0
 62
     4
100
AcDbTrace
 10
215.6272780317278
 20
355.9282653205261
 30
0.0
 11
216.6772780317278
 21
355.9282653205261
 31
0.0
 12
216.1522780317278
 22
352.7782653205262
 32
0.0
 13
216.1522780317278
 23
352.7782653205262
 33
0.0
  0
MTEXT
  5
12CA7
330
1265F
100
AcDbEntity
  8
0
 62
     2
100
AcDbMText
 10
213.7772780317277
 20
365.2782653205262
 30
0.0
 40
3.149999999999999
 41
0.0
 71
     5
 72
     1
  1
\A1;25
  7
ROMAN
 11
0.0000000000000001
 21
1.0
 31
0.0
 73
     1
 44
1.0
1001
ACAD
1000
MTEXTBEGIN
1070
    73
1070
     1
1070
    44
1040
1.0
1070
    74
1070
     0
1000
MTEXTEND
  0
POINT
  5
12CA8
330
1265F
100
AcDbEntity
  8
Defpoints
 62
     0
100
AcDbPoint
 10
139.4748447625239
 20
377.7782653205262
 30
0.0
  0
POINT
  5
12CA9
330
1265F
100
AcDbEntity
  8
Defpoints
 62
     0
100
AcDbPoint
 10
139.4748447626299
 20
352.7782653205262
 30
0.0
  0
POINT
  5
12CAA
330
1265F
100
AcDbEntity
  8
Defpoints
 62
     0
100
AcDbPoint
 10
216.1522780317278
 20
352.7782653205262
 30
0.0
  0
ENDBLK
  5
12661
330
1265F
100
AcDbEntity
  8
0
100
AcDbBlockEnd
  0
BLOCK
  5
12678
330
12677
100
AcDbEntity
  8
0
100
AcDbBlockBegin
  2
*D17
 70
     1
 10
0.0
 20
0.0
 30
0.0
  3
*D17
  1

  0
LINE
  5
12CAB
330
12677
100
AcDbEntity
  8
0
 62
     4
370
    -2
100
AcDbLine
 10
140.4748447609058
 20
394.2782653205259
 30
0.0
 11
233.9686221066981
 21
394.2782653205259
 31
0.0
  0
LINE
  5
12CAC
330
12677
100
AcDbEntity
  8
0
 62
     4
370
    -2
100
AcDbLine
 10
140.4748447617173
 20
342.2782653205252
 30
0.0
 11
233.9686221066981
 21
342.2782653205252
 31
0.0
  0
LINE
  5
12CAD
330
12677
100
AcDbEntity
  8
0
 62
     4
370
    -2
100
AcDbLine
 10
231.9686221066981
 20
391.128265320526
 30
0.0
 11
231.9686221066981
 21
345.4282653205252
 31
0.0
  0
SOLID
  5
12CAE
330
12677
100
AcDbEntity
  8
0
 62
     4
100
AcDbTrace
 10
231.4436221066981
 20
391.128265320526
 30
0.0
 11
232.4936221066982
 21
391.128265320526
 31
0.0
 12
231.9686221066981
 22
394.2782653205259
 32
0.0
 13
231.9686221066981
 23
394.2782653205259
 33
0.0
  0
SOLID
  5
12CAF
330
12677
100
AcDbEntity
  8
0
 62
     4
100
AcDbTrace
 10
231.4436221066981
 20
345.4282653205252
 30
0.0
 11
232.4936221066982
 21
345.4282653205252
 31
0.0
 12
231.9686221066981
 22
342.2782653205252
 32
0.0
 13
231.9686221066981
 23
342.2782653205252
 33
0.0
  0
MTEXT
  5
12CB0
330
12677
100
AcDbEntity
  8
0
 62
     2
100
AcDbMText
 10
229.5936221066981
 20
368.2782653205256
 30
0.0
 40
3.149999999999999
 41
0.0
 71
     5
 72
     1
  1
\A1;52
  7
ROMAN
 11
0.0000000000000001
 21
1.0
 31
0.0
 73
     1
 44
1.0
1001
ACAD
1000
MTEXTBEGIN
1070
    73
1070
     1
1070
    44
1040
1.0
1070
    74
1070
     0
1000
MTEXTEND
  0
POINT
  5
12CB1
330
12677
100
AcDbEntity
  8
Defpoints
 62
     0
100
AcDbPoint
 10
139.4748447609058
 20
394.2782653205259
 30
0.0
  0
POINT
  5
12CB2
330
12677
100
AcDbEntity
  8
Defpoints
 62
     0
100
AcDbPoint
 10
139.4748447617173
 20
342.2782653205252
 30
0.0
  0
POINT
  5
12CB3
330
12677
100
AcDbEntity
  8
Defpoints
 62
     0
100
AcDbPoint
 10
231.9686221066981
 20
342.2782653205252
 30
0.0
  0
ENDBLK
  5
12679
330
12677
100
AcDbEntity
  8
0
100
AcDbBlockEnd
  0
BLOCK
  5
12695
330
12694
100
AcDbEntity
  8
0
100
AcDbBlockBegin
  2
*D18
 70
     1
 10
0.0
 20
0.0
 30
0.0
  3
*D18
  1

  0
LINE
  5
12CB4
330
12694
100
AcDbEntity
  8
0
 62
     4
370
    -2
100
AcDbLine
 10
95.48089673329346
 20
280.0218288564803
 30
0.0
 11
95.48089673329346
 21
263.8961029711639
 31
0.0
  0
LINE
  5
12CB5
330
12694
100
AcDbEntity
  8
0
 62
     4
370
    -2
100
AcDbLine
 10
183.4808967332934
 20
280.0218288564803
 30
0.0
 11
183.4808967332934
 21
263.8961029711639
 31
0.0
  0
LINE
  5
12CB6
330
12694
100
AcDbEntity
  8
0
 62
     4
370
    -2
100
AcDbLine
 10
98.63089673329348
 20
265.8961029711639
 30
0.0
 11
180.3308967332934
 21
265.8961029711639
 31
0.0
  0
SOLID
  5
12CB7
330
12694
100
AcDbEntity
  8
0
 62
     4
100
AcDbTrace
 10
98.63089673329348
 20
266.4211029711639
 30
0.0
 11
98.63089673329348
 21
265.371102971164
 31
0.0
 12
95.48089673329346
 22
265.8961029711639
 32
0.0
 13
95.48089673329346
 23
265.8961029711639
 33
0.0
  0
SOLID
  5
12CB8
330
12694
100
AcDbEntity
  8
0
 62
     4
100
AcDbTrace
 10
180.3308967332934
 20
266.4211029711639
 30
0.0
 11
180.3308967332934
 21
265.371102971164
 31
0.0
 12
183.4808967332934
 22
265.8961029711639
 32
0.0
 13
183.4808967332934
 23
265.8961029711639
 33
0.0
  0
MTEXT
  5
12CB9
330
12694
100
AcDbEntity
  8
0
 62
     2
100
AcDbMText
 10
139.4808967332934
 20
268.271102971164
 30
0.0
 40
3.149999999999999
 41
0.0
 71
     5
 72
     1
  1
\A1;88
  7
ROMAN
 73
     1
 44
1.0
1001
ACAD
1000
MTEXTBEGIN
1070
    73
1070
     1
1070
    44
1040
1.0
1070
    74
1070
     0
1000
MTEXTEND
  0
POINT
  5
12CBA
330
12694
100
AcDbEntity
  8
Defpoints
 62
     0
100
AcDbPoint
 10
95.48089673329346
 20
281.0218288564803
 30
0.0
  0
POINT
  5
12CBB
330
12694
100
AcDbEntity
  8
Defpoints
 62
     0
100
AcDbPoint
 10
183.4808967332934
 20
281.0218288564803
 30
0.0
  0
POINT
  5
12CBC
330
12694
100
AcDbEntity
  8
Defpoints
 62
     0
100
AcDbPoint
 10
183.4808967332934
 20
265.8961029711639
 30
0.0
  0
ENDBLK
  5
12696
330
12694
100
AcDbEntity
  8
0
100
AcDbBlockEnd
  0
BLOCK
  5
126AD
330
126AC
100
AcDbEntity
  8
0
100
AcDbBlockBegin
  2
*D19
 70
     1
 10
0.0
 20
0.0
 30
0.0
  3
*D19
  1

  0
LINE
  5
12CBD
330
126AC
100
AcDbEntity
  8
0
 62
     4
370
    -2
100
AcDbLine
 10
91.47484476087234
 20
277.93558878197
 30
0.0
 11
91.47484476087234
 21
252.7508314403231
 31
0.0
  0
LINE
  5
12CBE
330
126AC
100
AcDbEntity
  8
0
 62
     4
370
    -2
100
AcDbLine
 10
187.4873462713607
 20
277.93558878197
 30
0.0
 11
187.4873462713607
 21
252.7508314403231
 31
0.0
  0
LINE
  5
12CBF
330
126AC
100
AcDbEntity
  8
0
 62
     4
370
    -2
100
AcDbLine
 10
94.62484476087237
 20
254.7508314403231
 30
0.0
 11
184.3373462713607
 21
254.7508314403231
 31
0.0
  0
SOLID
  5
12CC0
330
126AC
100
AcDbEntity
  8
0
 62
     4
100
AcDbTrace
 10
94.62484476087237
 20
255.2758314403232
 30
0.0
 11
94.62484476087237
 21
254.2258314403232
 31
0.0
 12
91.47484476087234
 22
254.7508314403231
 32
0.0
 13
91.47484476087234
 23
254.7508314403231
 33
0.0
  0
SOLID
  5
12CC1
330
126AC
100
AcDbEntity
  8
0
 62
     4
100
AcDbTrace
 10
184.3373462713607
 20
255.2758314403232
 30
0.0
 11
184.3373462713607
 21
254.2258314403232
 31
0.0
 12
187.4873462713607
 22
254.7508314403231
 32
0.0
 13
187.4873462713607
 23
254.7508314403231
 33
0.0
  0
MTEXT
  5
12CC2
330
126AC
100
AcDbEntity
  8
0
 62
     2
100
AcDbMText
 10
139.4810955161165
 20
257.1258314403232
 30
0.0
 40
3.149999999999999
 41
0.0
 71
     5
 72
     1
  1
\A1;96
  7
ROMAN
 73
     1
 44
1.0
1001
ACAD
1000
MTEXTBEGIN
1070
    73
1070
     1
1070
    44
1040
1.0
1070
    74
1070
     0
1000
MTEXTEND
  0
POINT
  5
12CC3
330
126AC
100
AcDbEntity
  8
Defpoints
 62
     0
100
AcDbPoint
 10
91.47484476087234
 20
278.93558878197
 30
0.0
  0
POINT
  5
12CC4
330
126AC
100
AcDbEntity
  8
Defpoints
 62
     0
100
AcDbPoint
 10
187.4873462713607
 20
278.93558878197
 30
0.0
  0
POINT
  5
12CC5
330
126AC
100
AcDbEntity
  8
Defpoints
 62
     0
100
AcDbPoint
 10
187.4873462713607
 20
254.7508314403231
 30
0.0
  0
ENDBLK
  5
126AE
330
126AC
100
AcDbEntity
  8
0
100
AcDbBlockEnd
  0
BLOCK
  5
126C8
330
126C7
100
AcDbEntity
  8
0
100
AcDbBlockBegin
  2
*D20
 70
     1
 10
0.0
 20
0.0
 30
0.0
  3
*D20
  1

  0
LINE
  5
12CC6
330
126C7
100
AcDbEntity
  8
0
 62
     4
370
    -2
100
AcDbLine
 10
280.9449329638854
 20
376.2578110769144
 30
0.0
 11
280.9449329638854
 21
345.9113175017645
 31
0.0
  0
LINE
  5
12CC7
330
126C7
100
AcDbEntity
  8
0
 62
     4
370
    -2
100
AcDbLine
 10
369.9449329638853
 20
376.2578110769144
 30
0.0
 11
369.9449329638853
 21
345.9113175017645
 31
0.0
  0
LINE
  5
12CC8
330
126C7
100
AcDbEntity
  8
0
 62
     4
370
    -2
100
AcDbLine
 10
284.0949329638854
 20
347.9113175017645
 30
0.0
 11
366.7949329638854
 21
347.9113175017645
 31
0.0
  0
SOLID
  5
12CC9
330
126C7
100
AcDbEntity
  8
0
 62
     4
100
AcDbTrace
 10
284.0949329638854
 20
348.4363175017645
 30
0.0
 11
284.0949329638854
 21
347.3863175017645
 31
0.0
 12
280.9449329638854
 22
347.9113175017645
 32
0.0
 13
280.9449329638854
 23
347.9113175017645
 33
0.0
  0
SOLID
  5
12CCA
330
126C7
100
AcDbEntity
  8
0
 62
     4
100
AcDbTrace
 10
366.7949329638854
 20
348.4363175017645
 30
0.0
 11
366.7949329638854
 21
347.3863175017645
 31
0.0
 12
369.9449329638853
 22
347.9113175017645
 32
0.0
 13
369.9449329638853
 23
347.9113175017645
 33
0.0
  0
MTEXT
  5
12CCB
330
126C7
100
AcDbEntity
  8
0
 62
     2
100
AcDbMText
 10
325.4449329638853
 20
350.2863175017645
 30
0.0
 40
3.149999999999999
 41
0.0
 71
     5
 72
     1
  1
\A1;89
  7
ROMAN
 73
     1
 44
1.0
1001
ACAD
1000
MTEXTBEGIN
1070
    73
1070
     1
1070
    44
1040
1.0
1070
    74
1070
     0
1000
MTEXTEND
  0
POINT
  5
12CCC
330
126C7
100
AcDbEntity
  8
Defpoints
 62
     0
100
AcDbPoint
 10
280.9449329638854
 20
377.2578110769144
 30
0.0
  0
POINT
  5
12CCD
330
126C7
100
AcDbEntity
  8
Defpoints
 62
     0
100
AcDbPoint
 10
369.9449329638853
 20
377.2578110769144
 30
0.0
  0
POINT
  5
12CCE
330
126C7
100
AcDbEntity
  8
Defpoints
 62
     0
100
AcDbPoint
 10
369.9449329638853
 20
347.9113175017645
 30
0.0
  0
ENDBLK
  5
126C9
330
126C7
100
AcDbEntity
  8
0
100
AcDbBlockEnd
  0
BLOCK
  5
126E0
330
126DF
100
AcDbEntity
  8
0
100
AcDbBlockBegin
  2
*D21
 70
     1
 10
0.0
 20
0.0
 30
0.0
  3
*D21
  1

  0
LINE
  5
12CCF
330
126DF
100
AcDbEntity
  8
0
 62
     4
370
    -2
100
AcDbLine
 10
277.4449329638853
 20
381.6888408662874
 30
0.0
 11
277.4449329638853
 21
335.960939250781
 31
0.0
  0
LINE
  5
12CD0
330
126DF
100
AcDbEntity
  8
0
 62
     4
370
    -2
100
AcDbLine
 10
373.4449329638853
 20
381.6888408662874
 30
0.0
 11
373.4449329638853
 21
335.960939250781
 31
0.0
  0
LINE
  5
12CD1
330
126DF
100
AcDbEntity
  8
0
 62
     4
370
    -2
100
AcDbLine
 10
280.5949329638853
 20
337.9609392507811
 30
0.0
 11
370.2949329638853
 21
337.9609392507811
 31
0.0
  0
SOLID
  5
12CD2
330
126DF
100
AcDbEntity
  8
0
 62
     4
100
AcDbTrace
 10
280.5949329638853
 20
338.485939250781
 30
0.0
 11
280.5949329638853
 21
337.4359392507811
 31
0.0
 12
277.4449329638853
 22
337.9609392507811
 32
0.0
 13
277.4449329638853
 23
337.9609392507811
 33
0.0
  0
SOLID
  5
12CD3
330
126DF
100
AcDbEntity
  8
0
 62
     4
100
AcDbTrace
 10
370.2949329638853
 20
338.485939250781
 30
0.0
 11
370.2949329638853
 21
337.4359392507811
 31
0.0
 12
373.4449329638853
 22
337.9609392507811
 32
0.0
 13
373.4449329638853
 23
337.9609392507811
 33
0.0
  0
MTEXT
  5
12CD4
330
126DF
100
AcDbEntity
  8
0
 62
     2
100
AcDbMText
 10
325.4449329638853
 20
340.3359392507811
 30
0.0
 40
3.149999999999999
 41
0.0
 71
     5
 72
     1
  1
\A1;96
  7
ROMAN
 73
     1
 44
1.0
1001
ACAD
1000
MTEXTBEGIN
1070
    73
1070
     1
1070
    44
1040
1.0
1070
    74
1070
     0
1000
MTEXTEND
  0
POINT
  5
12CD5
330
126DF
100
AcDbEntity
  8
Defpoints
 62
     0
100
AcDbPoint
 10
277.4449329638853
 20
382.6888408662874
 30
0.0
  0
POINT
  5
12CD6
330
126DF
100
AcDbEntity
  8
Defpoints
 62
     0
100
AcDbPoint
 10
373.4449329638853
 20
382.6888408662874
 30
0.0
  0
POINT
  5
12CD7
330
126DF
100
AcDbEntity
  8
Defpoints
 62
     0
100
AcDbPoint
 10
373.4449329638853
 20
337.9609392507811
 30
0.0
  0
ENDBLK
  5
126E1
330
126DF
100
AcDbEntity
  8
0
100
AcDbBlockEnd
  0
BLOCK
  5
126F8
330
126F7
100
AcDbEntity
  8
0
100
AcDbBlockBegin
  2
*D22
 70
     1
 10
0.0
 20
0.0
 30
0.0
  3
*D22
  1

  0
LINE
  5
12CD8
330
126F7
100
AcDbEntity
  8
0
 62
     4
370
    -2
100
AcDbLine
 10
374.4449329638853
 20
391.6177428557273
 30
0.0
 11
394.8818895652664
 21
391.6177428557272
 31
0.0
  0
LINE
  5
12CD9
330
126F7
100
AcDbEntity
  8
0
 62
     4
370
    -2
100
AcDbLine
 10
374.4449329638853
 20
384.6177428557274
 30
0.0
 11
394.8818895652664
 21
384.6177428557274
 31
0.0
  0
LINE
  5
12CDA
330
126F7
100
AcDbEntity
  8
0
 62
     4
370
    -2
100
AcDbLine
 10
392.8818895652664
 20
394.7677428557271
 30
0.0
 11
392.8818895652664
 21
397.9177428557272
 31
0.0
  0
LINE
  5
12CDB
330
126F7
100
AcDbEntity
  8
0
 62
     4
370
    -2
100
AcDbLine
 10
392.8818895652664
 20
381.4677428557274
 30
0.0
 11
392.8818895652664
 21
378.3177428557274
 31
0.0
  0
LINE
  5
12CDC
330
126F7
100
AcDbEntity
  8
0
 62
     4
370
    -2
100
AcDbLine
 10
392.8818895652664
 20
391.6177428557272
 30
0.0
 11
392.8818895652664
 21
384.6177428557274
 31
0.0
  0
SOLID
  5
12CDD
330
126F7
100
AcDbEntity
  8
0
 62
     4
100
AcDbTrace
 10
392.3568895652664
 20
394.7677428557271
 30
0.0
 11
393.4068895652663
 21
394.7677428557271
 31
0.0
 12
392.8818895652664
 22
391.6177428557272
 32
0.0
 13
392.8818895652664
 23
391.6177428557272
 33
0.0
  0
SOLID
  5
12CDE
330
126F7
100
AcDbEntity
  8
0
 62
     4
100
AcDbTrace
 10
392.3568895652664
 20
381.4677428557274
 30
0.0
 11
393.4068895652663
 21
381.4677428557274
 31
0.0
 12
392.8818895652664
 22
384.6177428557274
 32
0.0
 13
392.8818895652664
 23
384.6177428557274
 33
0.0
  0
MTEXT
  5
12CDF
330
126F7
100
AcDbEntity
  8
0
 62
     2
100
AcDbMText
 10
390.5068895652664
 20
388.1177428557275
 30
0.0
 40
3.149999999999999
 41
0.0
 71
     5
 72
     1
  1
\A1;7
  7
ROMAN
 11
0.0000000000000001
 21
1.0
 31
0.0
 73
     1
 44
1.0
1001
ACAD
1000
MTEXTBEGIN
1070
    73
1070
     1
1070
    44
1040
1.0
1070
    74
1070
     0
1000
MTEXTEND
  0
POINT
  5
12CE0
330
126F7
100
AcDbEntity
  8
Defpoints
 62
     0
100
AcDbPoint
 10
373.4449329638853
 20
391.6177428557273
 30
0.0
  0
POINT
  5
12CE1
330
126F7
100
AcDbEntity
  8
Defpoints
 62
     0
100
AcDbPoint
 10
373.4449329638853
 20
384.6177428557274
 30
0.0
  0
POINT
  5
12CE2
330
126F7
100
AcDbEntity
  8
Defpoints
 62
     0
100
AcDbPoint
 10
392.8818895652664
 20
384.6177428557274
 30
0.0
  0
ENDBLK
  5
126F9
330
126F7
100
AcDbEntity
  8
0
100
AcDbBlockEnd
  0
BLOCK
  5
12714
330
12713
100
AcDbEntity
  8
0
100
AcDbBlockBegin
  2
*D23
 70
     1
 10
0.0
 20
0.0
 30
0.0
  3
*D23
  1

  0
LINE
  5
12CE3
330
12713
100
AcDbEntity
  8
0
 62
     4
370
    -2
100
AcDbLine
 10
363.9449329638853
 20
405.2578110769148
 30
0.0
 11
408.7087969521621
 21
405.2578110769146
 31
0.0
  0
LINE
  5
12CE4
330
12713
100
AcDbEntity
  8
0
 62
     4
370
    -2
100
AcDbLine
 10
363.9449329638853
 20
370.2578110769146
 30
0.0
 11
408.7087969521621
 21
370.2578110769145
 31
0.0
  0
LINE
  5
12CE5
330
12713
100
AcDbEntity
  8
0
 62
     4
370
    -2
100
AcDbLine
 10
406.7087969521621
 20
402.1078110769146
 30
0.0
 11
406.7087969521621
 21
373.4078110769145
 31
0.0
  0
SOLID
  5
12CE6
330
12713
100
AcDbEntity
  8
0
 62
     4
100
AcDbTrace
 10
406.183796952162
 20
402.1078110769146
 30
0.0
 11
407.2337969521621
 21
402.1078110769146
 31
0.0
 12
406.7087969521621
 22
405.2578110769146
 32
0.0
 13
406.7087969521621
 23
405.2578110769146
 33
0.0
  0
SOLID
  5
12CE7
330
12713
100
AcDbEntity
  8
0
 62
     4
100
AcDbTrace
 10
406.183796952162
 20
373.4078110769145
 30
0.0
 11
407.2337969521621
 21
373.4078110769145
 31
0.0
 12
406.7087969521621
 22
370.2578110769145
 32
0.0
 13
406.7087969521621
 23
370.2578110769145
 33
0.0
  0
MTEXT
  5
12CE8
330
12713
100
AcDbEntity
  8
0
 62
     2
100
AcDbMText
 10
404.3337969521621
 20
387.7578110769147
 30
0.0
 40
3.149999999999999
 41
0.0
 71
     5
 72
     1
  1
\A1;35
  7
ROMAN
 11
0.0000000000000001
 21
1.0
 31
0.0
 73
     1
 44
1.0
1001
ACAD
1000
MTEXTBEGIN
1070
    73
1070
     1
1070
    44
1040
1.0
1070
    74
1070
     0
1000
MTEXTEND
  0
POINT
  5
12CE9
330
12713
100
AcDbEntity
  8
Defpoints
 62
     0
100
AcDbPoint
 10
362.9449329638853
 20
405.2578110769148
 30
0.0
  0
POINT
  5
12CEA
330
12713
100
AcDbEntity
  8
Defpoints
 62
     0
100
AcDbPoint
 10
362.9449329638853
 20
370.2578110769146
 30
0.0
  0
POINT
  5
12CEB
330
12713
100
AcDbEntity
  8
Defpoints
 62
     0
100
AcDbPoint
 10
406.7087969521621
 20
370.2578110769145
 30
0.0
  0
ENDBLK
  5
12715
330
12713
100
AcDbEntity
  8
0
100
AcDbBlockEnd
  0
BLOCK
  5
12731
330
12730
100
AcDbEntity
  8
0
100
AcDbBlockBegin
  2
*D24
 70
     1
 10
0.0
 20
0.0
 30
0.0
  3
*D24
  1

  0
LINE
  5
12CEC
330
12730
100
AcDbEntity
  8
0
 62
     4
370
    -2
100
AcDbLine
 10
335.9693814650248
 20
304.148281070804
 30
0.0
 11
362.4505245641084
 21
304.148281070804
 31
0.0
  0
LINE
  5
12CED
330
12730
100
AcDbEntity
  8
0
 62
     4
370
    -2
100
AcDbLine
 10
352.5979504519297
 20
291.6505494820618
 30
0.0
 11
362.4505245641084
 21
291.6505494820618
 31
0.0
  0
LINE
  5
12CEE
330
12730
100
AcDbEntity
  8
0
 62
     4
370
    -2
100
AcDbLine
 10
360.4505245641084
 20
300.998281070804
 30
0.0
 11
360.4505245641084
 21
294.8005494820618
 31
0.0
  0
SOLID
  5
12CEF
330
12730
100
AcDbEntity
  8
0
 62
     4
100
AcDbTrace
 10
359.9255245641083
 20
300.998281070804
 30
0.0
 11
360.9755245641084
 21
300.998281070804
 31
0.0
 12
360.4505245641084
 22
304.148281070804
 32
0.0
 13
360.4505245641084
 23
304.148281070804
 33
0.0
  0
SOLID
  5
12CF0
330
12730
100
AcDbEntity
  8
0
 62
     4
100
AcDbTrace
 10
359.9255245641083
 20
294.8005494820618
 30
0.0
 11
360.9755245641084
 21
294.8005494820618
 31
0.0
 12
360.4505245641084
 22
291.6505494820618
 32
0.0
 13
360.4505245641084
 23
291.6505494820618
 33
0.0
  0
MTEXT
  5
12CF1
330
12730
100
AcDbEntity
  8
0
 62
     2
100
AcDbMText
 10
358.0755245641082
 20
297.8994152764329
 30
0.0
 40
3.149999999999999
 41
0.0
 71
     5
 72
     1
  1
\A1;12.5
  7
ROMAN
 11
0.0000000000000001
 21
1.0
 31
0.0
 73
     1
 44
1.0
1001
ACAD
1000
MTEXTBEGIN
1070
    73
1070
     1
1070
    44
1040
1.0
1070
    74
1070
     0
1000
MTEXTEND
  0
POINT
  5
12CF2
330
12730
100
AcDbEntity
  8
Defpoints
 62
     0
100
AcDbPoint
 10
334.9693814650248
 20
304.148281070804
 30
0.0
  0
POINT
  5
12CF3
330
12730
100
AcDbEntity
  8
Defpoints
 62
     0
100
AcDbPoint
 10
351.5979504519297
 20
291.6505494820618
 30
0.0
  0
POINT
  5
12CF4
330
12730
100
AcDbEntity
  8
Defpoints
 62
     0
100
AcDbPoint
 10
360.4505245641084
 20
291.6505494820618
 30
0.0
  0
ENDBLK
  5
12732
330
12730
100
AcDbEntity
  8
0
100
AcDbBlockEnd
  0
BLOCK
  5
12764
330
12763
100
AcDbEntity
  8
0
100
AcDbBlockBegin
  2
*D25
 70
     1
 10
0.0
 20
0.0
 30
0.0
  3
*D25
  1

  0
LINE
  5
12CF5
330
12763
100
AcDbEntity
  8
0
 62
     4
370
    -2
100
AcDbLine
 10
342.8479504519304
 20
282.1505494820618
 30
0.0
 11
362.4505245641084
 21
282.1505494820618
 31
0.0
  0
LINE
  5
12CF6
330
12763
100
AcDbEntity
  8
0
 62
     4
370
    -2
100
AcDbLine
 10
352.5979504519297
 20
291.6505494820618
 30
0.0
 11
362.4505245641084
 21
291.6505494820618
 31
0.0
  0
LINE
  5
12CF7
330
12763
100
AcDbEntity
  8
0
 62
     4
370
    -2
100
AcDbLine
 10
360.4505245641084
 20
285.3005494820618
 30
0.0
 11
360.4505245641084
 21
288.5005494820618
 31
0.0
  0
SOLID
  5
12CF8
330
12763
100
AcDbEntity
  8
0
 62
     4
100
AcDbTrace
 10
359.9255245641083
 20
285.3005494820618
 30
0.0
 11
360.9755245641084
 21
285.3005494820618
 31
0.0
 12
360.4505245641084
 22
282.1505494820618
 32
0.0
 13
360.4505245641084
 23
282.1505494820618
 33
0.0
  0
SOLID
  5
12CF9
330
12763
100
AcDbEntity
  8
0
 62
     4
100
AcDbTrace
 10
359.9255245641083
 20
288.5005494820618
 30
0.0
 11
360.9755245641084
 21
288.5005494820618
 31
0.0
 12
360.4505245641084
 22
291.6505494820618
 32
0.0
 13
360.4505245641084
 23
291.6505494820618
 33
0.0
  0
MTEXT
  5
12CFA
330
12763
100
AcDbEntity
  8
0
 62
     2
100
AcDbMText
 10
358.0755245641082
 20
286.9005494820619
 30
0.0
 40
3.149999999999999
 41
0.0
 71
     5
 72
     1
  1
\A1;9.5
  7
ROMAN
 11
0.0000000000000001
 21
1.0
 31
0.0
 73
     1
 44
1.0
1001
ACAD
1000
MTEXTBEGIN
1070
    73
1070
     1
1070
    44
1040
1.0
1070
    74
1070
     0
1000
MTEXTEND
  0
POINT
  5
12CFB
330
12763
100
AcDbEntity
  8
Defpoints
 62
     0
100
AcDbPoint
 10
341.8479504519304
 20
282.1505494820618
 30
0.0
  0
POINT
  5
12CFC
330
12763
100
AcDbEntity
  8
Defpoints
 62
     0
100
AcDbPoint
 10
351.5979504519297
 20
291.6505494820618
 30
0.0
  0
POINT
  5
12CFD
330
12763
100
AcDbEntity
  8
Defpoints
 62
     0
100
AcDbPoint
 10
360.4505245641084
 20
291.6505494820618
 30
0.0
  0
ENDBLK
  5
12765
330
12763
100
AcDbEntity
  8
0
100
AcDbBlockEnd
  0
BLOCK
  5
1277C
330
1277B
100
AcDbEntity
  8
0
100
AcDbBlockBegin
  2
*D26
 70
     1
 10
0.0
 20
0.0
 30
0.0
  3
*D26
  1

  0
LINE
  5
13169
330
1277B
100
AcDbEntity
  8
0
 62
     4
370
    -2
100
AcDbLine
 10
308.8479504519304
 20
283.4271721694291
 30
0.0
 11
308.8479504519304
 21
271.1836142887299
 31
0.0
  0
LINE
  5
1316A
330
1277B
100
AcDbEntity
  8
0
 62
     4
370
    -2
100
AcDbLine
 10
342.3479504519304
 20
283.4271721694291
 30
0.0
 11
342.3479504519304
 21
271.1836142887299
 31
0.0
  0
LINE
  5
1316B
330
1277B
100
AcDbEntity
  8
0
 62
     4
370
    -2
100
AcDbLine
 10
311.9979504519303
 20
273.1836142887299
 30
0.0
 11
339.1979504519304
 21
273.1836142887299
 31
0.0
  0
SOLID
  5
1316C
330
1277B
100
AcDbEntity
  8
0
 62
     4
100
AcDbTrace
 10
311.9979504519303
 20
273.7086142887299
 30
0.0
 11
311.9979504519303
 21
272.6586142887299
 31
0.0
 12
308.8479504519304
 22
273.1836142887299
 32
0.0
 13
308.8479504519304
 23
273.1836142887299
 33
0.0
  0
SOLID
  5
1316D
330
1277B
100
AcDbEntity
  8
0
 62
     4
100
AcDbTrace
 10
339.1979504519304
 20
273.7086142887299
 30
0.0
 11
339.1979504519304
 21
272.6586142887299
 31
0.0
 12
342.3479504519304
 22
273.1836142887299
 32
0.0
 13
342.3479504519304
 23
273.1836142887299
 33
0.0
  0
MTEXT
  5
1316E
330
1277B
100
AcDbEntity
  8
0
 62
     2
100
AcDbMText
 10
325.5979504519304
 20
275.5586142887299
 30
0.0
 40
3.149999999999999
 41
0.0
 71
     5
 72
     1
  1
\A1;33.5
  7
ROMAN
 73
     1
 44
1.0
1001
ACAD
1000
MTEXTBEGIN
1070
    73
1070
     1
1070
    44
1040
1.0
1070
    74
1070
     0
1000
MTEXTEND
  0
POINT
  5
1316F
330
1277B
100
AcDbEntity
  8
Defpoints
 62
     0
100
AcDbPoint
 10
308.8479504519304
 20
284.4271721694291
 30
0.0
  0
POINT
  5
13170
330
1277B
100
AcDbEntity
  8
Defpoints
 62
     0
100
AcDbPoint
 10
342.3479504519304
 20
284.4271721694291
 30
0.0
  0
POINT
  5
13171
330
1277B
100
AcDbEntity
  8
Defpoints
 62
     0
100
AcDbPoint
 10
342.3479504519304
 20
273.1836142887299
 30
0.0
  0
ENDBLK
  5
1277D
330
1277B
100
AcDbEntity
  8
0
100
AcDbBlockEnd
  0
BLOCK
  5
1292A
330
12929
100
AcDbEntity
  8
0
100
AcDbBlockBegin
  2
*D27
 70
     1
 10
0.0
 20
0.0
 30
0.0
  3
*D27
  1

  0
LINE
  5
12D46
330
12929
100
AcDbEntity
  8
0
 62
     4
370
    -2
100
AcDbLine
 10
89.48783162552102
 20
155.2743563917856
 30
0.0
 11
89.48783162552102
 21
197.5772406351397
 31
0.0
  0
LINE
  5
12D47
330
12929
100
AcDbEntity
  8
0
 62
     4
370
    -2
100
AcDbLine
 10
181.4878316255959
 20
155.2743563924302
 30
0.0
 11
181.4878316255959
 21
197.5772406351397
 31
0.0
  0
LINE
  5
12D48
330
12929
100
AcDbEntity
  8
0
 62
     4
370
    -2
100
AcDbLine
 10
92.63783162552105
 20
195.5772406351397
 30
0.0
 11
178.3378316255959
 21
195.5772406351397
 31
0.0
  0
SOLID
  5
12D49
330
12929
100
AcDbEntity
  8
0
 62
     4
100
AcDbTrace
 10
92.63783162552105
 20
196.1022406351397
 30
0.0
 11
92.63783162552105
 21
195.0522406351397
 31
0.0
 12
89.48783162552102
 22
195.5772406351397
 32
0.0
 13
89.48783162552102
 23
195.5772406351397
 33
0.0
  0
SOLID
  5
12D4A
330
12929
100
AcDbEntity
  8
0
 62
     4
100
AcDbTrace
 10
178.3378316255959
 20
196.1022406351397
 30
0.0
 11
178.3378316255959
 21
195.0522406351397
 31
0.0
 12
181.4878316255959
 22
195.5772406351397
 32
0.0
 13
181.4878316255959
 23
195.5772406351397
 33
0.0
  0
MTEXT
  5
12D4B
330
12929
100
AcDbEntity
  8
0
 62
     2
100
AcDbMText
 10
135.4878316255584
 20
197.9522406351397
 30
0.0
 40
3.149999999999999
 41
0.0
 71
     5
 72
     1
  1
\A1;92
  7
ROMAN
 73
     1
 44
1.0
1001
ACAD
1000
MTEXTBEGIN
1070
    73
1070
     1
1070
    44
1040
1.0
1070
    74
1070
     0
1000
MTEXTEND
  0
POINT
  5
12D4C
330
12929
100
AcDbEntity
  8
Defpoints
 62
     0
100
AcDbPoint
 10
89.48783162552102
 20
154.2743563917856
 30
0.0
  0
POINT
  5
12D4D
330
12929
100
AcDbEntity
  8
Defpoints
 62
     0
100
AcDbPoint
 10
181.4878316255959
 20
154.2743563924302
 30
0.0
  0
POINT
  5
12D4E
330
12929
100
AcDbEntity
  8
Defpoints
 62
     0
100
AcDbPoint
 10
181.4878316255959
 20
195.5772406351397
 30
0.0
  0
ENDBLK
  5
1292B
330
12929
100
AcDbEntity
  8
0
100
AcDbBlockEnd
  0
BLOCK
  5
12942
330
12941
100
AcDbEntity
  8
0
100
AcDbBlockBegin
  2
*D28
 70
     1
 10
0.0
 20
0.0
 30
0.0
  3
*D28
  1

  0
LINE
  5
12D19
330
12941
100
AcDbEntity
  8
0
 62
     4
370
    -2
100
AcDbLine
 10
136.4878316229195
 20
175.77435639176
 30
0.0
 11
214.8910045544853
 21
175.7743563917599
 31
0.0
  0
LINE
  5
12D1A
330
12941
100
AcDbEntity
  8
0
 62
     4
370
    -2
100
AcDbLine
 10
136.4878316281971
 20
132.7743563917597
 30
0.0
 11
214.8910045544853
 21
132.7743563917597
 31
0.0
  0
LINE
  5
12D1B
330
12941
100
AcDbEntity
  8
0
 62
     4
370
    -2
100
AcDbLine
 10
212.8910045544853
 20
172.6243563917599
 30
0.0
 11
212.8910045544853
 21
135.9243563917597
 31
0.0
  0
SOLID
  5
12D1C
330
12941
100
AcDbEntity
  8
0
 62
     4
100
AcDbTrace
 10
212.3660045544853
 20
172.6243563917599
 30
0.0
 11
213.4160045544853
 21
172.6243563917599
 31
0.0
 12
212.8910045544853
 22
175.7743563917599
 32
0.0
 13
212.8910045544853
 23
175.7743563917599
 33
0.0
  0
SOLID
  5
12D1D
330
12941
100
AcDbEntity
  8
0
 62
     4
100
AcDbTrace
 10
212.3660045544853
 20
135.9243563917597
 30
0.0
 11
213.4160045544853
 21
135.9243563917597
 31
0.0
 12
212.8910045544853
 22
132.7743563917597
 32
0.0
 13
212.8910045544853
 23
132.7743563917597
 33
0.0
  0
MTEXT
  5
12D1E
330
12941
100
AcDbEntity
  8
0
 62
     2
100
AcDbMText
 10
210.5160045544853
 20
154.2743563917599
 30
0.0
 40
3.149999999999999
 41
0.0
 71
     5
 72
     1
  1
\A1;43
  7
ROMAN
 11
0.0000000000000001
 21
1.0
 31
0.0
 73
     1
 44
1.0
1001
ACAD
1000
MTEXTBEGIN
1070
    73
1070
     1
1070
    44
1040
1.0
1070
    74
1070
     0
1000
MTEXTEND
  0
POINT
  5
12D1F
330
12941
100
AcDbEntity
  8
Defpoints
 62
     0
100
AcDbPoint
 10
135.4878316229195
 20
175.77435639176
 30
0.0
  0
POINT
  5
12D20
330
12941
100
AcDbEntity
  8
Defpoints
 62
     0
100
AcDbPoint
 10
135.4878316281971
 20
132.7743563917597
 30
0.0
  0
POINT
  5
12D21
330
12941
100
AcDbEntity
  8
Defpoints
 62
     0
100
AcDbPoint
 10
212.8910045544853
 20
132.7743563917597
 30
0.0
  0
ENDBLK
  5
12943
330
12941
100
AcDbEntity
  8
0
100
AcDbBlockEnd
  0
BLOCK
  5
1295A
330
12959
100
AcDbEntity
  8
0
100
AcDbBlockBegin
  2
*D29
 70
     1
 10
0.0
 20
0.0
 30
0.0
  3
*D29
  1

  0
LINE
  5
12D22
330
12959
100
AcDbEntity
  8
0
 62
     4
370
    -2
100
AcDbLine
 10
136.4878316256521
 20
161.7743563917599
 30
0.0
 11
200.9229309494058
 21
161.7743563917599
 31
0.0
  0
LINE
  5
12D23
330
12959
100
AcDbEntity
  8
0
 62
     4
370
    -2
100
AcDbLine
 10
136.4878316229197
 20
140.7743563917597
 30
0.0
 11
200.9229309494058
 21
140.7743563917597
 31
0.0
  0
LINE
  5
12D24
330
12959
100
AcDbEntity
  8
0
 62
     4
370
    -2
100
AcDbLine
 10
198.9229309494058
 20
158.6243563917599
 30
0.0
 11
198.9229309494058
 21
143.9243563917597
 31
0.0
  0
SOLID
  5
12D25
330
12959
100
AcDbEntity
  8
0
 62
     4
100
AcDbTrace
 10
198.3979309494058
 20
158.6243563917599
 30
0.0
 11
199.4479309494058
 21
158.6243563917599
 31
0.0
 12
198.9229309494058
 22
161.7743563917599
 32
0.0
 13
198.9229309494058
 23
161.7743563917599
 33
0.0
  0
SOLID
  5
12D26
330
12959
100
AcDbEntity
  8
0
 62
     4
100
AcDbTrace
 10
198.3979309494058
 20
143.9243563917597
 30
0.0
 11
199.4479309494058
 21
143.9243563917597
 31
0.0
 12
198.9229309494058
 22
140.7743563917597
 32
0.0
 13
198.9229309494058
 23
140.7743563917597
 33
0.0
  0
MTEXT
  5
12D27
330
12959
100
AcDbEntity
  8
0
 62
     2
100
AcDbMText
 10
196.5479309494057
 20
151.2743563917599
 30
0.0
 40
3.149999999999999
 41
0.0
 71
     5
 72
     1
  1
\A1;21
  7
ROMAN
 11
0.0000000000000001
 21
1.0
 31
0.0
 73
     1
 44
1.0
1001
ACAD
1000
MTEXTBEGIN
1070
    73
1070
     1
1070
    44
1040
1.0
1070
    74
1070
     0
1000
MTEXTEND
  0
POINT
  5
12D28
330
12959
100
AcDbEntity
  8
Defpoints
 62
     0
100
AcDbPoint
 10
135.4878316256521
 20
161.7743563917599
 30
0.0
  0
POINT
  5
12D29
330
12959
100
AcDbEntity
  8
Defpoints
 62
     0
100
AcDbPoint
 10
135.4878316229197
 20
140.7743563917597
 30
0.0
  0
POINT
  5
12D2A
330
12959
100
AcDbEntity
  8
Defpoints
 62
     0
100
AcDbPoint
 10
198.9229309494058
 20
140.7743563917597
 30
0.0
  0
ENDBLK
  5
1295B
330
12959
100
AcDbEntity
  8
0
100
AcDbBlockEnd
  0
BLOCK
  5
12979
330
12978
100
AcDbEntity
  8
0
100
AcDbBlockBegin
  2
*D30
 70
     1
 10
0.0
 20
0.0
 30
0.0
  3
*D30
  1

  0
LINE
  5
12D4F
330
12978
100
AcDbEntity
  8
0
 62
     4
370
    -2
100
AcDbLine
 10
166.9878316229197
 20
146.1013332211096
 30
0.0
 11
166.9878316229197
 21
108.5441053324512
 31
0.0
  0
LINE
  5
12D50
330
12978
100
AcDbEntity
  8
0
 62
     4
370
    -2
100
AcDbLine
 10
103.9878316229197
 20
146.1013332211097
 30
0.0
 11
103.9878316229197
 21
108.5441053324512
 31
0.0
  0
LINE
  5
12D51
330
12978
100
AcDbEntity
  8
0
 62
     4
370
    -2
100
AcDbLine
 10
163.8378316229197
 20
110.5441053324512
 30
0.0
 11
107.1378316229197
 21
110.5441053324512
 31
0.0
  0
SOLID
  5
12D52
330
12978
100
AcDbEntity
  8
0
 62
     4
100
AcDbTrace
 10
163.8378316229197
 20
111.0691053324512
 30
0.0
 11
163.8378316229197
 21
110.0191053324512
 31
0.0
 12
166.9878316229197
 22
110.5441053324512
 32
0.0
 13
166.9878316229197
 23
110.5441053324512
 33
0.0
  0
SOLID
  5
12D53
330
12978
100
AcDbEntity
  8
0
 62
     4
100
AcDbTrace
 10
107.1378316229197
 20
111.0691053324512
 30
0.0
 11
107.1378316229197
 21
110.0191053324512
 31
0.0
 12
103.9878316229197
 22
110.5441053324512
 32
0.0
 13
103.9878316229197
 23
110.5441053324512
 33
0.0
  0
MTEXT
  5
12D54
330
12978
100
AcDbEntity
  8
0
 62
     2
100
AcDbMText
 10
135.4878316229197
 20
112.9191053324512
 30
0.0
 40
3.149999999999999
 41
0.0
 71
     5
 72
     1
  1
\A1;63
  7
ROMAN
 73
     1
 44
1.0
1001
ACAD
1000
MTEXTBEGIN
1070
    73
1070
     1
1070
    44
1040
1.0
1070
    74
1070
     0
1000
MTEXTEND
  0
POINT
  5
12D55
330
12978
100
AcDbEntity
  8
Defpoints
 62
     0
100
AcDbPoint
 10
166.9878316229197
 20
147.1013332211096
 30
0.0
  0
POINT
  5
12D56
330
12978
100
AcDbEntity
  8
Defpoints
 62
     0
100
AcDbPoint
 10
103.9878316229197
 20
147.1013332211096
 30
0.0
  0
POINT
  5
12D57
330
12978
100
AcDbEntity
  8
Defpoints
 62
     0
100
AcDbPoint
 10
103.9878316229197
 20
110.5441053324512
 30
0.0
  0
ENDBLK
  5
1297A
330
12978
100
AcDbEntity
  8
0
100
AcDbBlockEnd
  0
BLOCK
  5
12A02
330
12A01
100
AcDbEntity
  8
0
100
AcDbBlockBegin
  2
*D31
 70
     1
 10
0.0
 20
0.0
 30
0.0
  3
*D31
  1

  0
LINE
  5
12D34
330
12A01
100
AcDbEntity
  8
0
 62
     4
370
    -2
100
AcDbLine
 10
96.48775208202373
 20
65.45584528787637
 30
0.0
 11
96.48775208202373
 21
44.87585537433369
 31
0.0
  0
LINE
  5
12D35
330
12A01
100
AcDbEntity
  8
0
 62
     4
370
    -2
100
AcDbLine
 10
174.487831625527
 20
65.45584528787947
 30
0.0
 11
174.487831625527
 21
44.87585537433369
 31
0.0
  0
LINE
  5
12D36
330
12A01
100
AcDbEntity
  8
0
 62
     4
370
    -2
100
AcDbLine
 10
99.6377520820237
 20
46.8758553743337
 30
0.0
 11
171.3378316255271
 21
46.8758553743337
 31
0.0
  0
SOLID
  5
12D37
330
12A01
100
AcDbEntity
  8
0
 62
     4
100
AcDbTrace
 10
99.6377520820237
 20
47.40085537433368
 30
0.0
 11
99.6377520820237
 21
46.35085537433368
 31
0.0
 12
96.48775208202373
 22
46.8758553743337
 32
0.0
 13
96.48775208202373
 23
46.8758553743337
 33
0.0
  0
SOLID
  5
12D38
330
12A01
100
AcDbEntity
  8
0
 62
     4
100
AcDbTrace
 10
171.3378316255271
 20
47.40085537433368
 30
0.0
 11
171.3378316255271
 21
46.35085537433368
 31
0.0
 12
174.487831625527
 22
46.8758553743337
 32
0.0
 13
174.487831625527
 23
46.8758553743337
 33
0.0
  0
MTEXT
  5
12D39
330
12A01
100
AcDbEntity
  8
0
 62
     2
100
AcDbMText
 10
135.4877918537754
 20
49.25085537433369
 30
0.0
 40
3.149999999999999
 41
0.0
 71
     5
 72
     1
  1
\A1;78
  7
ROMAN
 73
     1
 44
1.0
1001
ACAD
1000
MTEXTBEGIN
1070
    73
1070
     1
1070
    44
1040
1.0
1070
    74
1070
     0
1000
MTEXTEND
  0
POINT
  5
12D3A
330
12A01
100
AcDbEntity
  8
Defpoints
 62
     0
100
AcDbPoint
 10
96.48775208202373
 20
66.45584528787637
 30
0.0
  0
POINT
  5
12D3B
330
12A01
100
AcDbEntity
  8
Defpoints
 62
     0
100
AcDbPoint
 10
174.487831625527
 20
66.45584528787947
 30
0.0
  0
POINT
  5
12D3C
330
12A01
100
AcDbEntity
  8
Defpoints
 62
     0
100
AcDbPoint
 10
174.487831625527
 20
46.8758553743337
 30
0.0
  0
ENDBLK
  5
12A03
330
12A01
100
AcDbEntity
  8
0
100
AcDbBlockEnd
  0
BLOCK
  5
12A1F
330
12A1E
100
AcDbEntity
  8
0
100
AcDbBlockBegin
  2
*D32
 70
     1
 10
0.0
 20
0.0
 30
0.0
  3
*D32
  1

  0
LINE
  5
12D3D
330
12A1E
100
AcDbEntity
  8
0
 62
     4
370
    -2
100
AcDbLine
 10
102.4878316229196
 20
69.77418258558827
 30
0.0
 11
102.4878316229196
 21
54.38513926369523
 31
0.0
  0
LINE
  5
12D3E
330
12A1E
100
AcDbEntity
  8
0
 62
     4
370
    -2
100
AcDbLine
 10
168.4878316229197
 20
69.77418258558825
 30
0.0
 11
168.4878316229197
 21
54.38513926369523
 31
0.0
  0
LINE
  5
12D3F
330
12A1E
100
AcDbEntity
  8
0
 62
     4
370
    -2
100
AcDbLine
 10
105.6378316229196
 20
56.38513926369522
 30
0.0
 11
165.3378316229197
 21
56.38513926369522
 31
0.0
  0
SOLID
  5
12D40
330
12A1E
100
AcDbEntity
  8
0
 62
     4
100
AcDbTrace
 10
105.6378316229196
 20
56.91013926369524
 30
0.0
 11
105.6378316229196
 21
55.86013926369524
 31
0.0
 12
102.4878316229196
 22
56.38513926369522
 32
0.0
 13
102.4878316229196
 23
56.38513926369522
 33
0.0
  0
SOLID
  5
12D41
330
12A1E
100
AcDbEntity
  8
0
 62
     4
100
AcDbTrace
 10
165.3378316229197
 20
56.91013926369524
 30
0.0
 11
165.3378316229197
 21
55.86013926369524
 31
0.0
 12
168.4878316229197
 22
56.38513926369522
 32
0.0
 13
168.4878316229197
 23
56.38513926369522
 33
0.0
  0
MTEXT
  5
12D42
330
12A1E
100
AcDbEntity
  8
0
 62
     2
100
AcDbMText
 10
135.4878316229196
 20
58.76013926369523
 30
0.0
 40
3.149999999999999
 41
0.0
 71
     5
 72
     1
  1
\A1;66
  7
ROMAN
 73
     1
 44
1.0
1001
ACAD
1000
MTEXTBEGIN
1070
    73
1070
     1
1070
    44
1040
1.0
1070
    74
1070
     0
1000
MTEXTEND
  0
POINT
  5
12D43
330
12A1E
100
AcDbEntity
  8
Defpoints
 62
     0
100
AcDbPoint
 10
102.4878316229196
 20
70.77418258558828
 30
0.0
  0
POINT
  5
12D44
330
12A1E
100
AcDbEntity
  8
Defpoints
 62
     0
100
AcDbPoint
 10
168.4878316229197
 20
70.77418258558826
 30
0.0
  0
POINT
  5
12D45
330
12A1E
100
AcDbEntity
  8
Defpoints
 62
     0
100
AcDbPoint
 10
168.4878316229197
 20
56.38513926369522
 30
0.0
  0
ENDBLK
  5
12A20
330
12A1E
100
AcDbEntity
  8
0
100
AcDbBlockEnd
  0
BLOCK
  5
12A6D
330
12A6C
100
AcDbEntity
  8
0
100
AcDbBlockBegin
  2
*D33
 70
     1
 10
0.0
 20
0.0
 30
0.0
  3
*D33
  1

  0
LINE
  5
12B6D
330
12A6C
100
AcDbEntity
  8
0
 62
     4
370
    -2
100
AcDbLine
 10
294.3966296424769
 20
142.1850141861149
 30
0.0
 11
294.3966296424769
 21
117.1446421101464
 31
0.0
  0
LINE
  5
12B6E
330
12A6C
100
AcDbEntity
  8
0
 62
     4
370
    -2
100
AcDbLine
 10
361.3966296424769
 20
142.1850141861149
 30
0.0
 11
361.3966296424769
 21
117.1446421101464
 31
0.0
  0
LINE
  5
12B6F
330
12A6C
100
AcDbEntity
  8
0
 62
     4
370
    -2
100
AcDbLine
 10
297.5466296424769
 20
119.1446421101463
 30
0.0
 11
358.2466296424769
 21
119.1446421101463
 31
0.0
  0
SOLID
  5
12B70
330
12A6C
100
AcDbEntity
  8
0
 62
     4
100
AcDbTrace
 10
297.5466296424769
 20
119.6696421101464
 30
0.0
 11
297.5466296424769
 21
118.6196421101463
 31
0.0
 12
294.3966296424769
 22
119.1446421101463
 32
0.0
 13
294.3966296424769
 23
119.1446421101463
 33
0.0
  0
SOLID
  5
12B71
330
12A6C
100
AcDbEntity
  8
0
 62
     4
100
AcDbTrace
 10
358.2466296424769
 20
119.6696421101464
 30
0.0
 11
358.2466296424769
 21
118.6196421101463
 31
0.0
 12
361.3966296424769
 22
119.1446421101463
 32
0.0
 13
361.3966296424769
 23
119.1446421101463
 33
0.0
  0
MTEXT
  5
12B72
330
12A6C
100
AcDbEntity
  8
0
 62
     2
100
AcDbMText
 10
327.8966296424769
 20
121.5196421101464
 30
0.0
 40
3.149999999999999
 41
0.0
 71
     5
 72
     1
  1
\A1;67
  7
ROMAN
 73
     1
 44
1.0
1001
ACAD
1000
MTEXTBEGIN
1070
    73
1070
     1
1070
    44
1040
1.0
1070
    74
1070
     0
1000
MTEXTEND
  0
POINT
  5
12B73
330
12A6C
100
AcDbEntity
  8
Defpoints
 62
     0
100
AcDbPoint
 10
294.3966296424769
 20
143.185014186115
 30
0.0
  0
POINT
  5
12B74
330
12A6C
100
AcDbEntity
  8
Defpoints
 62
     0
100
AcDbPoint
 10
361.3966296424769
 20
143.185014186115
 30
0.0
  0
POINT
  5
12B75
330
12A6C
100
AcDbEntity
  8
Defpoints
 62
     0
100
AcDbPoint
 10
361.3966296424769
 20
119.1446421101463
 30
0.0
  0
ENDBLK
  5
12A6E
330
12A6C
100
AcDbEntity
  8
0
100
AcDbBlockEnd
  0
BLOCK
  5
12A85
330
12A84
100
AcDbEntity
  8
0
100
AcDbBlockBegin
  2
*D34
 70
     1
 10
0.0
 20
0.0
 30
0.0
  3
*D34
  1

  0
LINE
  5
12B76
330
12A84
100
AcDbEntity
  8
0
 62
     4
370
    -2
100
AcDbLine
 10
288.8966296424769
 20
152.492407821217
 30
0.0
 11
288.8966296424769
 21
107.1672807469777
 31
0.0
  0
LINE
  5
12B77
330
12A84
100
AcDbEntity
  8
0
 62
     4
370
    -2
100
AcDbLine
 10
366.8966296424769
 20
152.492407821217
 30
0.0
 11
366.8966296424769
 21
107.1672807469777
 31
0.0
  0
LINE
  5
12B78
330
12A84
100
AcDbEntity
  8
0
 62
     4
370
    -2
100
AcDbLine
 10
292.0466296424769
 20
109.1672807469777
 30
0.0
 11
363.7466296424769
 21
109.1672807469777
 31
0.0
  0
SOLID
  5
12B79
330
12A84
100
AcDbEntity
  8
0
 62
     4
100
AcDbTrace
 10
292.0466296424769
 20
109.6922807469776
 30
0.0
 11
292.0466296424769
 21
108.6422807469776
 31
0.0
 12
288.8966296424769
 22
109.1672807469777
 32
0.0
 13
288.8966296424769
 23
109.1672807469777
 33
0.0
  0
SOLID
  5
12B7A
330
12A84
100
AcDbEntity
  8
0
 62
     4
100
AcDbTrace
 10
363.7466296424769
 20
109.6922807469776
 30
0.0
 11
363.7466296424769
 21
108.6422807469776
 31
0.0
 12
366.8966296424769
 22
109.1672807469777
 32
0.0
 13
366.8966296424769
 23
109.1672807469777
 33
0.0
  0
MTEXT
  5
12B7B
330
12A84
100
AcDbEntity
  8
0
 62
     2
100
AcDbMText
 10
327.8966296424769
 20
111.5422807469776
 30
0.0
 40
3.149999999999999
 41
0.0
 71
     5
 72
     1
  1
\A1;78
  7
ROMAN
 73
     1
 44
1.0
1001
ACAD
1000
MTEXTBEGIN
1070
    73
1070
     1
1070
    44
1040
1.0
1070
    74
1070
     0
1000
MTEXTEND
  0
POINT
  5
12B7C
330
12A84
100
AcDbEntity
  8
Defpoints
 62
     0
100
AcDbPoint
 10
288.8966296424769
 20
153.492407821217
 30
0.0
  0
POINT
  5
12B7D
330
12A84
100
AcDbEntity
  8
Defpoints
 62
     0
100
AcDbPoint
 10
366.8966296424769
 20
153.492407821217
 30
0.0
  0
POINT
  5
12B7E
330
12A84
100
AcDbEntity
  8
Defpoints
 62
     0
100
AcDbPoint
 10
366.8966296424769
 20
109.1672807469777
 30
0.0
  0
ENDBLK
  5
12A86
330
12A84
100
AcDbEntity
  8
0
100
AcDbBlockEnd
  0
BLOCK
  5
12A9E
330
12A9D
100
AcDbEntity
  8
0
100
AcDbBlockBegin
  2
*D35
 70
     1
 10
0.0
 20
0.0
 30
0.0
  3
*D35
  1

  0
LINE
  5
12B7F
330
12A9D
100
AcDbEntity
  8
0
 62
     4
370
    -2
100
AcDbLine
 10
367.8966296424769
 20
158.931886886091
 30
0.0
 11
393.3355178842103
 21
158.931886886091
 31
0.0
  0
LINE
  5
12B80
330
12A9D
100
AcDbEntity
  8
0
 62
     4
370
    -2
100
AcDbLine
 10
368.0445530015604
 20
151.935014186115
 30
0.0
 11
393.3355178842103
 21
151.935014186115
 31
0.0
  0
LINE
  5
12B81
330
12A9D
100
AcDbEntity
  8
0
 62
     4
370
    -2
100
AcDbLine
 10
391.3355178842103
 20
162.081886886091
 30
0.0
 11
391.3355178842103
 21
165.231886886091
 31
0.0
  0
LINE
  5
12B82
330
12A9D
100
AcDbEntity
  8
0
 62
     4
370
    -2
100
AcDbLine
 10
391.3355178842103
 20
148.785014186115
 30
0.0
 11
391.3355178842103
 21
145.635014186115
 31
0.0
  0
LINE
  5
12B83
330
12A9D
100
AcDbEntity
  8
0
 62
     4
370
    -2
100
AcDbLine
 10
391.3355178842103
 20
158.931886886091
 30
0.0
 11
391.3355178842103
 21
151.935014186115
 31
0.0
  0
SOLID
  5
12B84
330
12A9D
100
AcDbEntity
  8
0
 62
     4
100
AcDbTrace
 10
390.8105178842103
 20
162.081886886091
 30
0.0
 11
391.8605178842103
 21
162.081886886091
 31
0.0
 12
391.3355178842103
 22
158.931886886091
 32
0.0
 13
391.3355178842103
 23
158.931886886091
 33
0.0
  0
SOLID
  5
12B85
330
12A9D
100
AcDbEntity
  8
0
 62
     4
100
AcDbTrace
 10
390.8105178842103
 20
148.785014186115
 30
0.0
 11
391.8605178842103
 21
148.785014186115
 31
0.0
 12
391.3355178842103
 22
151.935014186115
 32
0.0
 13
391.3355178842103
 23
151.935014186115
 33
0.0
  0
MTEXT
  5
12B86
330
12A9D
100
AcDbEntity
  8
0
 62
     2
100
AcDbMText
 10
388.9605178842102
 20
155.4334505361031
 30
0.0
 40
3.149999999999999
 41
0.0
 71
     5
 72
     1
  1
\A1;7
  7
ROMAN
 11
0.0000000000000001
 21
1.0
 31
0.0
 73
     1
 44
1.0
1001
ACAD
1000
MTEXTBEGIN
1070
    73
1070
     1
1070
    44
1040
1.0
1070
    74
1070
     0
1000
MTEXTEND
  0
POINT
  5
12B87
330
12A9D
100
AcDbEntity
  8
Defpoints
 62
     0
100
AcDbPoint
 10
366.8966296424768
 20
158.931886886091
 30
0.0
  0
POINT
  5
12B88
330
12A9D
100
AcDbEntity
  8
Defpoints
 62
     0
100
AcDbPoint
 10
367.0445530015604
 20
151.935014186115
 30
0.0
  0
POINT
  5
12B89
330
12A9D
100
AcDbEntity
  8
Defpoints
 62
     0
100
AcDbPoint
 10
391.3355178842103
 20
151.935014186115
 30
0.0
  0
ENDBLK
  5
12A9F
330
12A9D
100
AcDbEntity
  8
0
100
AcDbBlockEnd
  0
BLOCK
  5
12ABA
330
12AB9
100
AcDbEntity
  8
0
100
AcDbBlockBegin
  2
*D36
 70
     1
 10
0.0
 20
0.0
 30
0.0
  3
*D36
  1

  0
LINE
  5
13172
330
12AB9
100
AcDbEntity
  8
0
 62
     4
370
    -2
100
AcDbLine
 10
359.396629642477
 20
170.4350141861151
 30
0.0
 11
405.3621110953588
 21
170.4350141861151
 31
0.0
  0
LINE
  5
13173
330
12AB9
100
AcDbEntity
  8
0
 62
     4
370
    -2
100
AcDbLine
 10
359.3966296424769
 20
140.435014186115
 30
0.0
 11
405.3621110953588
 21
140.435014186115
 31
0.0
  0
LINE
  5
13174
330
12AB9
100
AcDbEntity
  8
0
 62
     4
370
    -2
100
AcDbLine
 10
403.3621110953587
 20
167.2850141861151
 30
0.0
 11
403.3621110953587
 21
143.585014186115
 31
0.0
  0
SOLID
  5
13175
330
12AB9
100
AcDbEntity
  8
0
 62
     4
100
AcDbTrace
 10
402.8371110953588
 20
167.2850141861151
 30
0.0
 11
403.8871110953587
 21
167.2850141861151
 31
0.0
 12
403.3621110953587
 22
170.4350141861151
 32
0.0
 13
403.3621110953587
 23
170.4350141861151
 33
0.0
  0
SOLID
  5
13176
330
12AB9
100
AcDbEntity
  8
0
 62
     4
100
AcDbTrace
 10
402.8371110953588
 20
143.585014186115
 30
0.0
 11
403.8871110953587
 21
143.585014186115
 31
0.0
 12
403.3621110953587
 22
140.435014186115
 32
0.0
 13
403.3621110953587
 23
140.435014186115
 33
0.0
  0
MTEXT
  5
13177
330
12AB9
100
AcDbEntity
  8
0
 62
     2
100
AcDbMText
 10
400.9871110953587
 20
155.4350141861151
 30
0.0
 40
3.149999999999999
 41
0.0
 71
     5
 72
     1
  1
\A1;30
  7
ROMAN
 11
0.0000000000000001
 21
1.0
 31
0.0
 73
     1
 44
1.0
1001
ACAD
1000
MTEXTBEGIN
1070
    73
1070
     1
1070
    44
1040
1.0
1070
    74
1070
     0
1000
MTEXTEND
  0
POINT
  5
13178
330
12AB9
100
AcDbEntity
  8
Defpoints
 62
     0
100
AcDbPoint
 10
358.396629642477
 20
170.4350141861151
 30
0.0
  0
POINT
  5
13179
330
12AB9
100
AcDbEntity
  8
Defpoints
 62
     0
100
AcDbPoint
 10
358.3966296424769
 20
140.435014186115
 30
0.0
  0
POINT
  5
1317A
330
12AB9
100
AcDbEntity
  8
Defpoints
 62
     0
100
AcDbPoint
 10
403.3621110953587
 20
140.435014186115
 30
0.0
  0
ENDBLK
  5
12ABB
330
12AB9
100
AcDbEntity
  8
0
100
AcDbBlockEnd
  0
BLOCK
  5
12AF0
330
12AEF
100
AcDbEntity
  8
0
100
AcDbBlockBegin
  2
*D37
 70
     1
 10
0.0
 20
0.0
 30
0.0
  3
*D37
  1

  0
LINE
  5
12BFE
330
12AEF
100
AcDbEntity
  8
0
 62
     4
370
    -2
100
AcDbLine
 10
335.9635194892978
 20
82.76032758509552
 30
0.0
 11
359.5575301239368
 21
82.76032758509549
 31
0.0
  0
LINE
  5
12BFF
330
12AEF
100
AcDbEntity
  8
0
 62
     4
370
    -2
100
AcDbLine
 10
350.4231243749785
 20
71.77678840811423
 30
0.0
 11
359.5575301239368
 21
71.7767884081142
 31
0.0
  0
LINE
  5
12C00
330
12AEF
100
AcDbEntity
  8
0
 62
     4
370
    -2
100
AcDbLine
 10
357.5575301239368
 20
79.61032758509547
 30
0.0
 11
357.5575301239368
 21
74.92678840811421
 31
0.0
  0
SOLID
  5
12C01
330
12AEF
100
AcDbEntity
  8
0
 62
     4
100
AcDbTrace
 10
357.0325301239368
 20
79.61032758509547
 30
0.0
 11
358.0825301239368
 21
79.61032758509547
 31
0.0
 12
357.5575301239368
 22
82.76032758509549
 32
0.0
 13
357.5575301239368
 23
82.76032758509549
 33
0.0
  0
SOLID
  5
12C02
330
12AEF
100
AcDbEntity
  8
0
 62
     4
100
AcDbTrace
 10
357.0325301239368
 20
74.92678840811421
 30
0.0
 11
358.0825301239368
 21
74.92678840811421
 31
0.0
 12
357.5575301239368
 22
71.7767884081142
 32
0.0
 13
357.5575301239368
 23
71.7767884081142
 33
0.0
  0
MTEXT
  5
12C03
330
12AEF
100
AcDbEntity
  8
0
 62
     2
100
AcDbMText
 10
355.1825301239369
 20
77.26855799660491
 30
0.0
 40
3.149999999999999
 41
0.0
 71
     5
 72
     1
  1
\A1;11
  7
ROMAN
 11
0.0000000000000001
 21
1.0
 31
0.0
 73
     1
 44
1.0
1001
ACAD
1000
MTEXTBEGIN
1070
    73
1070
     1
1070
    44
1040
1.0
1070
    74
1070
     0
1000
MTEXTEND
  0
POINT
  5
12C04
330
12AEF
100
AcDbEntity
  8
Defpoints
 62
     0
100
AcDbPoint
 10
334.9635194892978
 20
82.76032758509552
 30
0.0
  0
POINT
  5
12C05
330
12AEF
100
AcDbEntity
  8
Defpoints
 62
     0
100
AcDbPoint
 10
349.4231243749785
 20
71.77678840811423
 30
0.0
  0
POINT
  5
12C06
330
12AEF
100
AcDbEntity
  8
Defpoints
 62
     0
100
AcDbPoint
 10
357.5575301239368
 20
71.7767884081142
 30
0.0
  0
ENDBLK
  5
12AF1
330
12AEF
100
AcDbEntity
  8
0
100
AcDbBlockEnd
  0
BLOCK
  5
12B22
330
12B21
100
AcDbEntity
  8
0
100
AcDbBlockBegin
  2
*D38
 70
     1
 10
0.0
 20
0.0
 30
0.0
  3
*D38
  1

  0
LINE
  5
12F53
330
12B21
100
AcDbEntity
  8
0
 62
     4
370
    -2
100
AcDbLine
 10
342.4231243751134
 20
63.27678840811421
 30
0.0
 11
359.5575301239368
 21
63.27678840811421
 31
0.0
  0
LINE
  5
12F54
330
12B21
100
AcDbEntity
  8
0
 62
     4
370
    -2
100
AcDbLine
 10
350.4231243749784
 20
71.77678840811423
 30
0.0
 11
359.5575301239368
 21
71.77678840811421
 31
0.0
  0
LINE
  5
12F55
330
12B21
100
AcDbEntity
  8
0
 62
     4
370
    -2
100
AcDbLine
 10
357.5575301239368
 20
66.4267884081142
 30
0.0
 11
357.5575301239368
 21
68.62678840811421
 31
0.0
  0
SOLID
  5
12F56
330
12B21
100
AcDbEntity
  8
0
 62
     4
100
AcDbTrace
 10
357.0325301239368
 20
66.4267884081142
 30
0.0
 11
358.0825301239368
 21
66.4267884081142
 31
0.0
 12
357.5575301239368
 22
63.27678840811421
 32
0.0
 13
357.5575301239368
 23
63.27678840811421
 33
0.0
  0
SOLID
  5
12F57
330
12B21
100
AcDbEntity
  8
0
 62
     4
100
AcDbTrace
 10
357.0325301239368
 20
68.62678840811421
 30
0.0
 11
358.0825301239368
 21
68.62678840811421
 31
0.0
 12
357.5575301239368
 22
71.77678840811421
 32
0.0
 13
357.5575301239368
 23
71.77678840811421
 33
0.0
  0
MTEXT
  5
12F58
330
12B21
100
AcDbEntity
  8
0
 62
     2
100
AcDbMText
 10
355.1825301239369
 20
67.52678840811427
 30
0.0
 40
3.149999999999999
 41
0.0
 71
     5
 72
     1
  1
\A1;8.5
  7
ROMAN
 11
0.0000000000000001
 21
1.0
 31
0.0
 73
     1
 44
1.0
1001
ACAD
1000
MTEXTBEGIN
1070
    73
1070
     1
1070
    44
1040
1.0
1070
    74
1070
     0
1000
MTEXTEND
  0
POINT
  5
12F59
330
12B21
100
AcDbEntity
  8
Defpoints
 62
     0
100
AcDbPoint
 10
341.4231243751134
 20
63.27678840811421
 30
0.0
  0
POINT
  5
12F5A
330
12B21
100
AcDbEntity
  8
Defpoints
 62
     0
100
AcDbPoint
 10
349.4231243749784
 20
71.77678840811423
 30
0.0
  0
POINT
  5
12F5B
330
12B21
100
AcDbEntity
  8
Defpoints
 62
     0
100
AcDbPoint
 10
357.5575301239368
 20
71.77678840811421
 30
0.0
  0
ENDBLK
  5
12B23
330
12B21
100
AcDbEntity
  8
0
100
AcDbBlockEnd
  0
BLOCK
  5
12B3B
330
12B3A
100
AcDbEntity
  8
0
100
AcDbBlockBegin
  2
*D39
 70
     1
 10
0.0
 20
0.0
 30
0.0
  3
*D39
  1

  0
LINE
  5
1317B
330
12B3A
100
AcDbEntity
  8
0
 62
     4
370
    -2
100
AcDbLine
 10
313.4231243748394
 20
65.15147445891239
 30
0.0
 11
313.4231243748394
 21
50.919472896373
 31
0.0
  0
LINE
  5
1317C
330
12B3A
100
AcDbEntity
  8
0
 62
     4
370
    -2
100
AcDbLine
 10
342.4231243751134
 20
64.62592893372835
 30
0.0
 11
342.4231243751134
 21
50.919472896373
 31
0.0
  0
LINE
  5
1317D
330
12B3A
100
AcDbEntity
  8
0
 62
     4
370
    -2
100
AcDbLine
 10
316.5731243748393
 20
52.91947289637299
 30
0.0
 11
339.2731243751134
 21
52.91947289637299
 31
0.0
  0
SOLID
  5
1317E
330
12B3A
100
AcDbEntity
  8
0
 62
     4
100
AcDbTrace
 10
316.5731243748393
 20
53.44447289637299
 30
0.0
 11
316.5731243748393
 21
52.394472896373
 31
0.0
 12
313.4231243748394
 22
52.91947289637299
 32
0.0
 13
313.4231243748394
 23
52.91947289637299
 33
0.0
  0
SOLID
  5
1317F
330
12B3A
100
AcDbEntity
  8
0
 62
     4
100
AcDbTrace
 10
339.2731243751134
 20
53.44447289637299
 30
0.0
 11
339.2731243751134
 21
52.394472896373
 31
0.0
 12
342.4231243751134
 22
52.91947289637299
 32
0.0
 13
342.4231243751134
 23
52.91947289637299
 33
0.0
  0
MTEXT
  5
13180
330
12B3A
100
AcDbEntity
  8
0
 62
     2
100
AcDbMText
 10
327.9231243749764
 20
55.294472896373
 30
0.0
 40
3.149999999999999
 41
0.0
 71
     5
 72
     1
  1
\A1;29
  7
ROMAN
 73
     1
 44
1.0
1001
ACAD
1000
MTEXTBEGIN
1070
    73
1070
     1
1070
    44
1040
1.0
1070
    74
1070
     0
1000
MTEXTEND
  0
POINT
  5
13181
330
12B3A
100
AcDbEntity
  8
Defpoints
 62
     0
100
AcDbPoint
 10
313.4231243748394
 20
66.15147445891238
 30
0.0
  0
POINT
  5
13182
330
12B3A
100
AcDbEntity
  8
Defpoints
 62
     0
100
AcDbPoint
 10
342.4231243751134
 20
65.62592893372834
 30
0.0
  0
POINT
  5
13183
330
12B3A
100
AcDbEntity
  8
Defpoints
 62
     0
100
AcDbPoint
 10
342.4231243751134
 20
52.91947289637299
 30
0.0
  0
ENDBLK
  5
12B3C
330
12B3A
100
AcDbEntity
  8
0
100
AcDbBlockEnd
  0
ENDSEC
  0
SECTION
  2
ENTITIES
  0
MTEXT
  5
ACE
330
37
100
AcDbEntity
  8
0
100
AcDbMText
 10
104.7033133873419
 20
-36.0353225159347
 30
0.0
 40
10.0
 41
323.1174672836394
 71
     1
 72
     5
  1
{\C2;KA-75}
 73
     1
 44
1.0
1001
ACAD
1000
MTEXTBEGIN
1070
    73
1070
     1
1070
    44
1040
1.0
1070
    74
1070
     0
1000
MTEXTEND
  0
LINE
  5
AD8
330
37
100
AcDbEntity
  8
0
 62
     3
100
AcDbLine
 10
103.5356343354485
 20
-48.69355512170409
 30
0.0
 11
144.370885567548
 21
-48.69355512170407
 31
0.0
  0
LINE
  5
AD9
330
37
100
AcDbEntity
  8
0
 62
     3
100
AcDbLine
 10
103.5356343354485
 20
-49.69355512170409
 30
0.0
 11
144.370885567548
 21
-49.69355512170409
 31
0.0
  0
MTEXT
  5
BC8
330
37
100
AcDbEntity
  8
0
100
AcDbMText
 10
74.45010140861564
 20
-42.55733892596706
 30
0.0
 40
5.0
 41
73.6851108604992
 71
     1
 72
     5
  1
{\C3;MODEL.}
 73
     1
 44
1.0
1001
ACAD
1000
MTEXTBEGIN
1070
    73
1070
     1
1070
    44
1040
1.0
1070
    74
1070
     0
1000
MTEXTEND
  0
MTEXT
  5
BCA
330
37
100
AcDbEntity
  8
0
100
AcDbMText
 10
232.8263537831722
 20
-11.02301240117742
 30
0.0
 40
7.0
 41
98.62168694440493
 71
     1
 72
     5
  1
{\C2;SCALE 1 : 1}
 73
     1
 44
1.0
1001
ACAD
1000
MTEXTBEGIN
1070
    73
1070
     1
1070
    44
1040
1.0
1070
    74
1070
     0
1000
MTEXTEND
  0
ARC
  5
12192
330
37
100
AcDbEntity
  8
0
100
AcDbCircle
 10
139.5599430899854
 20
-1696.37871374785
 30
0.0
 40
1999.0
100
AcDbArc
 50
90.0
 51
91.03433523813938
  0
ARC
  5
12193
330
37
100
AcDbEntity
  8
0
100
AcDbCircle
 10
139.5599430899854
 20
-1696.37871374785
 30
0.0
 40
2000.0
100
AcDbArc
 50
90.0
 51
91.11440396491079
  0
LINE
  5
12194
330
37
100
AcDbEntity
  8
0
100
AcDbLine
 10
83.64504141909689
 20
295.1212862521512
 30
0.0
 11
139.4807376462862
 21
295.1212862521511
 31
0.0
  0
LINE
  5
12195
330
37
100
AcDbEntity
  8
0
100
AcDbLine
 10
83.64504141909689
 20
291.1212862521512
 30
0.0
 11
139.4808967332934
 21
291.1212862521512
 31
0.0
  0
ARC
  5
12196
330
37
100
AcDbEntity
  8
0
100
AcDbCircle
 10
103.5677692681973
 20
296.0712236805907
 30
0.0
 40
6.225033212211227
100
AcDbArc
 50
90.85531749858988
 51
188.7776059678471
  0
ARC
  5
12197
330
37
100
AcDbEntity
  8
0
100
AcDbCircle
 10
103.6853830311343
 20
296.8067934465177
 30
0.0
 40
6.492347365239622
100
AcDbArc
 50
93.1482859401783
 51
195.0471862446882
  0
ARC
  5
12198
330
37
100
AcDbEntity
  8
0
100
AcDbCircle
 10
102.0154481264511
 20
278.5189400296665
 30
0.0
 40
24.76105293974513
100
AcDbArc
 50
89.0456833755452
 51
137.8941453818787
  0
LINE
  5
12199
330
37
100
AcDbEntity
  8
0
100
AcDbLine
 10
83.64504141909689
 20
295.1212862521512
 30
0.0
 11
83.64504141909689
 21
291.1212862521512
 31
0.0
  0
LINE
  5
1219A
102
{ACAD_REACTORS
330
126C2
102
}
330
37
100
AcDbEntity
  8
C
100
AcDbLine
 10
91.47484476087234
 20
284.6212862521512
 30
0.0
 11
91.47484476087234
 21
278.93558878197
 31
0.0
  0
POINT
  5
1219B
330
37
100
AcDbEntity
  8
Defpoints
  6
ByBlock
 62
     0
100
AcDbPoint
 10
92.60298937034498
 20
301.4212404130223
 30
0.0
  0
LINE
  5
1219C
330
37
100
AcDbEntity
  8
0
100
AcDbLine
 10
103.4748447608723
 20
303.2957261744546
 30
0.0
 11
103.4748447608723
 21
303.2957261744546
 31
0.0
  0
ARC
  5
1219D
330
37
100
AcDbEntity
  8
0
100
AcDbCircle
 10
139.4748447608757
 20
-1696.378715558281
 30
0.0
 40
2000.0
100
AcDbArc
 50
88.88640554018834
 51
90.00455750704073
  0
LINE
  5
1219E
330
37
100
AcDbEntity
  8
0
100
AcDbLine
 10
195.3164336968347
 20
295.1257276190477
 30
0.0
 11
139.4807376462862
 21
295.1212862521511
 31
0.0
  0
LINE
  5
1219F
330
37
100
AcDbEntity
  8
0
100
AcDbLine
 10
195.3167518708485
 20
291.1257276317022
 30
0.0
 11
139.4808967332934
 21
291.1212862521512
 31
0.0
  0
ARC
  5
121A0
330
37
100
AcDbEntity
  8
0
100
AcDbCircle
 10
139.5599430899965
 20
-1696.37871374785
 30
0.0
 40
1999.0
100
AcDbArc
 50
88.97022226890177
 51
90.00455750704073
  0
LINE
  5
121A1
330
37
100
AcDbEntity
  8
0
100
AcDbLine
 10
139.4808967332934
 20
291.1212862521512
 30
0.0
 11
190.4869488670764
 21
291.1212862521512
 31
0.0
  0
LINE
  5
121A2
330
37
100
AcDbEntity
  8
0
100
AcDbLine
 10
195.3164336968347
 20
295.1257276190477
 30
0.0
 11
195.3167518708485
 21
291.1257276317022
 31
0.0
  0
LINE
  5
121A3
102
{ACAD_REACTORS
330
126C2
102
}
330
37
100
AcDbEntity
  8
C
100
AcDbLine
 10
187.4873462713607
 20
284.6251048375308
 30
0.0
 11
187.4873462713607
 21
278.93558878197
 31
0.0
  0
ARC
  5
121A4
330
37
100
AcDbEntity
  8
0
100
AcDbCircle
 10
176.947347656381
 20
278.5219202025764
 30
0.0
 40
24.76105293974513
100
AcDbArc
 50
42.11041212516262
 51
86.87201963900118
  0
ARC
  5
121A5
330
37
100
AcDbEntity
  8
0
100
AcDbCircle
 10
175.3936303494101
 20
296.0740803209103
 30
0.0
 40
6.225033212211227
100
AcDbArc
 50
351.226951539194
 51
89.14924000845116
  0
ARC
  5
121A6
330
37
100
AcDbEntity
  8
0
100
AcDbCircle
 10
175.275958077049
 20
296.8096407290996
 30
0.0
 40
6.492347365239622
100
AcDbArc
 50
344.9573712623536
 51
86.85627156686342
  0
ARC
  5
121A7
330
37
100
AcDbEntity
  8
0
 62
     3
100
AcDbCircle
 10
139.474844760872
 20
-822.7217346794741
 30
0.0
 40
1201.4
100
AcDbArc
 50
90.0
 51
91.67579828080349
  0
ARC
  5
121AA
330
37
100
AcDbEntity
  8
0
100
AcDbCircle
 10
139.4748447608548
 20
1542.278265320525
 30
0.0
 40
1200.0
100
AcDbArc
 50
267.5831968085336
 51
270.0000000000017
  0
LINE
  5
121AB
330
37
100
AcDbEntity
  8
0
  6
CENTER
 62
     1
100
AcDbLine
 10
78.91042152919379
 20
368.2782653205261
 30
0.0
 11
139.4748447608723
 21
368.2782653205261
 31
0.0
  0
ARC
  5
121AC
330
37
100
AcDbEntity
  8
0
100
AcDbCircle
 10
139.474844760872
 20
-805.7217346794741
 30
0.0
 40
1200.0
100
AcDbArc
 50
90.0
 51
92.416803191468
  0
ARC
  5
121AE
102
{ACAD_REACTORS
330
1260B
102
}
330
37
100
AcDbEntity
  8
0
100
AcDbCircle
 10
383.474844760926
 20
367.2782653198158
 30
0.0
 40
300.0
100
AcDbArc
 50
179.8090137144435
 51
183.6805420170621
  0
ARC
  5
121B0
330
37
100
AcDbEntity
  8
0
100
AcDbCircle
 10
89.08328925937629
 20
348.3412103908529
 30
0.0
 40
5.0
100
AcDbArc
 50
183.6805420172302
 51
267.5831968085352
  0
POINT
  5
121B1
330
37
100
AcDbEntity
  8
Defpoints
  6
ByBlock
 62
     0
100
AcDbPoint
 10
88.87244593091834
 20
343.3456578597666
 30
0.0
  0
ARC
  5
121B3
330
37
100
AcDbEntity
  8
0
 62
     3
100
AcDbCircle
 10
106.8080814756074
 20
351.9809165281079
 30
0.0
 40
25.7
100
AcDbArc
 50
98.08057925772041
 51
143.1301023541563
  0
ARC
  5
121B4
330
37
100
AcDbEntity
  8
0
 62
     3
100
AcDbCircle
 10
106.9704401944574
 20
402.3791965226156
 30
0.0
 40
24.45590560403681
100
AcDbArc
 50
214.4685249697705
 51
259.5201916107287
  0
ARC
  5
121B5
102
{ACAD_REACTORS
330
1260B
102
}
330
37
100
AcDbEntity
  8
0
100
AcDbCircle
 10
383.4748447609318
 20
369.2782653198122
 30
0.0
 40
300.0
100
AcDbArc
 50
176.3194579826025
 51
180.1909862852218
  0
POINT
  5
121B6
330
37
100
AcDbEntity
  8
Defpoints
  6
ByBlock
 62
     0
100
AcDbPoint
 10
83.4765114321687
 20
368.2782653205261
 30
0.0
  0
ARC
  5
121B9
330
37
100
AcDbEntity
  8
0
100
AcDbCircle
 10
89.08328925937603
 20
388.2153202501986
 30
0.0
 40
5.0
100
AcDbArc
 50
92.41680319146643
 51
176.3194579827698
  0
POINT
  5
121BA
330
37
100
AcDbEntity
  8
Defpoints
  6
ByBlock
 62
     0
100
AcDbPoint
 10
88.87244593091795
 20
393.2108727812848
 30
0.0
  0
ARC
  5
121BB
330
37
100
AcDbEntity
  8
0
 62
     3
100
AcDbCircle
 10
104.3410699043803
 20
388.1644288948817
 30
0.0
 40
10.0
100
AcDbArc
 50
259.5201916107287
 51
271.6631968224027
  0
ARC
  5
121BD
330
37
100
AcDbEntity
  8
0
100
AcDbCircle
 10
-104.5251552391457
 20
367.2782653207053
 30
0.0
 40
300.0
100
AcDbArc
 50
356.319457982729
 51
0.1909862853479949
  0
ARC
  5
121BF
102
{ACAD_REACTORS
330
1268D
102
}
330
37
100
AcDbEntity
  8
0
100
AcDbCircle
 10
139.4748447617175
 20
1542.278265320525
 30
0.0
 40
1200.0
100
AcDbArc
 50
269.9999999999576
 51
272.4168031914257
  0
POINT
  5
121C0
330
37
100
AcDbEntity
  8
Defpoints
  6
ByBlock
 62
     0
100
AcDbPoint
 10
139.4748447615449
 20
342.2782653205262
 30
0.0
  0
ARC
  5
121C2
330
37
100
AcDbEntity
  8
0
100
AcDbCircle
 10
189.8664002623364
 20
348.3412103908166
 30
0.0
 40
5.0
100
AcDbArc
 50
272.416803191424
 51
356.3194579827282
  0
POINT
  5
121C3
330
37
100
AcDbEntity
  8
Defpoints
  6
ByBlock
 62
     0
100
AcDbPoint
 10
190.0772435907909
 20
343.3456578597301
 30
0.0
  0
POINT
  5
121C4
330
37
100
AcDbEntity
  8
Defpoints
  6
ByBlock
 62
     0
100
AcDbPoint
 10
195.172861178636
 20
353.8209641324873
 30
0.0
  0
ARC
  5
121C5
102
{ACAD_REACTORS
330
12675
102
}
330
37
100
AcDbEntity
  8
0
100
AcDbCircle
 10
139.4748447625049
 20
-822.9217346794737
 30
0.0
 40
1200.7
100
AcDbArc
 50
88.27323986062046
 51
91.72676013937772
  0
ARC
  5
121C6
330
37
100
AcDbEntity
  8
0
 62
     3
100
AcDbCircle
 10
139.4748447625049
 20
-822.7217346794731
 30
0.0
 40
1201.4
100
AcDbArc
 50
88.32420171927472
 51
90.00000000007814
  0
ARC
  5
121C7
330
37
100
AcDbEntity
  8
0
100
AcDbCircle
 10
139.4748446671446
 20
-805.7217346794741
 30
0.0
 40
1200.0
100
AcDbArc
 50
87.58319680405625
 51
89.99999999552503
  0
LINE
  5
121C8
330
37
100
AcDbEntity
  8
0
  6
CENTER
 62
     1
100
AcDbLine
 10
195.4748447608919
 20
368.2782653204948
 30
0.0
 11
139.4748447608919
 21
368.2782653205261
 31
0.0
  0
POINT
  5
121C9
102
{ACAD_REACTORS
330
1268D
102
}
330
37
100
AcDbEntity
  8
Defpoints
  6
ByBlock
 62
     0
100
AcDbPoint
 10
139.4748447609058
 20
394.2782653205259
 30
0.0
  0
ARC
  5
121CA
330
37
100
AcDbEntity
  8
0
 62
     3
100
AcDbCircle
 10
171.9792493272559
 20
402.37919652266
 30
0.0
 40
24.45590560403681
100
AcDbArc
 50
280.4798083893492
 51
325.5314750303086
  0
ARC
  5
121CB
330
37
100
AcDbEntity
  8
0
100
AcDbCircle
 10
-104.5251552391444
 20
369.2782653207016
 30
0.0
 40
300.0
100
AcDbArc
 50
359.8090137145689
 51
3.680542017187783
  0
ARC
  5
121CC
330
37
100
AcDbEntity
  8
0
 62
     3
100
AcDbCircle
 10
172.1416080461743
 20
351.9809165281523
 30
0.0
 40
25.7
100
AcDbArc
 50
36.86989764592148
 51
81.91942074235855
  0
ARC
  5
121CF
330
37
100
AcDbEntity
  8
0
 62
     3
100
AcDbCircle
 10
174.6086196173522
 20
388.1644288949293
 30
0.0
 40
10.0
100
AcDbArc
 50
268.3368031776756
 51
280.4798083893492
  0
LINE
  5
121D0
330
37
100
AcDbEntity
  8
0
100
AcDbLine
 10
175.4748447608738
 20
378.1744008929087
 30
0.0
 11
175.4748447608739
 21
378.1744008929087
 31
0.0
  0
POINT
  5
121D1
330
37
100
AcDbEntity
  8
Defpoints
  6
ByBlock
 62
     0
100
AcDbPoint
 10
195.4748447608919
 20
368.2782653204948
 30
0.0
  0
POINT
  5
121D2
330
37
100
AcDbEntity
  8
Defpoints
  6
ByBlock
 62
     0
100
AcDbPoint
 10
195.4748447608919
 20
368.2782653204948
 30
0.0
  0
POINT
  5
121D3
102
{ACAD_REACTORS
330
1260B
102
}
330
37
100
AcDbEntity
  8
Defpoints
  6
ByBlock
 62
     0
100
AcDbPoint
 10
195.4748447608919
 20
368.2782653204948
 30
0.0
  0
POINT
  5
121D4
330
37
100
AcDbEntity
  8
Defpoints
  6
ByBlock
 62
     0
100
AcDbPoint
 10
195.4731780895954
 20
368.2782653204919
 30
0.0
  0
POINT
  5
121D5
330
37
100
AcDbEntity
  8
Defpoints
  6
ByBlock
 62
     0
100
AcDbPoint
 10
195.4748447608913
 20
367.2782653206618
 30
0.0
  0
ARC
  5
121D6
330
37
100
AcDbEntity
  8
0
100
AcDbCircle
 10
189.8664002623656
 20
388.2153202501622
 30
0.0
 40
5.0
100
AcDbArc
 50
3.680542017188598
 51
87.58319680849281
  0
LINE
  5
121D7
330
37
100
AcDbEntity
  8
0
  6
CENTER
 62
     1
100
AcDbLine
 10
325.5979504519304
 20
300.1823731637183
 30
0.0
 11
325.5979504519305
 21
282.443521933088
 31
0.0
  0
LINE
  5
121D8
330
37
100
AcDbEntity
  8
0
100
AcDbLine
 10
351.5979504519297
 20
291.6505494820618
 30
0.0
 11
299.5979504519297
 21
291.6505494820618
 31
0.0
  0
LINE
  5
121D9
330
37
100
AcDbEntity
  8
0
100
AcDbLine
 10
350.4709715898418
 20
295.6505494820618
 30
0.0
 11
301.3787268583341
 21
295.6505494820616
 31
0.0
  0
ARC
  5
121DA
330
37
100
AcDbEntity
  8
0
100
AcDbCircle
 10
301.3787268583341
 20
294.6505494820616
 30
0.0
 40
1.0
100
AcDbArc
 50
90.0
 51
165.9637565320731
  0
POINT
  5
121DB
330
37
100
AcDbEntity
  8
Defpoints
  6
ByBlock
 62
     0
100
AcDbPoint
 10
301.3787268583341
 20
295.6505494820617
 30
0.0
  0
POINT
  5
121DC
330
37
100
AcDbEntity
  8
Defpoints
  6
ByBlock
 62
     0
100
AcDbPoint
 10
300.7633146489315
 20
295.4387549200777
 30
0.0
  0
POINT
  5
121DD
330
37
100
AcDbEntity
  8
Defpoints
  6
ByBlock
 62
     0
100
AcDbPoint
 10
299.5979504519297
 20
291.6505494820618
 30
0.0
  0
LINE
  5
121DE
330
37
100
AcDbEntity
  8
0
100
AcDbLine
 10
299.5979504519297
 20
291.6505494820618
 30
0.0
 11
300.4085843581887
 21
294.8930851070981
 31
0.0
  0
ARC
  5
121DF
330
37
100
AcDbEntity
  8
0
100
AcDbCircle
 10
326.437193554436
 20
270.2101349625351
 30
0.0
 40
35.0
100
AcDbArc
 50
46.74180365468907
 51
75.76314961795995
  0
ARC
  5
121E0
330
37
100
AcDbEntity
  8
0
100
AcDbCircle
 10
321.0794446173344
 20
310.6247150235733
 30
0.0
 40
15.0
100
AcDbArc
 50
273.3632103729729
 51
333.2597700606992
  0
POINT
  5
121E2
330
37
100
AcDbEntity
  8
Defpoints
  6
ByBlock
 62
     0
100
AcDbPoint
 10
322.5979504519304
 20
291.6505494820618
 30
0.0
  0
POINT
  5
121E8
330
37
100
AcDbEntity
  8
Defpoints
  6
ByBlock
 62
     0
100
AcDbPoint
 10
351.5979504519297
 20
291.6505494820618
 30
0.0
  0
POINT
  5
121E9
330
37
100
AcDbEntity
  8
Defpoints
  6
ByBlock
 62
     0
100
AcDbPoint
 10
351.5979504519297
 20
291.6505494820618
 30
0.0
  0
LINE
  5
121EA
102
{ACAD_REACTORS
330
12746
102
}
330
37
100
AcDbEntity
  8
0
100
AcDbLine
 10
351.5979504519297
 20
291.6505494820618
 30
0.0
 11
350.7071001447338
 21
295.2139507108455
 31
0.0
  0
LINE
  5
121EB
102
{ACAD_REACTORS
330
12791
102
}
330
37
100
AcDbEntity
  8
0
100
AcDbLine
 10
342.3479504519304
 20
291.6505494820618
 30
0.0
 11
342.3479504519304
 21
283.1505494820618
 31
0.0
  0
LINE
  5
121EC
102
{ACAD_REACTORS
330
12791
102
}
330
37
100
AcDbEntity
  8
0
100
AcDbLine
 10
308.8479504519303
 20
291.6505494820617
 30
0.0
 11
308.8479504519304
 21
283.1505494820619
 31
0.0
  0
LINE
  5
121ED
330
37
100
AcDbEntity
  8
0
100
AcDbLine
 10
309.8479504519304
 20
282.1505494820619
 30
0.0
 11
322.9638279200638
 21
282.1505494820618
 31
0.0
  0
LINE
  5
121F0
330
37
100
AcDbEntity
  8
0
100
AcDbLine
 10
86.48089673329321
 20
291.1212862521512
 30
0.0
 11
139.4808967332934
 21
291.1212862521512
 31
0.0
  0
LINE
  5
121F1
330
37
100
AcDbEntity
  8
0
100
AcDbLine
 10
192.4808967332937
 20
291.1212862521512
 30
0.0
 11
139.4808967332934
 21
291.1212862521512
 31
0.0
  0
LINE
  5
121F2
330
37
100
AcDbEntity
  8
0
100
AcDbLine
 10
194.4871079414295
 20
289.1216044261651
 30
0.0
 11
184.4308967332935
 21
289.1212862521512
 31
0.0
  0
LINE
  5
121F3
330
37
100
AcDbEntity
  8
0
100
AcDbLine
 10
182.4808967332934
 20
279.1212862521512
 30
0.0
 11
139.4808967332934
 21
279.1212862521512
 31
0.0
  0
LINE
  5
121F4
330
37
100
AcDbEntity
  8
0
100
AcDbLine
 10
154.4808967332934
 20
289.1212862521512
 30
0.0
 11
139.4808967332934
 21
289.1212862521512
 31
0.0
  0
LINE
  5
121F6
330
37
100
AcDbEntity
  8
0
100
AcDbLine
 10
124.4808967332933
 20
289.1212862521512
 30
0.0
 11
139.4808967332934
 21
289.1212862521512
 31
0.0
  0
LINE
  5
121F7
330
37
100
AcDbEntity
  8
0
100
AcDbLine
 10
124.4808967332932
 20
291.1212862521512
 30
0.0
 11
124.4808967332933
 21
289.1212862521512
 31
0.0
  0
LINE
  5
121F8
330
37
100
AcDbEntity
  8
0
100
AcDbLine
 10
96.48089673329346
 20
279.1212862521512
 30
0.0
 11
139.4808967332934
 21
279.1212862521512
 31
0.0
  0
LINE
  5
121FB
330
37
100
AcDbEntity
  8
0
100
AcDbLine
 10
154.4808967332935
 20
291.1212862521512
 30
0.0
 11
154.4808967332935
 21
289.1212862521512
 31
0.0
  0
LINE
  5
121FC
330
37
100
AcDbEntity
  8
0
100
AcDbLine
 10
184.4308967332936
 20
289.1212862521512
 30
0.0
 11
183.4808967332934
 21
287.7979421324412
 31
0.0
  0
LINE
  5
121FE
330
37
100
AcDbEntity
  8
0
100
AcDbLine
 10
192.4808967332937
 20
291.1212862521512
 30
0.0
 11
192.4808967332937
 21
289.1212862521512
 31
0.0
  0
LINE
  5
121FF
330
37
100
AcDbEntity
  8
0
100
AcDbLine
 10
190.4869488670763
 20
291.1212862521512
 30
0.0
 11
190.4869485443525
 21
291.1253434522232
 31
0.0
  0
LINE
  5
12200
330
37
100
AcDbEntity
  8
0
100
AcDbLine
 10
184.4869488480949
 20
291.1212862521512
 30
0.0
 11
184.4869485633341
 21
291.1248661912024
 31
0.0
  0
LINE
  5
12201
330
37
100
AcDbEntity
  8
0
100
AcDbLine
 10
194.4872205738404
 20
284.1212862521512
 30
0.0
 11
194.4871079414295
 21
289.1216044261651
 31
0.0
  0
LINE
  5
12202
330
37
100
AcDbEntity
  8
0
100
AcDbLine
 10
194.4872205738404
 20
284.1212862521512
 30
0.0
 11
184.4308967332935
 21
284.1212862521512
 31
0.0
  0
LINE
  5
12203
330
37
100
AcDbEntity
  8
0
100
AcDbLine
 10
184.4308967332935
 20
284.1212862521512
 30
0.0
 11
184.4308967332936
 21
289.1212862521512
 31
0.0
  0
ARC
  5
12204
330
37
100
AcDbEntity
  8
0
100
AcDbCircle
 10
187.4873064996089
 20
284.4980343610416
 30
0.0
 40
3.827392267995818
100
AcDbArc
 50
218.3880031282706
 51
321.6119968717307
  0
LINE
  5
12205
330
37
100
AcDbEntity
  8
0
100
AcDbLine
 10
184.487306499609
 20
284.1212862521512
 30
0.0
 11
190.487306499609
 21
284.1212862521512
 31
0.0
  0
LINE
  5
12206
330
37
100
AcDbEntity
  8
0
100
AcDbLine
 10
190.487306499609
 20
284.1212862521512
 30
0.0
 11
190.487306499609
 21
283.6212862521512
 31
0.0
  0
LINE
  5
12207
330
37
100
AcDbEntity
  8
0
100
AcDbLine
 10
190.487306499609
 20
283.6212862521512
 30
0.0
 11
184.487306499609
 21
283.6212862521512
 31
0.0
  0
LINE
  5
12208
330
37
100
AcDbEntity
  8
0
100
AcDbLine
 10
184.487306499609
 20
283.6212862521512
 30
0.0
 11
184.487306499609
 21
284.1212862521512
 31
0.0
  0
LINE
  5
12209
330
37
100
AcDbEntity
  8
0
100
AcDbLine
 10
190.487306499609
 20
283.6212862521512
 30
0.0
 11
190.487306499609
 21
282.1212862521512
 31
0.0
  0
LINE
  5
1220A
330
37
100
AcDbEntity
  8
0
100
AcDbLine
 10
190.487306499609
 20
282.1212862521512
 30
0.0
 11
184.487306499609
 21
282.1212862521512
 31
0.0
  0
LINE
  5
1220B
330
37
100
AcDbEntity
  8
0
100
AcDbLine
 10
184.487306499609
 20
282.1212862521512
 30
0.0
 11
184.487306499609
 21
283.6212862521512
 31
0.0
  0
LINE
  5
1220C
330
37
100
AcDbEntity
  8
0
100
AcDbLine
 10
187.487306499609
 20
282.1212862521512
 30
0.0
 11
186.8694654603155
 21
280.7208391022181
 31
0.0
  0
LINE
  5
1220D
330
37
100
AcDbEntity
  8
0
100
AcDbLine
 10
187.4873860431124
 20
282.1212862521512
 30
0.0
 11
188.1052270824059
 21
280.7208391022181
 31
0.0
  0
LINE
  5
1220E
330
37
100
AcDbEntity
  8
0
100
AcDbLine
 10
86.48089673329321
 20
291.1212862521512
 30
0.0
 11
86.48089673329321
 21
289.1212862521512
 31
0.0
  0
LINE
  5
1220F
330
37
100
AcDbEntity
  8
0
100
AcDbLine
 10
84.47457289274645
 20
284.1212862521512
 30
0.0
 11
94.53089673329342
 21
284.1212862521512
 31
0.0
  0
LINE
  5
12210
330
37
100
AcDbEntity
  8
0
100
AcDbLine
 10
84.47468552515742
 20
289.1216044261651
 30
0.0
 11
94.53089673329342
 21
289.1212862521512
 31
0.0
  0
LINE
  5
12211
330
37
100
AcDbEntity
  8
0
100
AcDbLine
 10
88.47448696697794
 20
282.1212862521512
 30
0.0
 11
94.47448696697795
 21
282.1212862521512
 31
0.0
  0
LINE
  5
12212
330
37
100
AcDbEntity
  8
0
100
AcDbLine
 10
88.47448696697794
 20
283.6212862521512
 30
0.0
 11
94.47448696697795
 21
283.6212862521512
 31
0.0
  0
LINE
  5
12213
330
37
100
AcDbEntity
  8
0
100
AcDbLine
 10
94.47448696697795
 20
284.1212862521512
 30
0.0
 11
88.47448696697794
 21
284.1212862521512
 31
0.0
  0
ARC
  5
12214
330
37
100
AcDbEntity
  8
0
100
AcDbCircle
 10
91.47448696697788
 20
284.4980343610416
 30
0.0
 40
3.827392267995818
100
AcDbArc
 50
218.3880031282693
 51
321.6119968717294
  0
LINE
  5
12215
330
37
100
AcDbEntity
  8
0
100
AcDbLine
 10
94.47448696697795
 20
282.1212862521512
 30
0.0
 11
94.47448696697795
 21
283.6212862521512
 31
0.0
  0
LINE
  5
12216
330
37
100
AcDbEntity
  8
0
100
AcDbLine
 10
94.47448696697795
 20
283.6212862521512
 30
0.0
 11
94.47448696697795
 21
284.1212862521512
 31
0.0
  0
LINE
  5
12217
330
37
100
AcDbEntity
  8
0
100
AcDbLine
 10
94.53089673329342
 20
284.1212862521512
 30
0.0
 11
94.5308967332933
 21
289.1212862521512
 31
0.0
  0
LINE
  5
12218
330
37
100
AcDbEntity
  8
0
100
AcDbLine
 10
94.5308967332933
 20
289.1212862521512
 30
0.0
 11
95.48089673329346
 21
287.7979421324413
 31
0.0
  0
LINE
  5
12219
330
37
100
AcDbEntity
  8
0
 62
     3
100
AcDbLine
 10
91.47440742347445
 20
282.1212862521512
 30
0.0
 11
90.856566384181
 21
280.7208391022181
 31
0.0
  0
LINE
  5
1221A
330
37
100
AcDbEntity
  8
0
 62
     3
100
AcDbLine
 10
91.47448696697791
 20
282.1212862521512
 30
0.0
 11
92.09232800627139
 21
280.7208391022181
 31
0.0
  0
LINE
  5
1221B
330
37
100
AcDbEntity
  8
0
100
AcDbLine
 10
88.47448696697794
 20
283.6212862521512
 30
0.0
 11
88.47448696697794
 21
282.1212862521512
 31
0.0
  0
LINE
  5
1221C
330
37
100
AcDbEntity
  8
0
100
AcDbLine
 10
88.47448696697794
 20
284.1212862521512
 30
0.0
 11
88.47448696697794
 21
283.6212862521512
 31
0.0
  0
LINE
  5
1221D
330
37
100
AcDbEntity
  8
0
100
AcDbLine
 10
84.47457289274645
 20
284.1212862521512
 30
0.0
 11
84.47468552515742
 21
289.1216044261651
 31
0.0
  0
LINE
  5
1221E
330
37
100
AcDbEntity
  8
0
100
AcDbLine
 10
94.47484461849199
 20
291.1212862521512
 30
0.0
 11
94.47484490325278
 21
291.1248661912024
 31
0.0
  0
LINE
  5
1221F
330
37
100
AcDbEntity
  8
0
100
AcDbLine
 10
88.47484459951061
 20
291.1212862521512
 30
0.0
 11
88.47484492223443
 21
291.1253434522232
 31
0.0
  0
LINE
  5
12220
330
37
100
AcDbEntity
  8
0
100
AcDbLine
 10
330.5915406856152
 20
291.6505494820618
 30
0.0
 11
330.5915406856152
 21
289.6505494820619
 31
0.0
  0
LINE
  5
12221
330
37
100
AcDbEntity
  8
0
100
AcDbLine
 10
332.597864526162
 20
284.6505494820618
 30
0.0
 11
318.5979504519305
 21
284.6505494820618
 31
0.0
  0
LINE
  5
12222
330
37
100
AcDbEntity
  8
0
100
AcDbLine
 10
332.5977518937511
 20
289.6508676560756
 30
0.0
 11
318.5979504519306
 21
289.6505494820619
 31
0.0
  0
LINE
  5
12223
330
37
100
AcDbEntity
  8
0
100
AcDbLine
 10
328.5979504519304
 20
282.6505494820618
 30
0.0
 11
322.5979504519304
 21
282.6505494820618
 31
0.0
  0
LINE
  5
12224
330
37
100
AcDbEntity
  8
0
100
AcDbLine
 10
328.5979504519304
 20
284.1505494820619
 30
0.0
 11
322.5979504519304
 21
284.1505494820619
 31
0.0
  0
LINE
  5
12225
330
37
100
AcDbEntity
  8
0
100
AcDbLine
 10
322.5979504519304
 20
284.6505494820618
 30
0.0
 11
328.5979504519304
 21
284.6505494820618
 31
0.0
  0
ARC
  5
12226
330
37
100
AcDbEntity
  8
0
100
AcDbCircle
 10
325.5979504519303
 20
285.0272975909523
 30
0.0
 40
3.827392267995818
100
AcDbArc
 50
218.3880031282704
 51
321.6119968717307
  0
LINE
  5
12227
330
37
100
AcDbEntity
  8
0
100
AcDbLine
 10
322.5979504519304
 20
282.6505494820618
 30
0.0
 11
322.5979504519304
 21
284.1505494820619
 31
0.0
  0
LINE
  5
12228
330
37
100
AcDbEntity
  8
0
100
AcDbLine
 10
322.5979504519304
 20
284.1505494820619
 30
0.0
 11
322.5979504519304
 21
284.6505494820618
 31
0.0
  0
LINE
  5
12229
330
37
100
AcDbEntity
  8
0
100
AcDbLine
 10
318.5979504519305
 20
284.6505494820618
 30
0.0
 11
318.5979504519306
 21
289.6505494820619
 31
0.0
  0
LINE
  5
1222A
330
37
100
AcDbEntity
  8
0
 62
     3
100
AcDbLine
 10
325.5980299954339
 20
282.6505494820618
 30
0.0
 11
326.2158710347275
 21
281.2501023321287
 31
0.0
  0
LINE
  5
1222B
330
37
100
AcDbEntity
  8
0
 62
     3
100
AcDbLine
 10
325.5979504519304
 20
282.6505494820618
 30
0.0
 11
324.9801094126372
 21
281.2501023321287
 31
0.0
  0
LINE
  5
1222C
330
37
100
AcDbEntity
  8
0
100
AcDbLine
 10
328.5979504519304
 20
284.1505494820619
 30
0.0
 11
328.5979504519304
 21
282.6505494820618
 31
0.0
  0
LINE
  5
1222D
330
37
100
AcDbEntity
  8
0
100
AcDbLine
 10
328.5979504519304
 20
284.6505494820618
 30
0.0
 11
328.5979504519304
 21
284.1505494820619
 31
0.0
  0
LINE
  5
1222E
330
37
100
AcDbEntity
  8
0
100
AcDbLine
 10
332.597864526162
 20
284.6505494820618
 30
0.0
 11
332.5977518937511
 21
289.6508676560756
 31
0.0
  0
LINE
  5
1222F
330
37
100
AcDbEntity
  8
0
100
AcDbLine
 10
322.5975928004165
 20
291.6505494820618
 30
0.0
 11
322.5975925156555
 21
291.654129421113
 31
0.0
  0
LINE
  5
12230
330
37
100
AcDbEntity
  8
0
100
AcDbLine
 10
328.5975928193979
 20
291.6505494820618
 30
0.0
 11
328.5975924966739
 21
291.6546066821338
 31
0.0
  0
LINE
  5
12231
330
37
100
AcDbEntity
  8
0
100
AcDbLine
 10
320.6043602182457
 20
291.6505494820618
 30
0.0
 11
320.6043602182458
 21
289.6505494820619
 31
0.0
  0
LINE
  5
12232
102
{ACAD_REACTORS
330
12779
102
}
330
37
100
AcDbEntity
  8
0
100
AcDbLine
 10
328.232072983797
 20
282.1505494820618
 30
0.0
 11
341.3479504519304
 21
282.1505494820618
 31
0.0
  0
LINE
  5
12233
330
37
100
AcDbEntity
  8
0
  6
CENTER
 62
     1
100
AcDbLine
 10
139.4808967332934
 20
275.065871871903
 30
0.0
 11
139.4808967332934
 21
306.4160749069122
 31
0.0
  0
LINE
  5
12234
330
37
100
AcDbEntity
  8
0
100
AcDbLine
 10
287.9449329638853
 20
405.2578110769145
 30
0.0
 11
362.9449329638853
 21
405.2578110769145
 31
0.0
  0
LINE
  5
12235
102
{ACAD_REACTORS
330
12729
102
}
330
37
100
AcDbEntity
  8
0
100
AcDbLine
 10
287.9449329638855
 20
370.2578110769146
 30
0.0
 11
362.9449329638853
 21
370.2578110769146
 31
0.0
  0
LINE
  5
12236
330
37
100
AcDbEntity
  8
0
  6
CENTER
 62
     1
100
AcDbLine
 10
377.3803415754638
 20
388.1177428557275
 30
0.0
 11
273.8495129465728
 21
388.1177428557588
 31
0.0
  0
LINE
  5
12237
330
37
100
AcDbEntity
  8
0
  6
PHANTOM2
 62
     3
 48
3.0
100
AcDbLine
 10
270.9449329638855
 20
415.2578110769145
 30
0.0
 11
379.9449329638853
 21
415.2578110769145
 31
0.0
  0
LINE
  5
12238
330
37
100
AcDbEntity
  8
0
  6
PHANTOM2
 62
     3
 48
3.0
100
AcDbLine
 10
270.9449329638853
 20
360.2578110769146
 30
0.0
 11
379.9449329638853
 21
360.2578110769146
 31
0.0
  0
LINE
  5
12239
330
37
100
AcDbEntity
  8
0
  6
PHANTOM2
 62
     3
 48
3.0
100
AcDbLine
 10
270.9449329638853
 20
360.2578110769146
 30
0.0
 11
270.9449329638854
 21
415.2578110769145
 31
0.0
  0
LINE
  5
1223A
330
37
100
AcDbEntity
  8
0
  6
CENTER
 62
     1
100
AcDbLine
 10
325.4449329638854
 20
368.5528507343579
 30
0.0
 11
325.4449329638854
 21
407.1371522900816
 31
0.0
  0
LINE
  5
1223B
102
{ACAD_REACTORS
330
126DD
102
}
330
37
100
AcDbEntity
  8
0
100
AcDbLine
 10
280.9449329638854
 20
377.2578110769146
 30
0.0
 11
280.9449329638853
 21
384.6177428557273
 31
0.0
  0
ARC
  5
1223C
102
{ACAD_REACTORS
330
126DD
102
}
330
37
100
AcDbEntity
  8
0
100
AcDbCircle
 10
287.9449329638855
 20
377.2578110769146
 30
0.0
 40
7.0
100
AcDbArc
 50
180.0
 51
270.0
  0
ARC
  5
1223D
330
37
100
AcDbEntity
  8
0
100
AcDbCircle
 10
287.9449329638854
 20
398.2578110769148
 30
0.0
 40
7.0
100
AcDbArc
 50
90.0
 51
180.0
  0
LINE
  5
1223E
102
{ACAD_REACTORS
330
126F5
102
}
330
37
100
AcDbEntity
  8
0
  6
CENTER
 62
     1
100
AcDbLine
 10
277.4449329638853
 20
382.6888408662874
 30
0.0
 11
277.4449329638853
 21
393.2328986894741
 31
0.0
  0
ARC
  5
1223F
330
37
100
AcDbEntity
  8
0
100
AcDbCircle
 10
277.4449329638855
 20
388.1177428557275
 30
0.0
 40
3.5
100
AcDbArc
 50
90.0
 51
270.0
  0
LINE
  5
12240
330
37
100
AcDbEntity
  8
0
100
AcDbLine
 10
277.4449329638853
 20
384.6177428557273
 30
0.0
 11
280.9449329638852
 21
384.6177428557273
 31
0.0
  0
LINE
  5
12241
330
37
100
AcDbEntity
  8
0
100
AcDbLine
 10
277.4449329638853
 20
391.6177428557273
 30
0.0
 11
280.9449329638853
 21
391.6177428557273
 31
0.0
  0
LINE
  5
12242
330
37
100
AcDbEntity
  8
0
100
AcDbLine
 10
280.9449329638853
 20
391.6177428557273
 30
0.0
 11
280.9449329638853
 21
398.2578110769147
 31
0.0
  0
LINE
  5
12243
102
{ACAD_REACTORS
330
126DD
102
}
330
37
100
AcDbEntity
  8
0
100
AcDbLine
 10
369.9449329638853
 20
377.2578110769146
 30
0.0
 11
369.9449329638853
 21
384.6177428557273
 31
0.0
  0
LINE
  5
12244
330
37
100
AcDbEntity
  8
0
  6
PHANTOM2
 62
     3
 48
3.0
100
AcDbLine
 10
379.9449329638853
 20
360.2578110769146
 30
0.0
 11
379.9449329638853
 21
415.2578110769145
 31
0.0
  0
ARC
  5
12245
330
37
100
AcDbEntity
  8
0
100
AcDbCircle
 10
362.9449329638853
 20
377.2578110769146
 30
0.0
 40
7.0
100
AcDbArc
 50
270.0
 51
0.0
  0
ARC
  5
12246
102
{ACAD_REACTORS
330
12729
102
}
330
37
100
AcDbEntity
  8
0
100
AcDbCircle
 10
362.9449329638853
 20
398.2578110769148
 30
0.0
 40
7.0
100
AcDbArc
 50
0.0
 51
90.0
  0
ARC
  5
12247
102
{ACAD_REACTORS
330
12711
102
}
330
37
100
AcDbEntity
  8
0
100
AcDbCircle
 10
373.4449329638853
 20
388.1177428557275
 30
0.0
 40
3.5
100
AcDbArc
 50
270.0
 51
90.0
  0
LINE
  5
12248
102
{ACAD_REACTORS
330
126F5
102
}
330
37
100
AcDbEntity
  8
0
  6
CENTER
 62
     1
100
AcDbLine
 10
373.4449329638853
 20
382.6888408662874
 30
0.0
 11
373.4449329638853
 21
393.2328986894741
 31
0.0
  0
LINE
  5
12249
330
37
100
AcDbEntity
  8
0
100
AcDbLine
 10
373.4449329638853
 20
384.6177428557273
 30
0.0
 11
369.9449329638853
 21
384.6177428557273
 31
0.0
  0
LINE
  5
1224A
102
{ACAD_REACTORS
330
12711
102
}
330
37
100
AcDbEntity
  8
0
100
AcDbLine
 10
373.4449329638853
 20
391.6177428557273
 30
0.0
 11
369.9449329638853
 21
391.6177428557273
 31
0.0
  0
LINE
  5
1224B
330
37
100
AcDbEntity
  8
0
100
AcDbLine
 10
369.9449329638853
 20
391.6177428557273
 30
0.0
 11
369.9449329638853
 21
398.2578110769147
 31
0.0
  0
LINE
  5
1224C
330
37
100
AcDbEntity
  8
0
  6
CENTER
 62
     1
100
AcDbLine
 10
139.4748447608345
 20
342.2782653205262
 30
0.0
 11
139.4748447608716
 21
400.2931746399763
 31
0.0
  0
ARC
  5
12250
330
37
100
AcDbEntity
  8
0
 62
     3
100
AcDbCircle
 10
202.5141331902295
 20
581.6276137306912
 30
0.0
 40
22.00516643314497
100
AcDbArc
 50
22.58362451177982
 51
83.68457067609503
  0
ARC
  5
12251
330
37
100
AcDbEntity
  8
0
 62
     3
100
AcDbCircle
 10
202.8370729732456
 20
623.9456898017508
 30
0.0
 40
20.41164986041243
100
AcDbArc
 50
277.8746227105719
 51
347.4242402257481
  0
ARC
  5
12252
102
{ACAD_REACTORS
330
1246C
102
}
330
37
100
AcDbEntity
  8
0
 62
     7
100
AcDbCircle
 10
155.6789044280787
 20
-576.0007610768702
 30
0.0
 40
1200.0
100
AcDbArc
 50
86.88795201628828
 51
93.11204798371162
  0
ARC
  5
12253
330
37
100
AcDbEntity
  8
0
100
AcDbCircle
 10
206.7630161405904
 20
507.6082173245784
 30
0.0
 40
6.225033212211227
100
AcDbArc
 50
351.2829987686747
 51
89.20528723793294
  0
ARC
  5
12254
330
37
100
AcDbEntity
  8
0
100
AcDbCircle
 10
206.6446243930595
 20
508.3436622728203
 30
0.0
 40
6.492347365239622
100
AcDbArc
 50
345.0134184918341
 51
86.91231879634099
  0
ARC
  5
12255
330
37
100
AcDbEntity
  8
0
100
AcDbCircle
 10
208.3339023770275
 20
490.0575854635373
 30
0.0
 40
24.76105293974513
100
AcDbArc
 50
42.16645935464074
 51
91.01492136097617
  0
LINE
  5
12256
330
37
100
AcDbEntity
  8
0
100
AcDbLine
 10
226.6867376427347
 20
506.6793537327281
 30
0.0
 11
155.6808844794232
 21
506.6042471077031
 31
0.0
  0
LINE
  5
12257
330
37
100
AcDbEntity
  8
0
100
AcDbLine
 10
226.6909686507241
 20
502.6793559704072
 30
0.0
 11
155.6849564004944
 21
502.6042491771078
 31
0.0
  0
ARC
  5
12258
102
{ACAD_REACTORS
330
1246C
102
}
330
37
100
AcDbEntity
  8
0
 62
     7
100
AcDbCircle
 10
155.6789043010609
 20
1758.999238931668
 30
0.0
 40
1200.0
100
AcDbArc
 50
266.8879520223808
 51
273.1120479898757
  0
ARC
  5
12259
102
{ACAD_REACTORS
330
123EB
102
}
330
37
100
AcDbEntity
  8
0
 62
     7
100
AcDbCircle
 10
384.6789044280803
 20
591.4992389231692
 30
0.0
 40
300.0
100
AcDbArc
 50
174.9947824127449
 51
185.0052175869507
  0
LINE
  5
1225A
330
37
100
AcDbEntity
  8
0
100
AcDbLine
 10
84.67890442807329
 20
506.6042491771078
 30
0.0
 11
155.6847973134872
 21
506.6042491771078
 31
0.0
  0
LINE
  5
1225B
330
37
100
AcDbEntity
  8
0
100
AcDbLine
 10
84.67890442807329
 20
502.6042491771078
 30
0.0
 11
155.6849564004944
 21
502.6042491771078
 31
0.0
  0
ARC
  5
1225C
330
37
100
AcDbEntity
  8
0
100
AcDbCircle
 10
140.5938060989619
 20
-1484.895750822893
 30
0.0
 40
1999.0
100
AcDbArc
 50
89.56762347606581
 51
91.03433523813611
  0
ARC
  5
1225D
330
37
100
AcDbEntity
  8
0
100
AcDbCircle
 10
140.5938060989619
 20
-1484.895750822893
 30
0.0
 40
2000.0
100
AcDbArc
 50
89.56783966843138
 51
91.06381727866665
  0
ARC
  5
1225E
330
37
100
AcDbEntity
  8
0
100
AcDbCircle
 10
103.0493111354275
 20
490.0019029546231
 30
0.0
 40
24.76105293974513
100
AcDbArc
 50
89.04568337554357
 51
137.8941453818787
  0
LINE
  5
1225F
330
37
100
AcDbEntity
  8
0
100
AcDbLine
 10
84.67890442807329
 20
506.6042491771078
 30
0.0
 11
84.67890442807329
 21
502.6042491771078
 31
0.0
  0
LINE
  5
12260
330
37
100
AcDbEntity
  8
0
100
AcDbLine
 10
84.67890442807329
 20
506.6042491771078
 30
0.0
 11
84.67890442807329
 21
502.6042491771078
 31
0.0
  0
ARC
  5
12261
330
37
100
AcDbEntity
  8
0
100
AcDbCircle
 10
104.6016322771738
 20
507.5541866055472
 30
0.0
 40
6.225033212211227
100
AcDbArc
 50
90.85531749859152
 51
188.7776059678506
  0
ARC
  5
12262
330
37
100
AcDbEntity
  8
0
100
AcDbCircle
 10
104.7192460401108
 20
508.2897563714745
 30
0.0
 40
6.492347365239622
100
AcDbArc
 50
93.14828594017342
 51
195.0471862446863
  0
POINT
  5
12263
330
37
100
AcDbEntity
  8
Defpoints
  6
ByBlock
 62
     0
100
AcDbPoint
 10
92.33007883646951
 20
512.3224719797585
 30
0.0
 50
270.0
  0
LINE
  5
12264
330
37
100
AcDbEntity
  8
0
100
AcDbLine
 10
104.5087077698488
 20
514.778689099411
 30
0.0
 11
104.5087077698488
 21
514.778689099411
 31
0.0
  0
LINE
  5
12266
330
37
100
AcDbEntity
  8
0
  6
CENTER
 62
     1
100
AcDbLine
 10
155.678904428078
 20
495.6199506595445
 30
0.0
 11
155.6789044280778
 21
521.3580986876194
 31
0.0
  0
ARC
  5
12267
330
37
100
AcDbEntity
  8
0
100
AcDbCircle
 10
172.8783803545167
 20
-1484.878676281665
 30
0.0
 40
2000.0
100
AcDbArc
 50
88.94620077161297
 51
90.49276506809109
  0
ARC
  5
12268
330
37
100
AcDbEntity
  8
0
100
AcDbCircle
 10
172.8783803545167
 20
-1484.878676281665
 30
0.0
 40
1999.0
100
AcDbArc
 50
89.02626949838104
 51
90.49298126045291
  0
ARC
  5
12269
102
{ACAD_REACTORS
330
12454
102
}
330
37
100
AcDbEntity
  8
0
 62
     7
100
AcDbCircle
 10
155.6789044280743
 20
-596.7507610760084
 30
0.0
 40
1200.0
100
AcDbArc
 50
87.64800516006003
 51
92.35199483994001
  0
LINE
  5
1226A
102
{ACAD_REACTORS
330
123EB
102
}
330
37
100
AcDbEntity
  8
0
  6
CENTER
 62
     1
100
AcDbLine
 10
81.28324032939445
 20
591.499238924001
 30
0.0
 11
231.7064911838892
 21
591.499238924001
 31
0.0
  0
ARC
  5
1226C
330
37
100
AcDbEntity
  8
0
 62
     3
100
AcDbCircle
 10
108.5207358829028
 20
623.9456898017476
 30
0.0
 40
20.41164986041243
100
AcDbArc
 50
192.575759774258
 51
262.1253772894314
  0
ARC
  5
1226D
330
37
100
AcDbEntity
  8
0
 62
     3
100
AcDbCircle
 10
107.5431111323137
 20
613.5597075282617
 30
0.0
 40
10.0
100
AcDbArc
 50
259.5201916107303
 51
271.6631968224027
  0
ARC
  5
1226E
330
37
100
AcDbEntity
  8
0
 62
     3
100
AcDbCircle
 10
109.963722863703
 20
581.6880823349602
 30
0.0
 40
22.00516643314497
100
AcDbArc
 50
96.31542932391148
 51
157.4163754882272
  0
LINE
  5
1226F
330
37
100
AcDbEntity
  8
0
  6
Continuous
 62
     7
100
AcDbLine
 10
100.6789044280715
 20
576.2811679325047
 30
0.0
 11
100.6789044280722
 21
596.2433713487911
 31
0.0
  0
LINE
  5
12272
330
37
100
AcDbEntity
  8
0
100
AcDbLine
 10
106.6768859888058
 20
603.5696795262396
 30
0.0
 11
106.6768859888057
 21
603.5696795262396
 31
0.0
  0
LINE
  5
12274
330
37
100
AcDbEntity
  8
0
  6
Continuous
 62
     7
100
AcDbLine
 10
210.6789044280757
 20
576.2655508825564
 30
0.0
 11
210.6789044280751
 21
596.2433713487913
 31
0.0
  0
POINT
  5
12277
330
37
100
AcDbEntity
  8
Defpoints
  6
ByBlock
 62
     0
100
AcDbPoint
 10
204.8618273899549
 20
603.0241147374883
 30
0.0
 50
270.0
  0
ARC
  5
12278
330
37
100
AcDbEntity
  8
0
 62
     3
100
AcDbCircle
 10
203.8146977238355
 20
613.5597075282652
 30
0.0
 40
10.0
100
AcDbArc
 50
268.3368031776006
 51
280.4798083892763
  0
LINE
  5
12279
330
37
100
AcDbEntity
  8
0
100
AcDbLine
 10
204.6809228673441
 20
603.5696795262436
 30
0.0
 11
204.6809228673442
 21
603.5696795262436
 31
0.0
  0
ARC
  5
1227A
102
{ACAD_REACTORS
330
123EB
102
}
330
37
100
AcDbEntity
  8
0
 62
     7
100
AcDbCircle
 10
-73.32109557191968
 20
591.4992389231533
 30
0.0
 40
300.0
100
AcDbArc
 50
354.9947824157581
 51
5.005217587258194
  0
POINT
  5
1227B
330
37
100
AcDbEntity
  8
Defpoints
  6
ByBlock
 62
     0
100
AcDbPoint
 10
221.2133461182162
 20
511.2053908249079
 30
0.0
 50
270.0
  0
LINE
  5
1227C
330
37
100
AcDbEntity
  8
0
100
AcDbLine
 10
226.6867376427347
 20
506.679353732728
 30
0.0
 11
226.6909686507241
 21
502.6793559704072
 31
0.0
  0
LINE
  5
1227D
330
37
100
AcDbEntity
  8
0
100
AcDbLine
 10
226.6867376427347
 20
506.6793537327281
 30
0.0
 11
226.6909686507241
 21
502.6793559704072
 31
0.0
  0
POINT
  5
12281
330
37
100
AcDbEntity
  8
Defpoints
  6
ByBlock
 62
     0
100
AcDbPoint
 10
155.6789044280747
 20
603.4992389240009
 30
0.0
 50
270.0
  0
LINE
  5
12282
330
37
100
AcDbEntity
  8
0
100
AcDbLine
 10
212.1789090448829
 20
491.6793767247119
 30
0.0
 11
155.682312020501
 21
491.6791158909331
 31
0.0
  0
LINE
  5
12283
330
37
100
AcDbEntity
  8
0
100
AcDbLine
 10
99.17890442807772
 20
491.679115890933
 30
0.0
 11
155.682312020501
 21
491.6791158909331
 31
0.0
  0
LINE
  5
12284
330
37
100
AcDbEntity
  8
0
100
AcDbLine
 10
98.17890442807772
 20
502.6042491771078
 30
0.0
 11
98.17890442807772
 21
494.1042477785582
 31
0.0
  0
LINE
  5
12286
330
37
100
AcDbEntity
  8
0
100
AcDbLine
 10
213.1789044280778
 20
502.6650635494916
 30
0.0
 11
213.1789044280778
 21
494.1045086123264
 31
0.0
  0
LINE
  5
12288
102
{ACAD_REACTORS
330
1246C
102
}
330
37
100
AcDbEntity
  8
0
  6
CENTER
 62
     1
100
AcDbLine
 10
155.6789044280778
 20
554.409351679082
 30
0.0
 11
155.6789044280771
 21
630.6896166007358
 31
0.0
  0
LINE
  5
12289
330
37
100
AcDbEntity
  8
0
  6
CENTER2
 62
     1
100
AcDbLine
 10
294.8981260667699
 20
616.1648881288762
 30
0.0
 11
435.1220592148605
 21
616.1648881288762
 31
0.0
  0
LINE
  5
1228A
330
37
100
AcDbEntity
  8
0
  6
CENTER2
 62
     1
100
AcDbLine
 10
364.9669645313923
 20
644.1312903678216
 30
0.0
 11
364.9669645313942
 21
588.8729617008809
 31
0.0
  0
LINE
  5
1228B
330
37
100
AcDbEntity
  8
0
 62
     7
100
AcDbLine
 10
422.9673951568311
 20
594.1649458914922
 30
0.0
 11
422.9670330401653
 21
612.6648881288762
 31
0.0
  0
LINE
  5
1228C
330
37
100
AcDbEntity
  8
0
 62
     7
100
AcDbLine
 10
419.9673951050868
 20
591.1648871696874
 30
0.0
 11
364.9669641045758
 21
591.1648881288762
 31
0.0
  0
LINE
  5
1228E
330
37
100
AcDbEntity
  8
0
 62
     7
100
AcDbLine
 10
364.9693656319477
 20
591.1648875872374
 30
0.0
 11
309.9665338729148
 21
591.1648881828701
 31
0.0
  0
LINE
  5
1228F
330
37
100
AcDbEntity
  8
0
 62
     7
100
AcDbLine
 10
419.9673951050868
 20
641.1648890880655
 30
0.0
 11
364.9669641045758
 21
641.1648881288762
 31
0.0
  0
LINE
  5
12291
330
37
100
AcDbEntity
  8
0
 62
     7
100
AcDbLine
 10
422.9673951568312
 20
638.1648303662606
 30
0.0
 11
422.9670330401653
 21
619.6648881288762
 31
0.0
  0
LINE
  5
12292
330
37
100
AcDbEntity
  8
0
 62
     7
100
AcDbLine
 10
306.9665339059769
 20
594.1649469046746
 30
0.0
 11
306.9668960226211
 21
612.6648881288722
 31
0.0
  0
LINE
  5
12294
330
37
100
AcDbEntity
  8
0
 62
     7
100
AcDbLine
 10
306.9665339059739
 20
638.1648293530777
 30
0.0
 11
306.9668960226207
 21
619.6648881288722
 31
0.0
  0
LINE
  5
12296
330
37
100
AcDbEntity
  8
0
 62
     7
100
AcDbLine
 10
364.9693656319477
 20
641.1648886705152
 30
0.0
 11
309.9665338729118
 21
641.1648880748827
 31
0.0
  0
ARC
  5
12297
330
37
100
AcDbEntity
  8
0
100
AcDbCircle
 10
427.9669645309389
 20
616.1648881288762
 30
0.0
 40
3.5
100
AcDbArc
 50
270.0
 51
90.0
  0
LINE
  5
12298
102
{ACAD_REACTORS
330
1255D
102
}
330
37
100
AcDbEntity
  8
0
100
AcDbLine
 10
427.9669645309389
 20
612.6648881288762
 30
0.0
 11
422.7170330401653
 21
612.6648881288762
 31
0.0
  0
LINE
  5
12299
102
{ACAD_REACTORS
330
1255D
102
}
330
37
100
AcDbEntity
  8
0
100
AcDbLine
 10
427.9669645309389
 20
619.6648881288762
 30
0.0
 11
422.7170330401653
 21
619.6648881288762
 31
0.0
  0
ARC
  5
1229A
330
37
100
AcDbEntity
  8
0
100
AcDbCircle
 10
301.9669645318477
 20
616.1648881288718
 30
0.0
 40
3.5
100
AcDbArc
 50
90.0
 51
270.0
  0
LINE
  5
1229B
330
37
100
AcDbEntity
  8
0
100
AcDbLine
 10
301.9669645318475
 20
619.6648881288719
 30
0.0
 11
307.2168960226209
 21
619.6648881288722
 31
0.0
  0
LINE
  5
1229C
330
37
100
AcDbEntity
  8
0
100
AcDbLine
 10
301.9669645318479
 20
612.664888128872
 30
0.0
 11
307.2168960226213
 21
612.6648881288722
 31
0.0
  0
ARC
  5
1229D
330
37
100
AcDbEntity
  8
0
 62
     7
100
AcDbCircle
 10
362.8768359248568
 20
521.6908004768063
 30
0.0
 40
15.0
100
AcDbArc
 50
269.1262375259368
 51
331.8777028426499
  0
LINE
  5
1229E
330
37
100
AcDbEntity
  8
0
100
AcDbLine
 10
396.3241806405552
 20
506.6793537327273
 30
0.0
 11
333.7823737505083
 21
506.6793537327273
 31
0.0
  0
LINE
  5
122A0
330
37
100
AcDbEntity
  8
0
  6
HIDDEN2
 62
     3
100
AcDbLine
 10
355.7823380163347
 20
502.6793537327272
 30
0.0
 11
364.7823380163347
 21
502.6793537327272
 31
0.0
  0
LINE
  5
122A1
330
37
100
AcDbEntity
  8
0
  6
HIDDEN
 62
     3
 48
3.0
100
AcDbLine
 10
342.2823380163347
 20
502.6793537327272
 30
0.0
 11
387.2823380163347
 21
502.6793537327272
 31
0.0
  0
LINE
  5
122A2
330
37
100
AcDbEntity
  8
0
100
AcDbLine
 10
397.7823380163659
 20
502.6793537327272
 30
0.0
 11
331.7823380163034
 21
502.6793537327272
 31
0.0
  0
LINE
  5
122A3
330
37
100
AcDbEntity
  8
0
100
AcDbLine
 10
341.2823380163347
 20
493.1793537327273
 30
0.0
 11
362.2576267090218
 21
493.1793537327273
 31
0.0
  0
ARC
  5
122A4
330
37
100
AcDbEntity
  8
0
 62
     7
100
AcDbCircle
 10
373.2593758755897
 20
480.3541798272424
 30
0.0
 40
35.0
100
AcDbArc
 50
48.65699128227024
 51
83.70408679183261
  0
LINE
  5
122A5
330
37
100
AcDbEntity
  8
0
  6
CENTER
 62
     1
100
AcDbLine
 10
364.7823380163347
 20
512.4483652794763
 30
0.0
 11
364.7823380163347
 21
489.8668076628836
 31
0.0
  0
LINE
  5
122A6
330
37
100
AcDbEntity
  8
0
  6
CENTER
 62
     1
100
AcDbLine
 10
364.7823380163347
 20
512.4483652794763
 30
0.0
 11
364.7823380163347
 21
489.8668076628836
 31
0.0
  0
POINT
  5
122A7
330
37
100
AcDbEntity
  8
Defpoints
  6
ByBlock
 62
     0
100
AcDbPoint
 10
377.2314437805933
 20
514.9855210536778
 30
0.0
 50
180.0
  0
LINE
  5
122A9
330
37
100
AcDbEntity
  8
0
100
AcDbLine
 10
388.2823380163346
 20
493.1793537327273
 30
0.0
 11
367.3070493236479
 21
493.1793537327273
 31
0.0
  0
LINE
  5
122AA
330
37
100
AcDbEntity
  8
0
100
AcDbLine
 10
389.2823380163347
 20
502.6793537327272
 30
0.0
 11
389.2823380163346
 21
492.6793537327273
 31
0.0
  0
POINT
  5
122AC
330
37
100
AcDbEntity
  8
Defpoints
  6
ByBlock
 62
     0
100
AcDbPoint
 10
395.613409650983
 20
506.6793537327275
 30
0.0
 50
180.0
  0
LINE
  5
122AD
102
{ACAD_REACTORS
330
125A5
102
}
330
37
100
AcDbEntity
  8
0
100
AcDbLine
 10
397.7823380163659
 20
502.6793537327272
 30
0.0
 11
396.6718511880828
 21
506.1824875366332
 31
0.0
  0
ARC
  5
122AE
102
{ACAD_REACTORS
330
1258D
102
}
330
37
100
AcDbEntity
  8
0
100
AcDbCircle
 10
388.2823380163348
 20
494.1793537327273
 30
0.0
 40
1.0
100
AcDbArc
 50
270.0
 51
0.0
  0
LINE
  5
122AF
330
37
100
AcDbEntity
  8
0
100
AcDbLine
 10
367.7823380163347
 20
502.6793537327272
 30
0.0
 11
367.7823380163347
 21
500.6793537327273
 31
0.0
  0
LINE
  5
122B0
330
37
100
AcDbEntity
  8
0
100
AcDbLine
 10
361.7823380163347
 20
502.6793537327272
 30
0.0
 11
361.7823380163347
 21
500.6793537327273
 31
0.0
  0
LINE
  5
122B1
102
{ACAD_REACTORS
330
1258D
102
}
330
37
100
AcDbEntity
  8
0
100
AcDbLine
 10
340.2823380163347
 20
502.6793537327272
 30
0.0
 11
340.2823380163348
 21
492.6793537327273
 31
0.0
  0
POINT
  5
122B2
330
37
100
AcDbEntity
  8
Defpoints
  6
ByBlock
 62
     0
100
AcDbPoint
 10
333.9512663816865
 20
506.6793537327273
 30
0.0
 50
180.0
  0
ARC
  5
122B3
330
37
100
AcDbEntity
  8
0
100
AcDbCircle
 10
333.7823737505083
 20
505.6793537327273
 30
0.0
 40
1.0
100
AcDbArc
 50
90.0
 51
162.4114828181527
  0
LINE
  5
122B4
330
37
100
AcDbEntity
  8
0
100
AcDbLine
 10
331.7823380163034
 20
502.6793537327272
 30
0.0
 11
332.8291225030063
 21
505.9815325856203
 31
0.0
  0
ARC
  5
122B5
330
37
100
AcDbEntity
  8
0
100
AcDbCircle
 10
341.2823380163347
 20
494.1793537327273
 30
0.0
 40
1.0
100
AcDbArc
 50
180.0
 51
270.0
  0
LINE
  5
122B6
330
37
100
AcDbEntity
  8
0
100
AcDbLine
 10
361.7823380163347
 20
493.6791946434639
 30
0.0
 11
367.7823380163347
 21
493.6791946434639
 31
0.0
  0
ARC
  5
122B7
330
37
100
AcDbEntity
  8
0
100
AcDbCircle
 10
364.7823380163349
 20
496.0559427523545
 30
0.0
 40
3.827392267995818
100
AcDbArc
 50
218.3880031282693
 51
321.6119968717307
  0
LINE
  5
122B8
330
37
100
AcDbEntity
  8
0
 62
     3
100
AcDbLine
 10
364.7823380163347
 20
493.6791946434639
 30
0.0
 11
365.4001790556281
 21
492.2787474935309
 31
0.0
  0
LINE
  5
122B9
330
37
100
AcDbEntity
  8
0
100
AcDbLine
 10
361.7823380163347
 20
495.179194643464
 30
0.0
 11
367.7823380163347
 21
495.179194643464
 31
0.0
  0
LINE
  5
122BA
330
37
100
AcDbEntity
  8
0
100
AcDbLine
 10
367.7823380163347
 20
495.6791946434639
 30
0.0
 11
361.7823380163347
 21
495.6791946434639
 31
0.0
  0
LINE
  5
122BB
330
37
100
AcDbEntity
  8
0
100
AcDbLine
 10
357.7824239421032
 20
495.6791946434639
 30
0.0
 11
371.7823380163347
 21
495.6791946434639
 31
0.0
  0
LINE
  5
122BC
330
37
100
AcDbEntity
  8
0
100
AcDbLine
 10
357.7825365745141
 20
500.6795128174778
 30
0.0
 11
371.7823380163345
 21
500.6791946434637
 31
0.0
  0
LINE
  5
122BD
330
37
100
AcDbEntity
  8
0
100
AcDbLine
 10
371.7823380163347
 20
495.6791946434639
 30
0.0
 11
371.7823380163345
 21
500.6791946434637
 31
0.0
  0
LINE
  5
122BE
330
37
100
AcDbEntity
  8
0
100
AcDbLine
 10
367.7823380163347
 20
495.179194643464
 30
0.0
 11
367.7823380163347
 21
495.6791946434639
 31
0.0
  0
LINE
  5
122BF
330
37
100
AcDbEntity
  8
0
100
AcDbLine
 10
367.7823380163347
 20
493.6791946434639
 30
0.0
 11
367.7823380163347
 21
495.179194643464
 31
0.0
  0
LINE
  5
122C0
330
37
100
AcDbEntity
  8
0
100
AcDbLine
 10
357.7824239421032
 20
495.6791946434639
 30
0.0
 11
357.7825365745141
 21
500.6795128174778
 31
0.0
  0
LINE
  5
122C1
330
37
100
AcDbEntity
  8
0
 62
     3
100
AcDbLine
 10
364.7822584728313
 20
493.6791946434639
 30
0.0
 11
364.1644174335377
 21
492.2787474935309
 31
0.0
  0
LINE
  5
122C2
330
37
100
AcDbEntity
  8
0
100
AcDbLine
 10
361.7823380163347
 20
495.6791946434639
 30
0.0
 11
361.7823380163347
 21
495.179194643464
 31
0.0
  0
LINE
  5
122C3
330
37
100
AcDbEntity
  8
0
100
AcDbLine
 10
361.7823380163347
 20
495.179194643464
 30
0.0
 11
361.7823380163347
 21
493.6791946434639
 31
0.0
  0
LINE
  5
122C5
102
{ACAD_REACTORS
330
124FF
102
}
330
37
100
AcDbEntity
  8
C
100
AcDbLine
 10
218.6823120205015
 20
498.1747005814002
 30
0.0
 11
218.6823120205015
 21
492.4851845258395
 31
0.0
  0
LINE
  5
122C6
330
37
100
AcDbEntity
  8
0
100
AcDbLine
 10
223.3823120205014
 20
502.6711897907023
 30
0.0
 11
213.9823120205015
 21
502.6708923789168
 31
0.0
  0
LINE
  5
122C7
330
37
100
AcDbEntity
  8
0
100
AcDbLine
 10
223.3823120205014
 20
497.6708819960206
 30
0.0
 11
213.9823120205015
 21
497.6708819960206
 31
0.0
  0
ARC
  5
122C8
330
37
100
AcDbEntity
  8
0
100
AcDbCircle
 10
218.6822722487497
 20
498.0476301049111
 30
0.0
 40
3.827392267995818
100
AcDbArc
 50
218.3880031282693
 51
321.6119968717307
  0
LINE
  5
122C9
330
37
100
AcDbEntity
  8
0
100
AcDbLine
 10
213.9823120205015
 20
497.6708819960206
 30
0.0
 11
219.7105598665434
 21
497.6708819960206
 31
0.0
  0
LINE
  5
122CA
330
37
100
AcDbEntity
  8
0
100
AcDbLine
 10
221.6822722487497
 20
497.6708819960206
 30
0.0
 11
221.6822722487497
 21
497.1708819960206
 31
0.0
  0
LINE
  5
122CB
330
37
100
AcDbEntity
  8
0
100
AcDbLine
 10
221.6822722487497
 20
497.1708819960206
 30
0.0
 11
215.6822722487497
 21
497.1708819960206
 31
0.0
  0
LINE
  5
122CC
330
37
100
AcDbEntity
  8
0
100
AcDbLine
 10
215.6822722487497
 20
497.1708819960206
 30
0.0
 11
215.6822722487497
 21
497.6708819960206
 31
0.0
  0
LINE
  5
122CD
330
37
100
AcDbEntity
  8
0
100
AcDbLine
 10
221.6822722487497
 20
497.1708819960206
 30
0.0
 11
221.6822722487497
 21
495.6708819960208
 31
0.0
  0
LINE
  5
122CE
330
37
100
AcDbEntity
  8
0
100
AcDbLine
 10
221.6822722487497
 20
495.6708819960208
 30
0.0
 11
215.6822722487497
 21
495.6708819960208
 31
0.0
  0
LINE
  5
122CF
330
37
100
AcDbEntity
  8
0
100
AcDbLine
 10
215.6822722487497
 20
495.6708819960208
 30
0.0
 11
215.6822722487497
 21
497.1708819960206
 31
0.0
  0
LINE
  5
122D0
330
37
100
AcDbEntity
  8
0
100
AcDbLine
 10
218.6822722487497
 20
495.6708819960208
 30
0.0
 11
218.0644312094563
 21
494.2704348460877
 31
0.0
  0
LINE
  5
122D1
330
37
100
AcDbEntity
  8
0
100
AcDbLine
 10
218.6823517922532
 20
495.6708819960208
 30
0.0
 11
219.3001928315467
 21
494.2704348460877
 31
0.0
  0
LINE
  5
122D2
330
37
100
AcDbEntity
  8
0
100
AcDbLine
 10
223.3823120205014
 20
497.6708819960206
 30
0.0
 11
223.3823120205014
 21
502.6711897907023
 31
0.0
  0
LINE
  5
122D3
330
37
100
AcDbEntity
  8
0
100
AcDbLine
 10
213.9823120205015
 20
497.6708819960206
 30
0.0
 11
213.9823120205015
 21
502.6708923789168
 31
0.0
  0
LINE
  5
122D4
102
{ACAD_REACTORS
330
124FF
102
}
330
37
100
AcDbEntity
  8
C
100
AcDbLine
 10
92.67549683565443
 20
498.1747005814002
 30
0.0
 11
92.67549683565443
 21
492.4851845258395
 31
0.0
  0
LINE
  5
122D5
330
37
100
AcDbEntity
  8
0
100
AcDbLine
 10
87.97549683565447
 20
497.6708819960206
 30
0.0
 11
97.37549683565449
 21
497.6708819960206
 31
0.0
  0
ARC
  5
122D6
330
37
100
AcDbEntity
  8
0
100
AcDbCircle
 10
92.67553660740622
 20
498.0476301049111
 30
0.0
 40
3.827392267995818
100
AcDbArc
 50
218.3880031282693
 51
321.6119968717307
  0
LINE
  5
122D7
330
37
100
AcDbEntity
  8
0
100
AcDbLine
 10
97.37549683565449
 20
497.6708819960206
 30
0.0
 11
91.64724898961244
 21
497.6708819960206
 31
0.0
  0
LINE
  5
122D8
330
37
100
AcDbEntity
  8
0
100
AcDbLine
 10
89.6755366074062
 20
497.6708819960206
 30
0.0
 11
89.6755366074062
 21
497.1708819960206
 31
0.0
  0
LINE
  5
122D9
330
37
100
AcDbEntity
  8
0
100
AcDbLine
 10
89.6755366074062
 20
497.1708819960206
 30
0.0
 11
95.67553660740623
 21
497.1708819960206
 31
0.0
  0
LINE
  5
122DA
330
37
100
AcDbEntity
  8
0
100
AcDbLine
 10
95.67553660740623
 20
497.1708819960206
 30
0.0
 11
95.67553660740623
 21
497.6708819960206
 31
0.0
  0
LINE
  5
122DB
330
37
100
AcDbEntity
  8
0
100
AcDbLine
 10
89.6755366074062
 20
497.1708819960206
 30
0.0
 11
89.6755366074062
 21
495.6708819960208
 31
0.0
  0
LINE
  5
122DC
330
37
100
AcDbEntity
  8
0
100
AcDbLine
 10
89.6755366074062
 20
495.6708819960208
 30
0.0
 11
95.67553660740623
 21
495.6708819960208
 31
0.0
  0
LINE
  5
122DD
330
37
100
AcDbEntity
  8
0
100
AcDbLine
 10
95.67553660740623
 20
495.6708819960208
 30
0.0
 11
95.67553660740623
 21
497.1708819960206
 31
0.0
  0
LINE
  5
122DE
330
37
100
AcDbEntity
  8
0
100
AcDbLine
 10
92.6755366074062
 20
495.6708819960208
 30
0.0
 11
93.2933776466997
 21
494.2704348460877
 31
0.0
  0
LINE
  5
122DF
330
37
100
AcDbEntity
  8
0
100
AcDbLine
 10
92.6754570639027
 20
495.6708819960208
 30
0.0
 11
92.05761602460924
 21
494.2704348460877
 31
0.0
  0
LINE
  5
122E0
330
37
100
AcDbEntity
  8
0
100
AcDbLine
 10
87.97549683565447
 20
497.6708819960206
 30
0.0
 11
87.97549683565447
 21
502.6042491771078
 31
0.0
  0
LINE
  5
122E1
330
37
100
AcDbEntity
  8
0
100
AcDbLine
 10
97.37549683565449
 20
497.6708819960206
 30
0.0
 11
97.37549683565449
 21
502.6042491771078
 31
0.0
  0
LINE
  5
122E2
330
37
100
AcDbEntity
  8
0
  6
PHANTOM2
 62
     3
 48
3.0
100
AcDbLine
 10
290.4669645313934
 20
648.3049563500477
 30
0.0
 11
439.4669645313932
 21
648.3049563500477
 31
0.0
  0
LINE
  5
122E3
330
37
100
AcDbEntity
  8
0
  6
PHANTOM2
 62
     3
 48
3.0
100
AcDbLine
 10
290.4669645313934
 20
583.3049563500479
 30
0.0
 11
439.4669645313932
 21
583.3049563500479
 31
0.0
  0
LINE
  5
122E4
330
37
100
AcDbEntity
  8
0
  6
PHANTOM2
 62
     3
 48
3.0
100
AcDbLine
 10
290.4669645313934
 20
583.3049563500479
 30
0.0
 11
290.4669645313934
 21
648.3049563500477
 31
0.0
  0
LINE
  5
122E5
330
37
100
AcDbEntity
  8
0
  6
PHANTOM2
 62
     3
 48
3.0
100
AcDbLine
 10
439.4669645313932
 20
583.3049563500479
 30
0.0
 11
439.4669645313932
 21
648.3049563500477
 31
0.0
  0
LINE
  5
122E6
330
37
100
AcDbEntity
  8
0
  6
CENTER
 62
     1
100
AcDbLine
 10
82.97854969341896
 20
154.27435639176
 30
0.0
 11
135.4878316255224
 21
154.27435639176
 31
0.0
  0
LINE
  5
122E7
330
37
100
AcDbEntity
  8
0
100
AcDbLine
 10
348.3862124037397
 20
75.77678840811422
 30
0.0
 11
308.2039007813826
 21
75.77678840811401
 31
0.0
  0
LINE
  5
122E8
330
37
100
AcDbEntity
  8
0
  6
CENTER
 62
     1
100
AcDbLine
 10
327.9231243749473
 20
80.30861208977077
 30
0.0
 11
327.9231243749473
 21
62.56976085914036
 31
0.0
  0
LINE
  5
122E9
102
{ACAD_REACTORS
330
12B37
102
}
330
37
100
AcDbEntity
  8
0
100
AcDbLine
 10
349.4231243749784
 20
71.77678840811423
 30
0.0
 11
306.4231243749783
 21
71.77678840811423
 31
0.0
  0
LINE
  5
122EA
330
37
100
AcDbEntity
  8
0
100
AcDbLine
 10
332.9168138877237
 20
69.82543849398331
 30
0.0
 11
326.9168138877237
 21
69.82543849398331
 31
0.0
  0
LINE
  5
122EB
330
37
100
AcDbEntity
  8
0
100
AcDbLine
 10
330.9231243749473
 20
71.77678840811423
 30
0.0
 11
330.9231243749473
 21
69.825665762103
 31
0.0
  0
LINE
  5
122EC
330
37
100
AcDbEntity
  8
0
100
AcDbLine
 10
324.9231243749473
 20
71.77678840811423
 30
0.0
 11
324.9231243749473
 21
69.82552939987741
 31
0.0
  0
LINE
  5
122ED
330
37
100
AcDbEntity
  8
0
100
AcDbLine
 10
306.4231243749783
 20
71.77678840811423
 30
0.0
 11
307.2337582812373
 21
75.01932403315047
 31
0.0
  0
ARC
  5
122EE
330
37
100
AcDbEntity
  8
0
100
AcDbCircle
 10
308.2039007813826
 20
74.77678840811403
 30
0.0
 40
1.0
100
AcDbArc
 50
90.0
 51
165.9637565320798
  0
LINE
  5
122EF
102
{ACAD_REACTORS
330
12B05
102
}
330
37
100
AcDbEntity
  8
0
100
AcDbLine
 10
349.4231243749785
 20
71.77678840811423
 30
0.0
 11
348.4852764371938
 21
75.52818015925314
 31
0.0
  0
LINE
  5
122F0
330
37
100
AcDbEntity
  8
0
100
AcDbLine
 10
89.48783162552107
 20
77.11737732338517
 30
0.0
 11
135.4878316255269
 21
77.11737732338517
 31
0.0
  0
LINE
  5
122F1
330
37
100
AcDbEntity
  8
0
100
AcDbLine
 10
99.48783162552722
 20
72.61737732338517
 30
0.0
 11
99.48783162552722
 21
77.11737732338517
 31
0.0
  0
LINE
  5
122F2
330
37
100
AcDbEntity
  8
0
100
AcDbLine
 10
93.4878316255272
 20
72.61737732338517
 30
0.0
 11
93.4878316255272
 21
77.11737732338517
 31
0.0
  0
LINE
  5
122F3
330
37
100
AcDbEntity
  8
0
100
AcDbLine
 10
93.98783162552721
 20
72.61737732338517
 30
0.0
 11
98.98783162552721
 21
72.61737732338517
 31
0.0
  0
LINE
  5
122F4
330
37
100
AcDbEntity
  8
0
100
AcDbLine
 10
89.48783162552107
 20
81.11737732338516
 30
0.0
 11
89.48783162552107
 21
77.11737732338517
 31
0.0
  0
LINE
  5
122F5
330
37
100
AcDbEntity
  8
0
100
AcDbLine
 10
89.48783162552107
 20
81.11737732338516
 30
0.0
 11
135.4878316255269
 21
81.11737732338514
 31
0.0
  0
ARC
  5
122F6
330
37
100
AcDbEntity
  8
0
 62
     3
100
AcDbCircle
 10
109.8407717753951
 20
138.8358993496901
 30
0.0
 40
22.62772132753667
100
AcDbArc
 50
88.74358393748208
 51
136.6556428027967
  0
ARC
  5
122F7
330
37
100
AcDbEntity
  8
0
100
AcDbCircle
 10
110.3387325079775
 20
82.03146704253482
 30
0.0
 40
6.08605646463512
100
AcDbArc
 50
89.60288150662607
 51
188.6381745860253
  0
ARC
  5
122F8
330
37
100
AcDbEntity
  8
0
100
AcDbCircle
 10
110.3478093500796
 20
81.09131559281513
 30
0.0
 40
6.026152665690081
100
AcDbArc
 50
89.68523681267951
 51
179.7522080992424
  0
POINT
  5
122F9
330
37
100
AcDbEntity
  8
Defpoints
  6
ByBlock
 62
     0
100
AcDbPoint
 10
97.31763496729653
 20
72.61737732338517
 30
0.0
  0
LINE
  5
122FA
330
37
100
AcDbEntity
  8
0
 62
     3
100
AcDbLine
 10
93.4878316255272
 20
72.61737732338517
 30
0.0
 11
99.48783162552722
 21
72.61737732338517
 31
0.0
  0
ARC
  5
122FD
330
37
100
AcDbEntity
  8
0
100
AcDbCircle
 10
355.3892302166953
 20
77.87622074021256
 30
0.0
 40
7.29535600321455
100
AcDbArc
 50
198.8874545030896
 51
199.0625322015344
  0
POINT
  5
122FE
330
37
100
AcDbEntity
  8
Defpoints
  6
ByBlock
 62
     0
100
AcDbPoint
 10
135.4878316255269
 20
77.11737732338517
 30
0.0
  0
POINT
  5
122FF
330
37
100
AcDbEntity
  8
Defpoints
  6
ByBlock
 62
     0
100
AcDbPoint
 10
135.487831626195
 20
128.2743563917601
 30
0.0
  0
POINT
  5
12300
330
37
100
AcDbEntity
  8
Defpoints
  6
ByBlock
 62
     0
100
AcDbPoint
 10
306.8211545352111
 20
72.97039053025351
 30
0.0
 50
270.0
  0
ARC
  5
12302
330
37
100
AcDbEntity
  8
0
100
AcDbCircle
 10
135.487831625587
 20
-824.2256436082399
 30
0.0
 40
1000.0
100
AcDbArc
 50
90.0
 51
92.31253579116268
  0
ARC
  5
12303
330
37
100
AcDbEntity
  8
0
100
AcDbCircle
 10
135.4878316255299
 20
1132.77435639176
 30
0.0
 40
1000.0
100
AcDbArc
 50
267.6874642088373
 51
270.0
  0
ARC
  5
12304
330
37
100
AcDbEntity
  8
0
100
AcDbCircle
 10
95.33917751485573
 20
169.9640191689873
 30
0.0
 40
5.0
100
AcDbArc
 50
92.31253579116268
 51
173.7881727264567
  0
ARC
  5
12305
330
37
100
AcDbEntity
  8
0
100
AcDbCircle
 10
95.33917751471205
 20
138.5846936145361
 30
0.0
 40
5.0
100
AcDbArc
 50
186.2118272730191
 51
267.6874642088243
  0
ARC
  5
12306
330
37
100
AcDbEntity
  8
0
 62
     3
100
AcDbCircle
 10
135.4878316255233
 20
-838.22564360824
 30
0.0
 40
1000.5
100
AcDbArc
 50
90.0
 51
91.44047231348237
  0
ARC
  5
12307
330
37
100
AcDbEntity
  8
0
 62
     3
100
AcDbCircle
 10
111.4704424190916
 20
183.5769593801621
 30
0.0
 40
21.64847478288928
100
AcDbArc
 50
213.3407790109815
 51
266.9986149728152
  0
ARC
  5
12308
330
37
100
AcDbEntity
  8
0
100
AcDbCircle
 10
106.8371831984184
 20
63.11737732338524
 30
0.0
 40
25.0
100
AcDbArc
 50
90.0
 51
133.94551956231
  0
LINE
  5
12309
330
37
100
AcDbEntity
  8
0
100
AcDbLine
 10
106.8331439075894
 20
88.11737732338515
 30
0.0
 11
135.4878316255265
 21
88.11737732338515
 31
0.0
  0
LINE
  5
1230A
330
37
100
AcDbEntity
  8
0
100
AcDbLine
 10
109.2514241051576
 20
87.11737732338518
 30
0.0
 11
135.4878316255265
 21
87.11737732338518
 31
0.0
  0
LINE
  5
1230B
330
37
100
AcDbEntity
  8
0
100
AcDbLine
 10
181.4878316255326
 20
81.11737732338879
 30
0.0
 11
135.4878316255267
 21
81.11737732338514
 31
0.0
  0
LINE
  5
1230C
330
37
100
AcDbEntity
  8
0
100
AcDbLine
 10
181.4878316255329
 20
77.11737732338881
 30
0.0
 11
135.4878316255269
 21
77.11737732338517
 31
0.0
  0
ARC
  5
1230D
330
37
100
AcDbEntity
  8
0
100
AcDbCircle
 10
164.1384800526364
 20
63.11737732338753
 30
0.0
 40
25.0
100
AcDbArc
 50
46.05448043769049
 51
90.0
  0
LINE
  5
1230E
330
37
100
AcDbEntity
  8
0
100
AcDbLine
 10
181.4878316255326
 20
81.11737732338879
 30
0.0
 11
181.4878316255329
 21
77.11737732338881
 31
0.0
  0
LINE
  5
1230F
330
37
100
AcDbEntity
  8
0
100
AcDbLine
 10
177.487831625527
 20
72.61737732338852
 30
0.0
 11
177.4878316255267
 21
77.1173773233885
 31
0.0
  0
LINE
  5
12311
330
37
100
AcDbEntity
  8
0
100
AcDbLine
 10
171.487831625527
 20
72.61737732338801
 30
0.0
 11
171.4878316255267
 21
77.11737732338801
 31
0.0
  0
LINE
  5
12313
330
37
100
AcDbEntity
  8
0
100
AcDbLine
 10
176.987831625527
 20
72.61737732338847
 30
0.0
 11
171.987831625527
 21
72.61737732338804
 31
0.0
  0
LINE
  5
12314
330
37
100
AcDbEntity
  8
0
 62
     3
100
AcDbLine
 10
177.487831625527
 20
72.61737732338852
 30
0.0
 11
171.487831625527
 21
72.61737732338801
 31
0.0
  0
POINT
  5
12315
330
37
100
AcDbEntity
  8
Defpoints
  6
ByBlock
 62
     0
100
AcDbPoint
 10
173.6580282837578
 20
72.61737732338819
 30
0.0
  0
LINE
  5
12316
330
37
100
AcDbEntity
  8
0
100
AcDbLine
 10
161.7242391458956
 20
87.11737732338724
 30
0.0
 11
135.4878316255265
 21
87.11737732338518
 31
0.0
  0
LINE
  5
12317
330
37
100
AcDbEntity
  8
0
100
AcDbLine
 10
164.1425193434636
 20
88.11737732338745
 30
0.0
 11
135.4878316255265
 21
88.11737732338515
 31
0.0
  0
ARC
  5
12318
330
37
100
AcDbEntity
  8
0
100
AcDbCircle
 10
160.6369307431394
 20
82.03146704253672
 30
0.0
 40
6.08605646463512
100
AcDbArc
 50
351.3618254139796
 51
90.39711849338692
  0
ARC
  5
12319
330
37
100
AcDbEntity
  8
0
100
AcDbCircle
 10
160.6278539010375
 20
81.09131559281705
 30
0.0
 40
6.026152665690081
100
AcDbArc
 50
0.2477919007624628
 51
90.31476318732048
  0
ARC
  5
1231A
330
37
100
AcDbEntity
  8
0
100
AcDbCircle
 10
321.7032853710283
 20
91.09290347469237
 30
0.0
 40
15.31770030432633
100
AcDbArc
 50
270.8243123267739
 51
326.1172993755241
  0
ARC
  5
1231B
102
{ACAD_REACTORS
330
12B05
102
}
330
37
100
AcDbEntity
  8
0
100
AcDbCircle
 10
326.0567616510492
 20
48.91258519641031
 30
0.0
 40
35.0
100
AcDbArc
 50
50.86656248157367
 51
75.25729646717997
  0
ARC
  5
1231C
330
37
100
AcDbEntity
  8
0
100
AcDbCircle
 10
334.8362800916086
 20
82.27678840811423
 30
0.0
 40
0.5
100
AcDbArc
 50
75.25729646717661
 51
146.4156864619923
  0
POINT
  5
1231E
330
37
100
AcDbEntity
  8
Defpoints
  6
ByBlock
 62
     0
100
AcDbPoint
 10
135.4878316255265
 20
88.11737732338515
 30
0.0
  0
POINT
  5
1231F
330
37
100
AcDbEntity
  8
Defpoints
  6
ByBlock
 62
     0
100
AcDbPoint
 10
135.4878316255269
 20
77.11737732338517
 30
0.0
  0
POINT
  5
12320
330
37
100
AcDbEntity
  8
Defpoints
  6
ByBlock
 62
     0
100
AcDbPoint
 10
96.48783162552721
 20
72.61737732338517
 30
0.0
  0
POINT
  5
12321
330
37
100
AcDbEntity
  8
Defpoints
  6
ByBlock
 62
     0
100
AcDbPoint
 10
174.487831625527
 20
72.61737732338827
 30
0.0
  0
ARC
  5
12322
330
37
100
AcDbEntity
  8
0
100
AcDbCircle
 10
135.4878316255458
 20
-838.7256436082401
 30
0.0
 40
1000.5
100
AcDbArc
 50
90.0
 51
91.46928358150507
  0
ARC
  5
12325
102
{ACAD_REACTORS
330
1293F
102
}
330
37
100
AcDbEntity
  8
0
100
AcDbCircle
 10
239.487831625521
 20
154.2743563911018
 30
0.0
 40
150.0
100
AcDbArc
 50
173.7881727264577
 51
186.2118272730199
  0
ARC
  5
12326
102
{ACAD_REACTORS
330
1296F
102
}
330
37
100
AcDbEntity
  8
0
100
AcDbCircle
 10
135.4878316255349
 20
1141.27435639176
 30
0.0
 40
1000.5
100
AcDbArc
 50
268.5307164184954
 51
270.0
  0
ARC
  5
12328
330
37
100
AcDbEntity
  8
0
100
AcDbCircle
 10
135.487831628215
 20
1141.27435639176
 30
0.0
 40
1000.5
100
AcDbArc
 50
269.9999999998437
 51
271.4692835810486
  0
ARC
  5
12329
102
{ACAD_REACTORS
330
12957
102
}
330
37
100
AcDbEntity
  8
0
100
AcDbCircle
 10
135.4878316281972
 20
1132.77435639176
 30
0.0
 40
1000.0
100
AcDbArc
 50
269.9999999998437
 51
272.3125357910193
  0
ARC
  5
1232A
330
37
100
AcDbEntity
  8
0
100
AcDbCircle
 10
135.4878316229194
 20
-824.2256436082399
 30
0.0
 40
1000.0
100
AcDbArc
 50
87.68746420868081
 51
89.99999999984366
  0
ARC
  5
1232B
102
{ACAD_REACTORS
330
1296F
102
}
330
37
100
AcDbEntity
  8
0
100
AcDbCircle
 10
135.4878316229222
 20
-838.7256436082401
 30
0.0
 40
1000.5
100
AcDbArc
 50
88.53071641864636
 51
89.99999999984366
  0
ARC
  5
1232C
330
37
100
AcDbEntity
  8
0
 62
     3
100
AcDbCircle
 10
135.4878316229458
 20
-838.22564360824
 30
0.0
 40
1000.5
100
AcDbArc
 50
88.55952768636127
 51
89.99999999984366
  0
LINE
  5
1232D
330
37
100
AcDbEntity
  8
0
  6
CENTER
 62
     1
100
AcDbLine
 10
187.997113557698
 20
154.2743563916199
 30
0.0
 11
135.4878316255947
 21
154.27435639176
 31
0.0
  0
ARC
  5
1232F
102
{ACAD_REACTORS
330
1293F
102
}
330
37
100
AcDbEntity
  8
0
100
AcDbCircle
 10
31.48783162559591
 20
154.2743563913793
 30
0.0
 40
150.0
100
AcDbArc
 50
353.7881727268285
 51
6.211827273391797
  0
ARC
  5
12330
330
37
100
AcDbEntity
  8
0
100
AcDbCircle
 10
175.6364857363631
 20
138.584693614429
 30
0.0
 40
5.0
100
AcDbArc
 50
272.3125357910193
 51
353.7881727268285
  0
ARC
  5
12332
330
37
100
AcDbEntity
  8
0
 62
     3
100
AcDbCircle
 10
161.1348914756807
 20
138.8358993496217
 30
0.0
 40
22.62772132753667
100
AcDbArc
 50
43.34435719705123
 51
91.25641606236156
  0
ARC
  5
12333
330
37
100
AcDbEntity
  8
0
 62
     3
100
AcDbCircle
 10
159.5052208321035
 20
183.576959380098
 30
0.0
 40
21.64847478288928
100
AcDbArc
 50
273.0013850270283
 51
326.6592209888577
  0
ARC
  5
12334
330
37
100
AcDbEntity
  8
0
100
AcDbCircle
 10
175.6364857363029
 20
169.9640191688802
 30
0.0
 40
5.0
100
AcDbArc
 50
6.211827273391797
 51
87.68746420868081
  0
LINE
  5
12336
102
{ACAD_REACTORS
330
1296F
102
}
330
37
100
AcDbEntity
  8
0
  6
CENTER
 62
     1
100
AcDbLine
 10
135.4878316229197
 20
184.8802942796655
 30
0.0
 11
135.4878316229197
 21
118.2551955599191
 31
0.0
  0
LINE
  5
12337
330
37
100
AcDbEntity
  8
0
  6
CENTER
 62
     1
100
AcDbLine
 10
135.4878316229197
 20
91.4594511821509
 30
0.0
 11
135.4878316229197
 21
63.85084586825027
 31
0.0
  0
POINT
  5
12338
330
37
100
AcDbEntity
  8
Defpoints
  6
ByBlock
 62
     0
100
AcDbPoint
 10
168.1539502109552
 20
154.2743563916769
 30
0.0
  0
POINT
  5
12339
330
37
100
AcDbEntity
  8
Defpoints
  6
ByBlock
 62
     0
100
AcDbPoint
 10
166.6539502109551
 20
154.2743563916769
 30
0.0
  0
CIRCLE
  5
1233A
330
37
100
AcDbEntity
  8
0
 62
     1
100
AcDbCircle
 10
135.4878316255265
 20
88.11737732338515
 30
0.0
 40
0.5
  0
CIRCLE
  5
1233B
330
37
100
AcDbEntity
  8
0
 62
     1
100
AcDbCircle
 10
135.4878316255269
 20
77.11737732338517
 30
0.0
 40
0.5
  0
LINE
  5
1233C
330
37
100
AcDbEntity
  8
0
100
AcDbLine
 10
327.9231243749763
 20
62.77678840811424
 30
0.0
 11
327.9447663563747
 21
62.77678840811424
 31
0.0
  0
LINE
  5
1233D
330
37
100
AcDbEntity
  8
0
100
AcDbLine
 10
342.4231243751133
 20
71.77678840811418
 30
0.0
 11
342.4231243751134
 21
64.27678840811421
 31
0.0
  0
LINE
  5
1233E
330
37
100
AcDbEntity
  8
0
100
AcDbLine
 10
327.9231243749763
 20
71.77678840811423
 30
0.0
 11
335.4231243749763
 21
71.77678840811423
 31
0.0
  0
LINE
  5
12340
330
37
100
AcDbEntity
  8
0
100
AcDbLine
 10
342.9231243751134
 20
71.77678840811423
 30
0.0
 11
346.9231243749765
 21
71.77678840811423
 31
0.0
  0
LINE
  5
12341
330
37
100
AcDbEntity
  8
0
100
AcDbLine
 10
327.9231243749763
 20
62.77678840811424
 30
0.0
 11
327.9017604952069
 21
62.77678840811424
 31
0.0
  0
LINE
  5
12342
330
37
100
AcDbEntity
  8
0
100
AcDbLine
 10
313.4231243748394
 20
71.77678840811423
 30
0.0
 11
313.4231243748394
 21
64.27678840811424
 31
0.0
  0
LINE
  5
12344
330
37
100
AcDbEntity
  8
0
100
AcDbLine
 10
312.9231243748393
 20
71.77678840811423
 30
0.0
 11
308.9231243749761
 21
71.77678840811423
 31
0.0
  0
LINE
  5
12345
330
37
100
AcDbEntity
  8
0
  6
CENTER
 62
     1
100
AcDbLine
 10
327.9231243749763
 20
59.09444201229925
 30
0.0
 11
327.9231243749334
 21
77.85093939859078
 31
0.0
  0
LINE
  5
12346
102
{ACAD_REACTORS
330
12A34
102
}
330
37
100
AcDbEntity
  8
0
100
AcDbLine
 10
168.4878316229197
 20
77.11737732338524
 30
0.0
 11
168.4878316229197
 21
70.11737732338517
 31
0.0
  0
LINE
  5
12347
330
37
100
AcDbEntity
  8
0
100
AcDbLine
 10
167.4878316229197
 20
69.11737732338517
 30
0.0
 11
135.4878316229197
 21
69.11737732338517
 31
0.0
  0
LINE
  5
12348
330
37
100
AcDbEntity
  8
0
100
AcDbLine
 10
147.9878316216062
 20
77.11737732338517
 30
0.0
 11
135.4878316229197
 21
77.11737732338517
 31
0.0
  0
LINE
  5
12349
102
{ACAD_REACTORS
330
12A34
102
}
330
37
100
AcDbEntity
  8
0
100
AcDbLine
 10
102.4878316229197
 20
77.11737732338524
 30
0.0
 11
102.4878316229196
 21
70.11737732338518
 31
0.0
  0
LINE
  5
1234A
330
37
100
AcDbEntity
  8
0
100
AcDbLine
 10
103.4878316229196
 20
69.11737732338517
 30
0.0
 11
135.4878316229197
 21
69.11737732338517
 31
0.0
  0
LINE
  5
1234D
102
{ACAD_REACTORS
330
12A17
102
}
330
37
100
AcDbEntity
  8
0
  6
CENTER
 62
     1
100
AcDbLine
 10
174.487831625527
 20
74.77890935889707
 30
0.0
 11
174.487831625527
 21
66.45584528787947
 31
0.0
  0
LINE
  5
1234E
102
{ACAD_REACTORS
330
12A17
102
}
330
37
100
AcDbEntity
  8
0
  6
CENTER
 62
     1
100
AcDbLine
 10
96.48775208202373
 20
74.77890935889397
 30
0.0
 11
96.48775208202373
 21
66.45584528787637
 31
0.0
  0
DIMENSION
  5
123D4
102
{ACAD_XDICTIONARY
360
123E1
102
}
102
{ACAD_REACTORS
330
123EB
102
}
330
37
100
AcDbEntity
  8
0
100
AcDbDimension
  2
*D1
 10
226.6789044280803
 20
650.1417053465668
 30
0.0
 11
155.6789044280803
 21
652.5167053465668
 31
0.0
 70
    32
  1
<>
 71
     5
 42
142.0
  3
ISO-25_WS
100
AcDbAlignedDimension
 13
84.67890442808025
 23
591.499238924001
 33
0.0
 14
226.6789044280803
 24
591.4992389231533
 34
0.0
100
AcDbRotatedDimension
1001
ACAD
1000
DSTYLE
1002
{
1070
    40
1040
1.0
1002
}
  0
DIMENSION
  5
12400
330
37
100
AcDbEntity
  8
0
100
AcDbDimension
  2
*D2
 10
210.6789044280759
 20
541.0506812347343
 30
0.0
 11
155.6789044280736
 21
543.4256812347345
 31
0.0
 70
    32
 71
     5
 42
110.0000000000042
  3
ISO-25_WS
100
AcDbAlignedDimension
 13
100.6789044280715
 23
574.9992389239902
 33
0.0
 14
210.6789044280759
 24
574.9992389239742
 34
0.0
100
AcDbRotatedDimension
1001
ACAD
1000
DSTYLE
1002
{
1070
    40
1040
1.0
1002
}
  0
DIMENSION
  5
1243D
102
{ACAD_XDICTIONARY
360
1244A
102
}
102
{ACAD_REACTORS
330
12454
102
}
330
37
100
AcDbEntity
  8
0
100
AcDbDimension
  2
*D3
 10
246.6027881896758
 20
569.2674917183381
 30
0.0
 11
244.2277881896757
 21
586.2583653211648
 31
0.0
 70
    32
 71
     5
 42
33.9817472056535
  3
ISO-25_WS
100
AcDbAlignedDimension
 13
155.6789044280744
 23
603.2492389239916
 33
0.0
 14
155.6789044280776
 24
569.2674917183381
 34
0.0
 50
90.0
100
AcDbRotatedDimension
1001
ACAD
1000
DSTYLE
1002
{
1070
    40
1040
1.0
1002
}
  0
DIMENSION
  5
12455
102
{ACAD_XDICTIONARY
360
12462
102
}
102
{ACAD_REACTORS
330
1246C
102
}
330
37
100
AcDbEntity
  8
0
100
AcDbDimension
  2
*D4
 10
262.8589717154434
 20
558.9992389316822
 30
0.0
 11
260.4839717154434
 21
591.499238927406
 31
0.0
 70
    32
 71
     5
 42
64.99999999144733
  3
ISO-25_WS
100
AcDbAlignedDimension
 13
155.6789044280771
 23
623.9992389231296
 33
0.0
 14
155.6790904074528
 24
558.9992389316823
 34
0.0
 50
90.0
100
AcDbRotatedDimension
1001
ACAD
1000
DSTYLE
1002
{
1070
    40
1040
1.0
1002
}
  0
DIMENSION
  5
124D0
330
37
100
AcDbEntity
  8
0
100
AcDbDimension
  2
*D5
 10
213.1789044280778
 20
482.8655668523953
 30
0.0
 11
155.6789044280777
 21
485.2405668523953
 31
0.0
 70
    32
 71
     5
 42
115.0000000000001
  3
ISO-25_WS
100
AcDbAlignedDimension
 13
98.17890442807772
 23
494.6499388918084
 33
0.0
 14
213.1789044280778
 24
494.45774702628
 34
0.0
100
AcDbRotatedDimension
1001
ACAD
1000
DSTYLE
1002
{
1070
    40
1040
1.0
1002
}
  0
DIMENSION
  5
124E8
102
{ACAD_XDICTIONARY
360
124F5
102
}
102
{ACAD_REACTORS
330
124FF
102
}
330
37
100
AcDbEntity
  8
0
100
AcDbDimension
  2
*D6
 10
218.6823120205015
 20
470.9529531225247
 30
0.0
 11
155.6789044280779
 21
473.3279531225247
 31
0.0
 70
    32
 71
     5
 42
126.006815184847
  3
ISO-25_WS
100
AcDbAlignedDimension
 13
92.67549683565443
 23
492.4851845258395
 33
0.0
 14
218.6823120205015
 24
492.4851845258395
 34
0.0
100
AcDbRotatedDimension
1001
ACAD
1000
DSTYLE
1002
{
1070
    40
1040
1.0
1002
}
  0
LEADER
  5
12501
330
37
100
AcDbEntity
  8
0
100
AcDbLeader
  3
ISO-25_WS
 76
     3
 10
218.603539697439
 20
494.2210477186978
 30
0.0
 10
228.1753107860018
 20
485.2858319625516
 30
0.0
 10
240.0905216790222
 20
485.2858319625516
 30
0.0
1001
ACAD
1000
DSTYLE
1002
{
1070
    40
1040
1.0
1070
    77
1070
     0
1002
}
  0
MTEXT
  5
12502
330
37
100
AcDbEntity
  8
0
100
AcDbMText
 10
229.3668324065943
 20
488.9286556171158
 30
0.0
 40
3.149999999999999
 41
8.761183698852391
 71
     1
 72
     5
  1
{\C2;2-M4}
 73
     1
 44
1.0
1001
ACAD
1000
MTEXTBEGIN
1070
    73
1070
     1
1070
    44
1040
1.0
1070
    74
1070
     0
1000
MTEXTEND
  0
LEADER
  5
12503
330
37
100
AcDbEntity
  8
0
100
AcDbLeader
  3
ISO-25_WS
 76
     3
 10
307.6735160125999
 20
640.3765127417176
 30
0.0
 10
286.1802753582388
 20
674.4145482089728
 30
0.0
 10
300.3894568722771
 20
674.4145482089728
 30
0.0
1001
ACAD
1000
DSTYLE
1002
{
1070
    40
1040
1.0
1070
    77
1070
     0
1002
}
  0
MTEXT
  5
12504
330
37
100
AcDbEntity
  8
0
100
AcDbMText
 10
291.4483233164226
 20
679.5014841158969
 30
0.0
 40
3.149999999999999
 41
8.761183698852391
 71
     1
 72
     5
  1
{\C2;R3}
 73
     1
 44
1.0
1001
ACAD
1000
MTEXTBEGIN
1070
    73
1070
     1
1070
    44
1040
1.0
1070
    74
1070
     0
1000
MTEXTEND
  0
DIMENSION
  5
12506
330
37
100
AcDbEntity
  8
0
100
AcDbDimension
  2
*D7
 10
422.9672578799899
 20
568.1759827090904
 30
0.0
 11
364.9669497222531
 21
570.5509827090905
 31
0.0
 70
    32
 71
     5
 42
116.0006163154736
  3
ISO-25_WS
100
AcDbAlignedDimension
 13
306.9666415645163
 23
599.66504385687
 33
0.0
 14
422.9672578799899
 24
601.1781929295846
 34
0.0
100
AcDbRotatedDimension
1001
ACAD
1000
DSTYLE
1002
{
1070
    40
1040
1.0
1002
}
  0
LINE
  5
12527
102
{ACAD_REACTORS
330
12540
102
}
330
37
100
AcDbEntity
  8
0
  6
CENTER2
 62
     1
100
AcDbLine
 10
301.9669645318477
 20
610.6648881288718
 30
0.0
 11
301.9669645318477
 21
621.0435695561492
 31
0.0
  0
LINE
  5
12528
102
{ACAD_REACTORS
330
12540
102
}
330
37
100
AcDbEntity
  8
0
  6
CENTER2
 62
     1
100
AcDbLine
 10
427.9669645309389
 20
610.6648881288762
 30
0.0
 11
427.9669645309389
 21
621.6648881288762
 31
0.0
  0
DIMENSION
  5
12529
102
{ACAD_XDICTIONARY
360
12536
102
}
102
{ACAD_REACTORS
330
12540
102
}
330
37
100
AcDbEntity
  8
0
100
AcDbDimension
  2
*D8
 10
427.9669645309389
 20
555.5772621421083
 30
0.0
 11
364.9669645313933
 21
557.9522621421083
 31
0.0
 70
    32
 71
     5
 42
125.9999999990912
  3
ISO-25_WS
100
AcDbAlignedDimension
 13
301.9669645318477
 23
610.6648881288718
 33
0.0
 14
427.9669645309389
 24
610.6648881288718
 34
0.0
100
AcDbRotatedDimension
1001
ACAD
1000
DSTYLE
1002
{
1070
    40
1040
1.0
1002
}
  0
DIMENSION
  5
12542
102
{ACAD_XDICTIONARY
360
12551
102
}
102
{ACAD_REACTORS
330
1255D
102
}
330
37
100
AcDbEntity
  8
0
100
AcDbDimension
  2
*D9
 10
454.9835112560812
 20
612.6648881288762
 30
0.0
 11
452.6085112560807
 21
616.1648881288762
 31
0.0
 70
    32
 71
     5
 42
7.0
  3
ISO-25_WS
100
AcDbAlignedDimension
 13
427.966964530939
 23
619.6648881288762
 33
0.0
 14
427.966964530939
 24
612.6648881288762
 34
0.0
 50
90.0
100
AcDbRotatedDimension
1001
ACAD
1000
DSTYLE
1002
{
1070
    40
1040
1.0
1002
}
  0
DIMENSION
  5
1255E
330
37
100
AcDbEntity
  8
0
100
AcDbDimension
  2
*D10
 10
468.6937047500333
 20
591.1648872653946
 30
0.0
 11
466.3187047500333
 21
616.1648881288764
 31
0.0
 70
    32
 71
     5
 42
50.00000172696354
  3
ISO-25_WS
100
AcDbAlignedDimension
 13
414.7172874998038
 23
641.1648889923581
 33
0.0
 14
414.7172874998038
 24
591.1648872653946
 34
0.0
 50
90.0
100
AcDbRotatedDimension
1001
ACAD
1000
DSTYLE
1002
{
1070
    40
1040
1.0
1002
}
  0
DIMENSION
  5
12576
102
{ACAD_XDICTIONARY
360
12583
102
}
102
{ACAD_REACTORS
330
1258D
102
}
330
37
100
AcDbEntity
  8
0
100
AcDbDimension
  2
*D11
 10
389.2823380163349
 20
480.901896608732
 30
0.0
 11
364.7823380163348
 21
483.276896608732
 31
0.0
 70
    32
 71
     5
 42
49.00000000000011
  3
ISO-25_WS
100
AcDbAlignedDimension
 13
340.2823380163348
 23
494.5929830515215
 33
0.0
 14
389.2823380163349
 24
494.1793537327273
 34
0.0
100
AcDbRotatedDimension
1001
ACAD
1000
DSTYLE
1002
{
1070
    40
1040
1.0
1002
}
  0
DIMENSION
  5
1258E
102
{ACAD_XDICTIONARY
360
1259B
102
}
102
{ACAD_REACTORS
330
125A5
102
}
330
37
100
AcDbEntity
  8
0
100
AcDbDimension
  2
*D12
 10
411.4559801192057
 20
502.6793537327272
 30
0.0
 11
409.0809801192055
 21
508.9142360408811
 31
0.0
 70
    32
 71
     5
 42
12.46976461630709
  3
ISO-25_WS
100
AcDbAlignedDimension
 13
376.9879319376989
 23
515.1491183490345
 33
0.0
 14
397.7823380163659
 24
502.6793537327272
 34
0.0
 50
90.0
100
AcDbRotatedDimension
1001
ACAD
1000
DSTYLE
1002
{
1070
    40
1040
1.0
1002
}
  0
DIMENSION
  5
125B0
330
37
100
AcDbEntity
  8
0
100
AcDbDimension
  2
*D13
 10
411.4559801192057
 20
502.6793537327272
 30
0.0
 11
411.4559801192056
 21
478.920326949847
 31
0.0
 70
   160
 71
     5
 42
9.499999999999829
  3
ISO-25_WS
100
AcDbAlignedDimension
 13
385.3971192385398
 23
493.1793537327273
 33
0.0
 14
397.7823380163659
 24
502.6793537327272
 34
0.0
 50
90.0
100
AcDbRotatedDimension
1001
ACAD
1000
DSTYLE
1002
{
1070
    40
1040
1.0
1002
}
  0
ARC
  5
125C8
330
37
100
AcDbEntity
  8
0
100
AcDbCircle
 10
395.7185999405808
 20
505.8803086837401
 30
0.0
 40
1.0
100
AcDbArc
 50
17.5885171818477
 51
48.65699128226971
  0
ARC
  5
125C9
330
37
100
AcDbEntity
  8
0
 62
     7
100
AcDbCircle
 10
376.9879319376989
 20
514.1491183490345
 30
0.0
 40
1.0
100
AcDbArc
 50
83.70408679183382
 51
151.8777028426524
  0
LINE
  5
125D4
330
37
100
AcDbEntity
  8
0
100
AcDbLine
 10
357.7824239421032
 20
457.8341157489496
 30
0.0
 11
371.7823380163347
 21
457.8341157489496
 31
0.0
  0
LINE
  5
125D5
330
37
100
AcDbEntity
  8
0
100
AcDbLine
 10
357.7825365745141
 20
462.8344339229636
 30
0.0
 11
371.7823380163345
 21
462.8341157489496
 31
0.0
  0
LINE
  5
125D6
330
37
100
AcDbEntity
  8
0
100
AcDbLine
 10
357.7824239421032
 20
457.8341157489496
 30
0.0
 11
357.7825365745141
 21
462.8344339229636
 31
0.0
  0
LINE
  5
125D7
330
37
100
AcDbEntity
  8
0
100
AcDbLine
 10
371.7823380163345
 20
462.8341157489496
 30
0.0
 11
371.7823380163347
 21
457.8341157489496
 31
0.0
  0
LINE
  5
125D8
330
37
100
AcDbEntity
  8
0
  6
CENTER
 62
     1
100
AcDbLine
 10
364.7824372954243
 20
463.8342748359566
 30
0.0
 11
364.7824372954243
 21
456.8341157489498
 31
0.0
  0
LINE
  5
125D9
330
37
100
AcDbEntity
  8
0
  6
CENTER
 62
     1
100
AcDbLine
 10
364.7823380163347
 20
460.7815108756697
 30
0.0
 11
364.7823380163349
 21
457.8341157489496
 31
0.0
  0
LINE
  5
125DA
330
37
100
AcDbEntity
  8
0
100
AcDbLine
 10
361.7823380163347
 20
442.0123402396574
 30
0.0
 11
367.7823380163347
 21
442.0123402396574
 31
0.0
  0
ARC
  5
125DB
330
37
100
AcDbEntity
  8
0
100
AcDbCircle
 10
364.7823380163349
 20
444.3890883485479
 30
0.0
 40
3.827392267995818
100
AcDbArc
 50
218.3880031282693
 51
321.6119968717307
  0
LINE
  5
125DC
330
37
100
AcDbEntity
  8
0
 62
     3
100
AcDbLine
 10
364.7823380163347
 20
442.0123402396574
 30
0.0
 11
365.4001790556281
 21
440.6118930897243
 31
0.0
  0
LINE
  5
125DD
330
37
100
AcDbEntity
  8
0
100
AcDbLine
 10
361.7823380163347
 20
443.5123402396571
 30
0.0
 11
367.7823380163347
 21
443.5123402396571
 31
0.0
  0
LINE
  5
125DE
330
37
100
AcDbEntity
  8
0
100
AcDbLine
 10
367.7823380163347
 20
444.0123402396571
 30
0.0
 11
361.7823380163347
 21
444.0123402396571
 31
0.0
  0
LINE
  5
125DF
330
37
100
AcDbEntity
  8
0
100
AcDbLine
 10
367.7823380163347
 20
443.5123402396571
 30
0.0
 11
367.7823380163347
 21
444.0123402396571
 31
0.0
  0
LINE
  5
125E0
330
37
100
AcDbEntity
  8
0
100
AcDbLine
 10
367.7823380163347
 20
442.0123402396574
 30
0.0
 11
367.7823380163347
 21
443.5123402396571
 31
0.0
  0
LINE
  5
125E1
330
37
100
AcDbEntity
  8
0
 62
     3
100
AcDbLine
 10
364.7822584728313
 20
442.0123402396574
 30
0.0
 11
364.1644174335377
 21
440.6118930897243
 31
0.0
  0
LINE
  5
125E2
330
37
100
AcDbEntity
  8
0
100
AcDbLine
 10
361.7823380163347
 20
444.0123402396571
 30
0.0
 11
361.7823380163347
 21
443.5123402396571
 31
0.0
  0
LINE
  5
125E3
330
37
100
AcDbEntity
  8
0
100
AcDbLine
 10
361.7823380163347
 20
443.5123402396571
 30
0.0
 11
361.7823380163347
 21
442.0123402396574
 31
0.0
  0
LINE
  5
125E4
330
37
100
AcDbEntity
  8
0
  6
CENTER
 62
     1
100
AcDbLine
 10
364.7823380163347
 20
452.6472101273149
 30
0.0
 11
364.7823380163347
 21
438.1999532590771
 31
0.0
  0
LINE
  5
125E7
330
37
100
AcDbEntity
  8
0
100
AcDbLine
 10
366.7823380163347
 20
451.0168421116114
 30
0.0
 11
366.7823380163347
 21
444.0123402396571
 31
0.0
  0
LINE
  5
125E8
330
37
100
AcDbEntity
  8
0
100
AcDbLine
 10
362.7823380163349
 20
451.0168421116114
 30
0.0
 11
362.7823380163349
 21
444.0123402396571
 31
0.0
  0
LINE
  5
125EB
330
37
100
AcDbEntity
  8
0
 62
     3
100
AcDbLine
 10
366.7823380163347
 20
444.5123402396573
 30
0.0
 11
362.7823380163349
 21
444.5123402396573
 31
0.0
  0
LINE
  5
125EC
330
37
100
AcDbEntity
  8
0
100
AcDbLine
 10
366.7823380163347
 20
451.0168421116114
 30
0.0
 11
362.7823380163347
 21
451.0168421116114
 31
0.0
  0
MTEXT
  5
125EE
330
37
100
AcDbEntity
  8
0
100
AcDbMText
 10
239.0654197178401
 20
446.9713175542704
 30
0.0
 40
7.0
 41
101.0063235107118
 71
     1
 72
     5
  1
{\C2;KA-75-1}
  7
RR
 73
     1
 44
1.0
1001
ACAD
1000
MTEXTBEGIN
1070
    73
1070
     1
1070
    44
1040
1.0
1070
    74
1070
     0
1000
MTEXTEND
  0
LINE
  5
125EF
330
37
100
AcDbEntity
  8
0
 62
     3
100
AcDbLine
 10
237.6521728696967
 20
436.2357480128613
 30
0.0
 11
273.4787441116552
 21
436.2357480128613
 31
0.0
  0
LINE
  5
125F0
330
37
100
AcDbEntity
  8
0
 62
     3
100
AcDbLine
 10
237.6521728696967
 20
435.2357480128613
 30
0.0
 11
273.4787441116552
 21
435.2357480128613
 31
0.0
  0
MTEXT
  5
125F1
330
37
100
AcDbEntity
  8
0
100
AcDbMText
 10
325.775589462716
 20
542.306509851139
 30
0.0
 40
4.8125
 41
112.1248333333333
 71
     1
 72
     5
  1
{\C2;PANEL DRILLING DIMENSIONS.}
  7
RR
 73
     1
 44
1.0
1001
ACAD
1000
MTEXTBEGIN
1070
    73
1070
     1
1070
    44
1040
1.0
1070
    74
1070
     0
1000
MTEXTEND
  0
LINE
  5
125F2
330
37
100
AcDbEntity
  8
0
 62
     3
100
AcDbLine
 10
325.4222709964194
 20
535.0489161036419
 30
0.0
 11
407.7667731548936
 21
535.0489161036419
 31
0.0
  0
LINE
  5
125F3
330
37
100
AcDbEntity
  8
0
 62
     3
100
AcDbLine
 10
325.4222709964194
 20
533.9715010724392
 30
0.0
 11
407.7667731548936
 21
533.9715010724392
 31
0.0
  0
DIMENSION
  5
125F4
102
{ACAD_XDICTIONARY
360
12601
102
}
102
{ACAD_REACTORS
330
1260B
102
}
330
37
100
AcDbEntity
  8
0
100
AcDbDimension
  2
*D14
 10
195.4748447608919
 20
413.664318265613
 30
0.0
 11
139.4756780965584
 21
416.0393182656131
 31
0.0
 70
    32
 71
     5
 42
111.9983333286667
  3
ISO-25_WS
100
AcDbAlignedDimension
 13
83.47651143222519
 23
368.278265320693
 33
0.0
 14
195.4748447608919
 24
368.2782653204868
 34
0.0
100
AcDbRotatedDimension
1001
ACAD
1000
DSTYLE
1002
{
1070
    40
1040
1.0
1002
}
  0
ARC
  5
12631
330
37
100
AcDbEntity
  8
0
 62
     7
100
AcDbCircle
 10
155.8690171700852
 20
1769.267476658815
 30
0.0
 40
1200.0
100
AcDbArc
 50
267.6388746093329
 51
272.3428643489751
  0
LINE
  5
12636
102
{ACAD_REACTORS
330
1265D
102
}
330
37
100
AcDbEntity
  8
0
100
AcDbLine
 10
181.4748447625235
 20
371.2357465599305
 30
0.0
 11
181.4748447625562
 21
359.3207840813057
 31
0.0
  0
LINE
  5
12637
102
{ACAD_REACTORS
330
1265D
102
}
330
37
100
AcDbEntity
  8
0
100
AcDbLine
 10
97.47484476252356
 20
371.2357465598988
 30
0.0
 11
97.47484476255634
 21
359.3207840809697
 31
0.0
  0
ARC
  5
1263C
102
{ACAD_REACTORS
330
12675
102
}
330
37
100
AcDbEntity
  8
0
100
AcDbCircle
 10
139.4748447575259
 20
1553.478265320526
 30
0.0
 40
1200.7
100
AcDbArc
 50
268.2732398608627
 51
271.72676013962
  0
DIMENSION
  5
12646
102
{ACAD_XDICTIONARY
360
12653
102
}
102
{ACAD_REACTORS
330
1265D
102
}
330
37
100
AcDbEntity
  8
0
100
AcDbDimension
  2
*D15
 10
181.4748447625562
 20
331.1501324701306
 30
0.0
 11
139.4748447625562
 21
333.5251324701307
 31
0.0
 70
    32
 71
     5
 42
83.99999999999989
  3
ISO-25_WS
100
AcDbAlignedDimension
 13
97.47484476255628
 23
359.3359622425359
 33
0.0
 14
181.4748447625562
 24
359.3359622427663
 34
0.0
100
AcDbRotatedDimension
1001
ACAD
1000
DSTYLE
1002
{
1070
    40
1040
1.0
1002
}
  0
DIMENSION
  5
1265E
102
{ACAD_XDICTIONARY
360
1266B
102
}
102
{ACAD_REACTORS
330
12675
102
}
330
37
100
AcDbEntity
  8
0
100
AcDbDimension
  2
*D16
 10
216.1522780317278
 20
352.7782653205262
 30
0.0
 11
213.7772780317277
 21
365.2782653205262
 31
0.0
 70
    32
 71
     5
 42
25.0
  3
ISO-25_WS
100
AcDbAlignedDimension
 13
139.4748447625239
 23
377.7782653205262
 33
0.0
 14
139.4748447626299
 24
352.7782653205262
 34
0.0
 50
90.0
100
AcDbRotatedDimension
1001
ACAD
1000
DSTYLE
1002
{
1070
    40
1040
1.0
1002
}
  0
DIMENSION
  5
12676
102
{ACAD_XDICTIONARY
360
12683
102
}
102
{ACAD_REACTORS
330
1268D
102
}
330
37
100
AcDbEntity
  8
0
100
AcDbDimension
  2
*D17
 10
231.9686221066981
 20
342.2782653205252
 30
0.0
 11
229.5936221066981
 21
368.2782653205256
 31
0.0
 70
    32
 71
     5
 42
52.00000000000073
  3
ISO-25_WS
100
AcDbAlignedDimension
 13
139.4748447609058
 23
394.2782653205259
 33
0.0
 14
139.4748447617173
 24
342.2782653205252
 34
0.0
 50
90.0
100
AcDbRotatedDimension
1001
ACAD
1000
DSTYLE
1002
{
1070
    40
1040
1.0
1002
}
  0
LINE
  5
1268F
102
{ACAD_REACTORS
330
126AA
102
}
330
37
100
AcDbEntity
  8
0
100
AcDbLine
 10
183.4808967332934
 20
280.1212862521512
 30
0.0
 11
183.4808967332934
 21
291.1212862521512
 31
0.0
  0
LINE
  5
12690
102
{ACAD_REACTORS
330
126AA
102
}
330
37
100
AcDbEntity
  8
0
100
AcDbLine
 10
95.48089673329346
 20
280.1212862521512
 30
0.0
 11
95.48089673329343
 21
291.1212862521512
 31
0.0
  0
ARC
  5
12691
330
37
100
AcDbEntity
  8
0
100
AcDbCircle
 10
96.48089673329346
 20
280.1212862521512
 30
0.0
 40
1.0
100
AcDbArc
 50
180.0
 51
270.0
  0
ARC
  5
12692
330
37
100
AcDbEntity
  8
0
100
AcDbCircle
 10
182.4808967332934
 20
280.1212862521512
 30
0.0
 40
1.0
100
AcDbArc
 50
270.0
 51
0.0
  0
DIMENSION
  5
12693
102
{ACAD_XDICTIONARY
360
126A0
102
}
102
{ACAD_REACTORS
330
126AA
102
}
330
37
100
AcDbEntity
  8
0
100
AcDbDimension
  2
*D18
 10
183.4808967332934
 20
265.8961029711639
 30
0.0
 11
139.4808967332934
 21
268.271102971164
 31
0.0
 70
    32
 71
     5
 42
87.99999999999995
  3
ISO-25_WS
100
AcDbAlignedDimension
 13
95.48089673329346
 23
281.0218288564803
 33
0.0
 14
183.4808967332934
 24
281.0218288564803
 34
0.0
100
AcDbRotatedDimension
1001
ACAD
1000
DSTYLE
1002
{
1070
    40
1040
1.0
1002
}
  0
DIMENSION
  5
126AB
102
{ACAD_XDICTIONARY
360
126B8
102
}
102
{ACAD_REACTORS
330
126C2
102
}
330
37
100
AcDbEntity
  8
0
100
AcDbDimension
  2
*D19
 10
187.4873462713607
 20
254.7508314403231
 30
0.0
 11
139.4810955161165
 21
257.1258314403232
 31
0.0
 70
    32
 71
     5
 42
96.01250151048844
  3
ISO-25_WS
100
AcDbAlignedDimension
 13
91.47484476087234
 23
278.93558878197
 33
0.0
 14
187.4873462713607
 24
278.93558878197
 34
0.0
100
AcDbRotatedDimension
1001
ACAD
1000
DSTYLE
1002
{
1070
    40
1040
1.0
1002
}
  0
LEADER
  5
126C4
330
37
100
AcDbEntity
  8
0
100
AcDbLeader
  3
ISO-25_WS
 76
     3
 10
187.4873462713607
 20
280.6706420932524
 30
0.0
 10
197.0591173599235
 20
271.7354263371063
 30
0.0
 10
208.974328252944
 20
271.7354263371063
 30
0.0
1001
ACAD
1000
DSTYLE
1002
{
1070
    40
1040
1.0
1070
    77
1070
     0
1002
}
  0
MTEXT
  5
126C5
330
37
100
AcDbEntity
  8
0
100
AcDbMText
 10
198.2506389805161
 20
275.3782499916705
 30
0.0
 40
3.149999999999999
 41
8.761183698852391
 71
     1
 72
     5
  1
{\C2;2-M4}
 73
     1
 44
1.0
1001
ACAD
1000
MTEXTBEGIN
1070
    73
1070
     1
1070
    44
1040
1.0
1070
    74
1070
     0
1000
MTEXTEND
  0
DIMENSION
  5
126C6
102
{ACAD_XDICTIONARY
360
126D3
102
}
102
{ACAD_REACTORS
330
126DD
102
}
330
37
100
AcDbEntity
  8
0
100
AcDbDimension
  2
*D20
 10
369.9449329638853
 20
347.9113175017645
 30
0.0
 11
325.4449329638853
 21
350.2863175017645
 31
0.0
 70
    32
 71
     5
 42
88.99999999999982
  3
ISO-25_WS
100
AcDbAlignedDimension
 13
280.9449329638854
 23
377.2578110769144
 33
0.0
 14
369.9449329638853
 24
377.2578110769144
 34
0.0
100
AcDbRotatedDimension
1001
ACAD
1000
DSTYLE
1002
{
1070
    40
1040
1.0
1002
}
  0
DIMENSION
  5
126DE
102
{ACAD_XDICTIONARY
360
126EB
102
}
102
{ACAD_REACTORS
330
126F5
102
}
330
37
100
AcDbEntity
  8
0
100
AcDbDimension
  2
*D21
 10
373.4449329638853
 20
337.9609392507811
 30
0.0
 11
325.4449329638853
 21
340.3359392507811
 31
0.0
 70
    32
 71
     5
 42
96.0
  3
ISO-25_WS
100
AcDbAlignedDimension
 13
277.4449329638853
 23
382.6888408662874
 33
0.0
 14
373.4449329638853
 24
382.6888408662874
 34
0.0
100
AcDbRotatedDimension
1001
ACAD
1000
DSTYLE
1002
{
1070
    40
1040
1.0
1002
}
  0
DIMENSION
  5
126F6
102
{ACAD_XDICTIONARY
360
12705
102
}
102
{ACAD_REACTORS
330
12711
102
}
330
37
100
AcDbEntity
  8
0
100
AcDbDimension
  2
*D22
 10
392.8818895652664
 20
384.6177428557274
 30
0.0
 11
390.5068895652664
 21
388.1177428557275
 31
0.0
 70
    32
 71
     5
 42
6.999999999999829
  3
ISO-25_WS
100
AcDbAlignedDimension
 13
373.4449329638853
 23
391.6177428557273
 33
0.0
 14
373.4449329638853
 24
384.6177428557274
 34
0.0
 50
90.0
100
AcDbRotatedDimension
1001
ACAD
1000
DSTYLE
1002
{
1070
    40
1040
1.0
1002
}
  0
DIMENSION
  5
12712
102
{ACAD_XDICTIONARY
360
1271F
102
}
102
{ACAD_REACTORS
330
12729
102
}
330
37
100
AcDbEntity
  8
0
100
AcDbDimension
  2
*D23
 10
406.7087969521621
 20
370.2578110769145
 30
0.0
 11
404.3337969521621
 21
387.7578110769147
 31
0.0
 70
    32
 71
     5
 42
35.00000000000023
  3
ISO-25_WS
100
AcDbAlignedDimension
 13
362.9449329638853
 23
405.2578110769148
 33
0.0
 14
362.9449329638853
 24
370.2578110769146
 34
0.0
 50
90.0
100
AcDbRotatedDimension
1001
ACAD
1000
DSTYLE
1002
{
1070
    40
1040
1.0
1002
}
  0
ARC
  5
1272C
330
37
100
AcDbEntity
  8
0
100
AcDbCircle
 10
334.9218076742547
 20
303.6505494820618
 30
0.0
 40
0.5
100
AcDbArc
 50
75.76314961795913
 51
153.2597700606981
  0
ARC
  5
1272E
330
37
100
AcDbEntity
  8
0
100
AcDbCircle
 10
349.7369576445883
 20
294.9714150858092
 30
0.0
 40
1.0
100
AcDbArc
 50
14.03624346792496
 51
46.74180365468873
  0
DIMENSION
  5
1272F
102
{ACAD_XDICTIONARY
360
1273C
102
}
102
{ACAD_REACTORS
330
12746
102
}
330
37
100
AcDbEntity
  8
0
100
AcDbDimension
  2
*D24
 10
360.4505245641084
 20
291.6505494820618
 30
0.0
 11
358.0755245641082
 21
297.8994152764329
 31
0.0
 70
    32
 71
     5
 42
12.49773158874211
  3
ISO-25_WS
100
AcDbAlignedDimension
 13
334.9693814650248
 23
304.148281070804
 33
0.0
 14
351.5979504519297
 24
291.6505494820618
 34
0.0
 50
90.0
100
AcDbRotatedDimension
1001
ACAD
1000
DSTYLE
1002
{
1070
    40
1040
1.0
1002
}
  0
ARC
  5
12760
330
37
100
AcDbEntity
  8
0
100
AcDbCircle
 10
309.8479504519304
 20
283.1505494820619
 30
0.0
 40
1.0
100
AcDbArc
 50
180.0000000000008
 51
269.9999999999995
  0
ARC
  5
12761
330
37
100
AcDbEntity
  8
0
100
AcDbCircle
 10
341.3479504519304
 20
283.1505494820618
 30
0.0
 40
1.0
100
AcDbArc
 50
270.0
 51
0.0
  0
DIMENSION
  5
12762
102
{ACAD_XDICTIONARY
360
1276F
102
}
102
{ACAD_REACTORS
330
12779
102
}
330
37
100
AcDbEntity
  8
0
100
AcDbDimension
  2
*D25
 10
360.4505245641084
 20
291.6505494820618
 30
0.0
 11
358.0755245641082
 21
286.9005494820619
 31
0.0
 70
    32
 71
     5
 42
9.5
  3
ISO-25_WS
100
AcDbAlignedDimension
 13
341.8479504519304
 23
282.1505494820618
 33
0.0
 14
351.5979504519297
 24
291.6505494820618
 34
0.0
 50
90.0
100
AcDbRotatedDimension
1001
ACAD
1000
DSTYLE
1002
{
1070
    40
1040
1.0
1002
}
  0
DIMENSION
  5
1277A
102
{ACAD_XDICTIONARY
360
12787
102
}
102
{ACAD_REACTORS
330
12791
102
}
330
37
100
AcDbEntity
  8
0
100
AcDbDimension
  2
*D26
 10
342.3479504519304
 20
273.1836142887299
 30
0.0
 11
325.5979504519304
 21
275.5586142887299
 31
0.0
 70
    32
 71
     5
 42
33.5
  3
ISO-25_WS
100
AcDbAlignedDimension
 13
308.8479504519304
 23
284.4271721694291
 33
0.0
 14
342.3479504519304
 24
284.4271721694291
 34
0.0
100
AcDbRotatedDimension
1001
ACAD
1000
DSTYLE
1002
{
1070
    40
1040
1.0
1002
}
  0
LINE
  5
12792
330
37
100
AcDbEntity
  8
0
  6
CENTER
 62
     1
100
AcDbLine
 10
325.5979504519303
 20
246.0408238153661
 30
0.0
 11
325.5979504519306
 21
231.7844404254977
 31
0.0
  0
LINE
  5
12793
330
37
100
AcDbEntity
  8
0
100
AcDbLine
 10
328.5979504519304
 20
234.9914679744714
 30
0.0
 11
322.5979504519304
 21
234.9914679744714
 31
0.0
  0
LINE
  5
12794
330
37
100
AcDbEntity
  8
0
100
AcDbLine
 10
328.5979504519304
 20
236.4914679744715
 30
0.0
 11
322.5979504519304
 21
236.4914679744715
 31
0.0
  0
LINE
  5
12795
330
37
100
AcDbEntity
  8
0
100
AcDbLine
 10
322.5979504519304
 20
236.9914679744714
 30
0.0
 11
328.5979504519304
 21
236.9914679744714
 31
0.0
  0
ARC
  5
12796
330
37
100
AcDbEntity
  8
0
100
AcDbCircle
 10
325.5979504519303
 20
237.3682160833619
 30
0.0
 40
3.827392267995818
100
AcDbArc
 50
218.3880031282704
 51
321.6119968717307
  0
LINE
  5
12797
330
37
100
AcDbEntity
  8
0
100
AcDbLine
 10
322.5979504519304
 20
234.9914679744714
 30
0.0
 11
322.5979504519304
 21
236.4914679744715
 31
0.0
  0
LINE
  5
12798
330
37
100
AcDbEntity
  8
0
100
AcDbLine
 10
322.5979504519304
 20
236.4914679744715
 30
0.0
 11
322.5979504519304
 21
236.9914679744714
 31
0.0
  0
LINE
  5
12799
330
37
100
AcDbEntity
  8
0
 62
     3
100
AcDbLine
 10
325.5980299954339
 20
234.9914679744714
 30
0.0
 11
326.2158710347275
 21
233.5910208245383
 31
0.0
  0
LINE
  5
1279A
330
37
100
AcDbEntity
  8
0
 62
     3
100
AcDbLine
 10
325.5979504519304
 20
234.9914679744714
 30
0.0
 11
324.9801094126372
 21
233.5910208245383
 31
0.0
  0
LINE
  5
1279B
330
37
100
AcDbEntity
  8
0
100
AcDbLine
 10
328.5979504519304
 20
236.4914679744715
 30
0.0
 11
328.5979504519304
 21
234.9914679744714
 31
0.0
  0
LINE
  5
1279C
330
37
100
AcDbEntity
  8
0
100
AcDbLine
 10
328.5979504519304
 20
236.9914679744714
 30
0.0
 11
328.5979504519304
 21
236.4914679744715
 31
0.0
  0
LINE
  5
1279E
330
37
100
AcDbEntity
  8
0
100
AcDbLine
 10
323.5979504519303
 20
243.0408238153662
 30
0.0
 11
327.5979504519304
 21
243.0408238153662
 31
0.0
  0
LINE
  5
127A0
330
37
100
AcDbEntity
  8
0
100
AcDbLine
 10
327.5979504519304
 20
243.0408238153662
 30
0.0
 11
327.5979504519305
 21
236.9914679744714
 31
0.0
  0
LINE
  5
127A1
330
37
100
AcDbEntity
  8
0
100
AcDbLine
 10
323.5979504519303
 20
243.0408238153662
 30
0.0
 11
323.5979504519304
 21
236.9914679744714
 31
0.0
  0
LINE
  5
127A2
330
37
100
AcDbEntity
  8
0
100
AcDbLine
 10
323.5979504519304
 20
237.4914679744715
 30
0.0
 11
327.5979504519305
 21
237.4914679744715
 31
0.0
  0
LINE
  5
127A3
330
37
100
AcDbEntity
  8
0
100
AcDbLine
 10
332.597864526162
 20
248.9130872588996
 30
0.0
 11
318.5979504519305
 21
248.9130872588996
 31
0.0
  0
LINE
  5
127A4
330
37
100
AcDbEntity
  8
0
100
AcDbLine
 10
332.5977518937511
 20
253.9134054329134
 30
0.0
 11
318.5979504519306
 21
253.9130872588996
 31
0.0
  0
LINE
  5
127A5
330
37
100
AcDbEntity
  8
0
100
AcDbLine
 10
318.5979504519305
 20
248.9130872588996
 30
0.0
 11
318.5979504519306
 21
253.9130872588996
 31
0.0
  0
LINE
  5
127A6
330
37
100
AcDbEntity
  8
0
100
AcDbLine
 10
332.597864526162
 20
248.9130872588996
 30
0.0
 11
332.5977518937511
 21
253.9134054329134
 31
0.0
  0
LINE
  5
127A8
330
37
100
AcDbEntity
  8
0
  6
CENTER
 62
     1
100
AcDbLine
 10
325.5979302160838
 20
247.9130872591579
 30
0.0
 11
325.5977711232052
 21
254.9132463443455
 31
0.0
  0
LINE
  5
127AD
102
{ACAD_REACTORS
330
127BF
102
}
330
37
100
AcDbEntity
  8
0
100
AcDbLine
 10
364.2823380163347
 20
468.5960979480866
 30
0.0
 11
365.2823380163348
 21
468.5960979480866
 31
0.0
  0
LINE
  5
127AE
102
{ACAD_REACTORS
330
127BF
102
}
330
37
100
AcDbEntity
  8
0
100
AcDbLine
 10
365.2823380163348
 20
468.5960979480866
 30
0.0
 11
365.2823380163348
 21
473.5960979480869
 31
0.0
  0
LINE
  5
127AF
102
{ACAD_REACTORS
330
127BF
102
}
330
37
100
AcDbEntity
  8
0
100
AcDbLine
 10
366.2823380163347
 20
473.5960979480869
 30
0.0
 11
365.2823380163348
 21
473.5960979480869
 31
0.0
  0
LINE
  5
127B0
102
{ACAD_REACTORS
330
127BF
102
}
330
37
100
AcDbEntity
  8
0
100
AcDbLine
 10
364.2823380163347
 20
473.5960979480869
 30
0.0
 11
364.2823380163347
 21
468.5960979480866
 31
0.0
  0
LINE
  5
127B3
102
{ACAD_REACTORS
330
127BF
102
}
330
37
100
AcDbEntity
  8
0
100
AcDbLine
 10
363.2823380163348
 20
473.5960979480869
 30
0.0
 11
364.7823380163347
 21
476.5960979480866
 31
0.0
  0
LINE
  5
127B4
102
{ACAD_REACTORS
330
127BF
102
}
330
37
100
AcDbEntity
  8
0
100
AcDbLine
 10
364.7823380163347
 20
476.5960979480866
 30
0.0
 11
366.2823380163347
 21
473.5960979480869
 31
0.0
  0
LINE
  5
127B5
102
{ACAD_REACTORS
330
127BF
102
}
330
37
100
AcDbEntity
  8
0
100
AcDbLine
 10
364.2823380163347
 20
473.5960979480869
 30
0.0
 11
363.2823380163348
 21
473.5960979480869
 31
0.0
  0
HATCH
  5
127BF
330
37
100
AcDbEntity
  8
0
 62
     4
100
AcDbHatch
 10
0.0
 20
0.0
 30
0.0
210
0.0
220
0.0
230
1.0
  2
SOLID
 70
     1
 71
     1
 91
        1
 92
        7
 72
     0
 73
     1
 93
        7
 10
363.2823380163348
 20
473.5960979480869
 10
364.2823380163347
 20
473.5960979480869
 10
364.2823380163347
 20
468.5960979480866
 10
365.2823380163348
 20
468.5960979480866
 10
365.2823380163348
 20
473.5960979480869
 10
366.2823380163347
 20
473.5960979480869
 10
364.7823380163347
 20
476.5960979480866
 97
        7
330
127B3
330
127B5
330
127B0
330
127AD
330
127AE
330
127AF
330
127B4
 75
     0
 76
     1
 47
0.0445070162793412
 98
        1
 10
364.7430577314335
 20
475.3952416919519
1001
ACAD
1010
0.0
1020
0.0
1030
0.0
  0
HATCH
  5
127C0
330
37
100
AcDbEntity
  8
0
 62
     4
100
AcDbHatch
 10
0.0
 20
0.0
 30
0.0
210
0.0
220
0.0
230
1.0
  2
SOLID
 70
     1
 71
     0
 91
        1
 92
        7
 72
     0
 73
     1
 93
        7
 10
325.5977711232053
 20
266.8445874898999
 10
324.0977711232052
 20
263.8445874898998
 10
325.0977711232053
 20
263.8445874898998
 10
325.0977711232053
 20
258.8445874898998
 10
326.0977711232052
 20
258.8445874898998
 10
326.0977711232052
 20
263.8445874898998
 10
327.0977711232053
 20
263.8445874898998
 97
        0
 75
     0
 76
     1
 47
0.0445070162793412
 98
        1
 10
325.558490838304
 20
265.6437312337648
1001
ACAD
1010
0.0
1020
0.0
1030
0.0
  0
LINE
  5
127C1
330
37
100
AcDbEntity
  8
0
100
AcDbLine
 10
325.0977711232053
 20
258.8445874898998
 30
0.0
 11
326.0977711232052
 21
258.8445874898998
 31
0.0
  0
LINE
  5
127C2
330
37
100
AcDbEntity
  8
0
100
AcDbLine
 10
326.0977711232052
 20
258.8445874898998
 30
0.0
 11
326.0977711232052
 21
263.8445874898998
 31
0.0
  0
LINE
  5
127C3
330
37
100
AcDbEntity
  8
0
100
AcDbLine
 10
327.0977711232053
 20
263.8445874898998
 30
0.0
 11
326.0977711232052
 21
263.8445874898998
 31
0.0
  0
LINE
  5
127C4
330
37
100
AcDbEntity
  8
0
100
AcDbLine
 10
325.0977711232053
 20
263.8445874898998
 30
0.0
 11
324.0977711232052
 21
263.8445874898998
 31
0.0
  0
LINE
  5
127C5
330
37
100
AcDbEntity
  8
0
100
AcDbLine
 10
325.0977711232053
 20
263.8445874898998
 30
0.0
 11
325.0977711232053
 21
258.8445874898998
 31
0.0
  0
LINE
  5
127C6
330
37
100
AcDbEntity
  8
0
100
AcDbLine
 10
324.0977711232052
 20
263.8445874898998
 30
0.0
 11
325.5977711232052
 21
266.8445874898998
 31
0.0
  0
LINE
  5
127C7
330
37
100
AcDbEntity
  8
0
100
AcDbLine
 10
325.5977711232052
 20
266.8445874898998
 30
0.0
 11
327.0977711232053
 21
263.8445874898998
 31
0.0
  0
MTEXT
  5
12924
330
37
100
AcDbEntity
  8
0
100
AcDbMText
 10
239.0654197178401
 20
240.5571288895529
 30
0.0
 40
7.0
 41
101.0063235107118
 71
     1
 72
     5
  1
{\C2;KA-75-2}
  7
RR
 73
     1
 44
1.0
1001
ACAD
1000
MTEXTBEGIN
1070
    73
1070
     1
1070
    44
1040
1.0
1070
    74
1070
     0
1000
MTEXTEND
  0
LINE
  5
12925
330
37
100
AcDbEntity
  8
0
 62
     3
100
AcDbLine
 10
237.6521728696967
 20
229.8215593481438
 30
0.0
 11
273.4787441116552
 21
229.8215593481438
 31
0.0
  0
LINE
  5
12926
330
37
100
AcDbEntity
  8
0
 62
     3
100
AcDbLine
 10
237.6521728696967
 20
228.8215593481437
 30
0.0
 11
273.4787441116552
 21
228.8215593481437
 31
0.0
  0
DIMENSION
  5
12928
102
{ACAD_XDICTIONARY
360
12935
102
}
102
{ACAD_REACTORS
330
1293F
102
}
330
37
100
AcDbEntity
  8
0
100
AcDbDimension
  2
*D27
 10
181.4878316255959
 20
195.5772406351397
 30
0.0
 11
135.4878316255584
 21
197.9522406351397
 31
0.0
 70
    32
 71
     5
 42
92.00000000007486
  3
ISO-25_WS
100
AcDbAlignedDimension
 13
89.48783162552102
 23
154.2743563917856
 33
0.0
 14
181.4878316255959
 24
154.2743563924302
 34
0.0
100
AcDbRotatedDimension
1001
ACAD
1000
DSTYLE
1002
{
1070
    40
1040
1.0
1002
}
  0
DIMENSION
  5
12940
102
{ACAD_XDICTIONARY
360
1294D
102
}
102
{ACAD_REACTORS
330
12957
102
}
330
37
100
AcDbEntity
  8
0
100
AcDbDimension
  2
*D28
 10
212.8910045544853
 20
132.7743563917597
 30
0.0
 11
210.5160045544853
 21
154.2743563917599
 31
0.0
 70
    32
 71
     5
 42
43.00000000000022
  3
ISO-25_WS
100
AcDbAlignedDimension
 13
135.4878316229195
 23
175.77435639176
 33
0.0
 14
135.4878316281971
 24
132.7743563917597
 34
0.0
 50
90.0
100
AcDbRotatedDimension
1001
ACAD
1000
DSTYLE
1002
{
1070
    40
1040
1.0
1002
}
  0
DIMENSION
  5
12958
102
{ACAD_XDICTIONARY
360
12965
102
}
102
{ACAD_REACTORS
330
1296F
102
}
330
37
100
AcDbEntity
  8
0
100
AcDbDimension
  2
*D29
 10
198.9229309494058
 20
140.7743563917597
 30
0.0
 11
196.5479309494057
 21
151.2743563917599
 31
0.0
 70
    32
 71
     5
 42
21.00000000000023
  3
ISO-25_WS
100
AcDbAlignedDimension
 13
135.4878316256521
 23
161.7743563917599
 33
0.0
 14
135.4878316229197
 24
140.7743563917597
 34
0.0
 50
90.0
100
AcDbRotatedDimension
1001
ACAD
1000
DSTYLE
1002
{
1070
    40
1040
1.0
1002
}
  0
LINE
  5
12970
102
{ACAD_REACTORS
330
1296F
102
}
330
37
100
AcDbEntity
  8
0
100
AcDbLine
 10
166.9878316229197
 20
155.4473795622743
 30
0.0
 11
166.9878316229197
 21
147.1013332211096
 31
0.0
  0
LINE
  5
12971
102
{ACAD_REACTORS
330
1296F
330
1298E
102
}
330
37
100
AcDbEntity
  8
0
100
AcDbLine
 10
103.9878316229197
 20
155.4473795622069
 30
0.0
 11
103.9878316229197
 21
147.1013332213125
 31
0.0
  0
ARC
  5
12973
102
{ACAD_REACTORS
330
1298E
102
}
330
37
100
AcDbEntity
  8
0
100
AcDbCircle
 10
160.9878316229197
 20
147.1013332211096
 30
0.0
 40
6.0
100
AcDbArc
 50
271.4692835810465
 51
0.0000000000002036
  0
ARC
  5
12974
330
37
100
AcDbEntity
  8
0
100
AcDbCircle
 10
160.9878316229197
 20
155.4473795622743
 30
0.0
 40
6.0
100
AcDbArc
 50
0.0
 51
88.53071641864666
  0
ARC
  5
12975
330
37
100
AcDbEntity
  8
0
100
AcDbCircle
 10
109.9878316229197
 20
147.1013332213125
 30
0.0
 40
6.0
100
AcDbArc
 50
180.0000000000002
 51
268.5307164184914
  0
ARC
  5
12976
330
37
100
AcDbEntity
  8
0
100
AcDbCircle
 10
109.9878316229197
 20
155.4473795622069
 30
0.0
 40
6.0
100
AcDbArc
 50
91.46928358150182
 51
180.0
  0
DIMENSION
  5
12977
102
{ACAD_XDICTIONARY
360
12984
102
}
102
{ACAD_REACTORS
330
1298E
102
}
330
37
100
AcDbEntity
  8
0
100
AcDbDimension
  2
*D30
 10
103.9878316229197
 20
110.5441053324512
 30
0.0
 11
135.4878316229197
 21
112.9191053324512
 31
0.0
 70
    32
 71
     5
 42
63.00000000000003
  3
ISO-25_WS
100
AcDbAlignedDimension
 13
166.9878316229197
 23
147.1013332211096
 33
0.0
 14
103.9878316229197
 24
147.1013332211096
 34
0.0
100
AcDbRotatedDimension
1001
ACAD
1000
DSTYLE
1002
{
1070
    40
1040
1.0
1002
}
  0
LINE
  5
1299A
330
37
100
AcDbEntity
  8
0
100
AcDbLine
 10
93.48783162552718
 20
70.61737732338517
 30
0.0
 11
99.48783162552722
 21
70.61737732338517
 31
0.0
  0
LINE
  5
1299B
330
37
100
AcDbEntity
  8
0
100
AcDbLine
 10
93.48783162552718
 20
72.11737732338517
 30
0.0
 11
99.48783162552722
 21
72.11737732338517
 31
0.0
  0
LINE
  5
1299C
330
37
100
AcDbEntity
  8
0
100
AcDbLine
 10
99.48783162552722
 20
72.61737732338517
 30
0.0
 11
93.48783162552718
 21
72.61737732338517
 31
0.0
  0
ARC
  5
1299D
330
37
100
AcDbEntity
  8
0
100
AcDbCircle
 10
96.48783162552714
 20
72.99412543227558
 30
0.0
 40
3.827392267995818
100
AcDbArc
 50
218.3880031282693
 51
321.6119968717289
  0
LINE
  5
1299E
330
37
100
AcDbEntity
  8
0
100
AcDbLine
 10
99.48783162552722
 20
70.61737732338517
 30
0.0
 11
99.48783162552722
 21
72.11737732338517
 31
0.0
  0
LINE
  5
1299F
330
37
100
AcDbEntity
  8
0
100
AcDbLine
 10
99.48783162552722
 20
72.11737732338517
 30
0.0
 11
99.48783162552722
 21
72.61737732338517
 31
0.0
  0
LINE
  5
129A0
330
37
100
AcDbEntity
  8
0
 62
     3
100
AcDbLine
 10
96.48775208202373
 20
70.61737732338517
 30
0.0
 11
95.86991104273023
 21
69.21693017345209
 31
0.0
  0
LINE
  5
129A1
330
37
100
AcDbEntity
  8
0
 62
     3
100
AcDbLine
 10
96.48783162552721
 20
70.61737732338517
 30
0.0
 11
97.10567266482069
 21
69.21693017345209
 31
0.0
  0
LINE
  5
129A2
330
37
100
AcDbEntity
  8
0
100
AcDbLine
 10
93.48783162552718
 20
72.11737732338517
 30
0.0
 11
93.48783162552718
 21
70.61737732338517
 31
0.0
  0
LINE
  5
129A3
330
37
100
AcDbEntity
  8
0
100
AcDbLine
 10
93.48783162552718
 20
72.61737732338517
 30
0.0
 11
93.48783162552718
 21
72.11737732338517
 31
0.0
  0
LINE
  5
129A4
330
37
100
AcDbEntity
  8
0
100
AcDbLine
 10
171.4878316255271
 20
70.61737732338826
 30
0.0
 11
177.4878316255272
 21
70.61737732338826
 31
0.0
  0
LINE
  5
129A5
330
37
100
AcDbEntity
  8
0
100
AcDbLine
 10
171.4878316255271
 20
72.11737732338827
 30
0.0
 11
177.4878316255272
 21
72.11737732338827
 31
0.0
  0
LINE
  5
129A6
330
37
100
AcDbEntity
  8
0
100
AcDbLine
 10
177.4878316255272
 20
72.61737732338827
 30
0.0
 11
171.4878316255271
 21
72.61737732338827
 31
0.0
  0
ARC
  5
129A7
330
37
100
AcDbEntity
  8
0
100
AcDbCircle
 10
174.487831625527
 20
72.9941254322787
 30
0.0
 40
3.827392267995818
100
AcDbArc
 50
218.388003128269
 51
321.6119968717287
  0
LINE
  5
129A8
330
37
100
AcDbEntity
  8
0
100
AcDbLine
 10
177.4878316255272
 20
70.61737732338826
 30
0.0
 11
177.4878316255272
 21
72.11737732338827
 31
0.0
  0
LINE
  5
129A9
330
37
100
AcDbEntity
  8
0
100
AcDbLine
 10
177.4878316255272
 20
72.11737732338827
 30
0.0
 11
177.4878316255272
 21
72.61737732338827
 31
0.0
  0
LINE
  5
129AA
330
37
100
AcDbEntity
  8
0
 62
     3
100
AcDbLine
 10
174.4877520820236
 20
70.61737732338826
 30
0.0
 11
173.8699110427301
 21
69.21693017345518
 31
0.0
  0
LINE
  5
129AB
330
37
100
AcDbEntity
  8
0
 62
     3
100
AcDbLine
 10
174.487831625527
 20
70.61737732338826
 30
0.0
 11
175.1056726648206
 21
69.21693017345518
 31
0.0
  0
LINE
  5
129AC
330
37
100
AcDbEntity
  8
0
100
AcDbLine
 10
171.4878316255271
 20
72.11737732338827
 30
0.0
 11
171.4878316255271
 21
70.61737732338826
 31
0.0
  0
LINE
  5
129AD
330
37
100
AcDbEntity
  8
0
100
AcDbLine
 10
171.4878316255271
 20
72.61737732338827
 30
0.0
 11
171.4878316255271
 21
72.11737732338827
 31
0.0
  0
LINE
  5
129E0
330
37
100
AcDbEntity
  8
0
100
AcDbLine
 10
334.9231377282706
 20
64.82543849398327
 30
0.0
 11
320.9232236540391
 21
64.82543849398327
 31
0.0
  0
LINE
  5
129E1
330
37
100
AcDbEntity
  8
0
100
AcDbLine
 10
334.9230250958596
 20
69.82575666799711
 30
0.0
 11
320.9232236540393
 21
69.82543849398331
 31
0.0
  0
LINE
  5
129E2
330
37
100
AcDbEntity
  8
0
100
AcDbLine
 10
330.923223654039
 20
62.82543849398327
 30
0.0
 11
324.923223654039
 21
62.82543849398327
 31
0.0
  0
LINE
  5
129E3
330
37
100
AcDbEntity
  8
0
100
AcDbLine
 10
330.923223654039
 20
64.32543849398332
 30
0.0
 11
324.923223654039
 21
64.32543849398332
 31
0.0
  0
LINE
  5
129E4
330
37
100
AcDbEntity
  8
0
100
AcDbLine
 10
324.923223654039
 20
64.82543849398327
 30
0.0
 11
330.923223654039
 21
64.82543849398327
 31
0.0
  0
ARC
  5
129E5
330
37
100
AcDbEntity
  8
0
100
AcDbCircle
 10
327.923223654039
 20
65.20218660287373
 30
0.0
 40
3.827392267995818
100
AcDbArc
 50
218.3880031282711
 51
321.6119968717301
  0
LINE
  5
129E6
330
37
100
AcDbEntity
  8
0
100
AcDbLine
 10
324.923223654039
 20
62.82543849398327
 30
0.0
 11
324.923223654039
 21
64.32543849398332
 31
0.0
  0
LINE
  5
129E7
330
37
100
AcDbEntity
  8
0
100
AcDbLine
 10
324.923223654039
 20
64.32543849398332
 30
0.0
 11
324.923223654039
 21
64.82543849398327
 31
0.0
  0
LINE
  5
129E8
330
37
100
AcDbEntity
  8
0
100
AcDbLine
 10
320.9232236540391
 20
64.82543849398327
 30
0.0
 11
320.9232236540393
 21
69.82543849398331
 31
0.0
  0
LINE
  5
129E9
330
37
100
AcDbEntity
  8
0
 62
     3
100
AcDbLine
 10
327.9233031975426
 20
62.82543849398327
 30
0.0
 11
328.5411442368361
 21
61.42499134405013
 31
0.0
  0
LINE
  5
129EA
330
37
100
AcDbEntity
  8
0
 62
     3
100
AcDbLine
 10
327.923223654039
 20
62.82543849398327
 30
0.0
 11
327.3053826147457
 21
61.42499134405013
 31
0.0
  0
LINE
  5
129EB
330
37
100
AcDbEntity
  8
0
100
AcDbLine
 10
330.923223654039
 20
64.32543849398332
 30
0.0
 11
330.923223654039
 21
62.82543849398327
 31
0.0
  0
LINE
  5
129EC
330
37
100
AcDbEntity
  8
0
100
AcDbLine
 10
330.923223654039
 20
64.82543849398327
 30
0.0
 11
330.923223654039
 21
64.32543849398332
 31
0.0
  0
LINE
  5
129ED
330
37
100
AcDbEntity
  8
0
100
AcDbLine
 10
334.9231377282706
 20
64.82543849398327
 30
0.0
 11
334.9230250958596
 21
69.82575666799711
 31
0.0
  0
LINE
  5
129FD
330
37
100
AcDbEntity
  8
0
100
AcDbLine
 10
324.9624171473635
 20
63.27678840811424
 30
0.0
 11
314.4231243748393
 21
63.27678840811424
 31
0.0
  0
LINE
  5
129FE
330
37
100
AcDbEntity
  8
0
100
AcDbLine
 10
330.8840301607144
 20
63.27678840811424
 30
0.0
 11
341.4231243751134
 21
63.27678840811422
 31
0.0
  0
DIMENSION
  5
12A00
102
{ACAD_XDICTIONARY
360
12A0D
102
}
102
{ACAD_REACTORS
330
12A17
102
}
330
37
100
AcDbEntity
  8
0
100
AcDbDimension
  2
*D31
 10
174.487831625527
 20
46.8758553743337
 30
0.0
 11
135.4877918537754
 21
49.25085537433369
 31
0.0
 70
    32
 71
     5
 42
78.00007954350346
  3
ISO-25_WS
100
AcDbAlignedDimension
 13
96.48775208202373
 23
66.45584528787637
 33
0.0
 14
174.487831625527
 24
66.45584528787947
 34
0.0
100
AcDbRotatedDimension
1001
ACAD
1000
DSTYLE
1002
{
1070
    40
1040
1.0
1002
}
  0
ARC
  5
12A1B
330
37
100
AcDbEntity
  8
0
100
AcDbCircle
 10
103.4878316229196
 20
70.11737732338517
 30
0.0
 40
1.0
100
AcDbArc
 50
179.999999999999
 51
270.0
  0
ARC
  5
12A1C
330
37
100
AcDbEntity
  8
0
100
AcDbCircle
 10
167.4878316229197
 20
70.11737732338517
 30
0.0
 40
1.0
100
AcDbArc
 50
270.0
 51
0.0
  0
DIMENSION
  5
12A1D
102
{ACAD_XDICTIONARY
360
12A2A
102
}
102
{ACAD_REACTORS
330
12A34
102
}
330
37
100
AcDbEntity
  8
0
100
AcDbDimension
  2
*D32
 10
168.4878316229197
 20
56.38513926369522
 30
0.0
 11
135.4878316229196
 21
58.76013926369523
 31
0.0
 70
    32
 71
     5
 42
66.00000000000004
  3
ISO-25_WS
100
AcDbAlignedDimension
 13
102.4878316229196
 23
70.77418258558828
 33
0.0
 14
168.4878316229197
 24
70.77418258558826
 34
0.0
100
AcDbRotatedDimension
1001
ACAD
1000
DSTYLE
1002
{
1070
    40
1040
1.0
1002
}
  0
MTEXT
  5
12A40
330
37
100
AcDbEntity
  8
0
100
AcDbMText
 10
269.8162117395627
 20
429.303614114301
 30
0.0
 40
3.149999999999999
 41
8.761183698852391
 71
     1
 72
     5
  1
{\C2;R3}
 73
     1
 44
1.0
1001
ACAD
1000
MTEXTBEGIN
1070
    73
1070
     1
1070
    44
1040
1.0
1070
    74
1070
     0
1000
MTEXTEND
  0
LINE
  5
12A41
330
37
100
AcDbEntity
  8
0
  6
CENTER
 62
     1
100
AcDbLine
 10
282.2487062833933
 20
155.435014186115
 30
0.0
 11
327.8966296424769
 21
155.435014186115
 31
0.0
  0
LINE
  5
12A42
330
37
100
AcDbEntity
  8
0
100
AcDbLine
 10
327.8966296424769
 20
170.685014186115
 30
0.0
 11
327.8966296424769
 21
140.1850141861149
 31
0.0
  0
LINE
  5
12A44
330
37
100
AcDbEntity
  8
0
100
AcDbLine
 10
294.3966296424768
 20
167.435014186115
 30
0.0
 11
294.396629642477
 21
158.935014186115
 31
0.0
  0
LINE
  5
12A47
102
{ACAD_REACTORS
330
12A9A
102
}
330
37
100
AcDbEntity
  8
0
  6
CENTER
 62
     1
100
AcDbLine
 10
288.8966296424769
 20
159.9350141861149
 30
0.0
 11
288.8966296424769
 21
150.938141486139
 31
0.0
  0
ARC
  5
12A49
330
37
100
AcDbEntity
  8
0
100
AcDbCircle
 10
288.7487062833933
 20
155.435014186115
 30
0.0
 40
3.5
100
AcDbArc
 50
87.57774018236544
 51
272.4222598176345
  0
LINE
  5
12A4E
330
37
100
AcDbEntity
  8
0
100
AcDbLine
 10
288.7487062833933
 20
158.935014186115
 30
0.0
 11
294.3966296424769
 21
158.935014186115
 31
0.0
  0
LINE
  5
12A4F
330
37
100
AcDbEntity
  8
0
100
AcDbLine
 10
288.8966296424769
 20
151.938141486139
 30
0.0
 11
294.3966296424768
 21
151.938141486139
 31
0.0
  0
LINE
  5
12A50
330
37
100
AcDbEntity
  8
0
100
AcDbLine
 10
297.3966296424769
 20
170.4350141861151
 30
0.0
 11
327.8966296424769
 21
170.435014186115
 31
0.0
  0
LINE
  5
12A51
330
37
100
AcDbEntity
  8
0
100
AcDbLine
 10
297.3966296424769
 20
140.4350141861149
 30
0.0
 11
327.8966296424769
 21
140.4350141861149
 31
0.0
  0
LINE
  5
12A56
102
{ACAD_REACTORS
330
12A82
102
}
330
37
100
AcDbEntity
  8
0
100
AcDbLine
 10
294.3966296424769
 20
151.938141486139
 30
0.0
 11
294.3966296424769
 21
143.435014186115
 31
0.0
  0
ARC
  5
12A57
330
37
100
AcDbEntity
  8
0
100
AcDbCircle
 10
297.3966296424769
 20
167.4350141861151
 30
0.0
 40
3.0
100
AcDbArc
 50
90.0
 51
180.0000000000002
  0
ARC
  5
12A58
330
37
100
AcDbEntity
  8
0
100
AcDbCircle
 10
297.3966296424769
 20
143.435014186115
 30
0.0
 40
3.0
100
AcDbArc
 50
180.0
 51
270.0
  0
LINE
  5
12A59
330
37
100
AcDbEntity
  8
0
  6
CENTER
 62
     1
100
AcDbLine
 10
373.5445530015604
 20
155.435014186115
 30
0.0
 11
327.8966296424769
 21
155.435014186115
 31
0.0
  0
LINE
  5
12A5A
330
37
100
AcDbEntity
  8
0
100
AcDbLine
 10
358.3966296424769
 20
140.4350141861149
 30
0.0
 11
327.8966296424769
 21
140.4350141861149
 31
0.0
  0
ARC
  5
12A5B
102
{ACAD_REACTORS
330
12ACF
102
}
330
37
100
AcDbEntity
  8
0
100
AcDbCircle
 10
358.3966296424769
 20
143.435014186115
 30
0.0
 40
3.0
100
AcDbArc
 50
270.0
 51
0.0
  0
LINE
  5
12A5C
330
37
100
AcDbEntity
  8
0
100
AcDbLine
 10
358.396629642477
 20
170.4350141861151
 30
0.0
 11
327.8966296424769
 21
170.435014186115
 31
0.0
  0
ARC
  5
12A5D
102
{ACAD_REACTORS
330
12ACF
102
}
330
37
100
AcDbEntity
  8
0
100
AcDbCircle
 10
358.396629642477
 20
167.4350141861151
 30
0.0
 40
3.0
100
AcDbArc
 50
359.9999999999998
 51
90.0
  0
LINE
  5
12A5E
330
37
100
AcDbEntity
  8
0
  6
CENTER
 62
     1
100
AcDbLine
 10
327.8966296424769
 20
173.685014186115
 30
0.0
 11
327.8966296424769
 21
137.185014186115
 31
0.0
  0
LINE
  5
12A5F
102
{ACAD_REACTORS
330
12A9A
102
}
330
37
100
AcDbEntity
  8
0
  6
CENTER
 62
     1
100
AcDbLine
 10
366.8966296424769
 20
159.9350141861149
 30
0.0
 11
366.8966296424769
 21
150.938141486139
 31
0.0
  0
LINE
  5
12A60
330
37
100
AcDbEntity
  8
0
100
AcDbLine
 10
361.396629642477
 20
167.4350141861151
 30
0.0
 11
361.3966296424769
 21
158.935014186115
 31
0.0
  0
LINE
  5
12A61
102
{ACAD_REACTORS
330
12A82
102
}
330
37
100
AcDbEntity
  8
0
100
AcDbLine
 10
361.3966296424769
 20
151.938141486139
 30
0.0
 11
361.3966296424769
 21
143.435014186115
 31
0.0
  0
ARC
  5
12A62
102
{ACAD_REACTORS
330
12AB7
102
}
330
37
100
AcDbEntity
  8
0
100
AcDbCircle
 10
367.0445530015604
 20
155.435014186115
 30
0.0
 40
3.5
100
AcDbArc
 50
267.5777401823644
 51
92.42225981763558
  0
LINE
  5
12A63
330
37
100
AcDbEntity
  8
0
100
AcDbLine
 10
367.0445530015604
 20
158.935014186115
 30
0.0
 11
361.3966296424769
 21
158.935014186115
 31
0.0
  0
LINE
  5
12A64
330
37
100
AcDbEntity
  8
0
100
AcDbLine
 10
366.8966296424769
 20
151.938141486139
 30
0.0
 11
361.396629642477
 21
151.938141486139
 31
0.0
  0
LINE
  5
12A65
330
37
100
AcDbEntity
  8
0
  6
PHANTOM2
 62
     3
 48
3.0
100
AcDbLine
 10
380.5445530015603
 20
130.185014186115
 30
0.0
 11
275.2487062833934
 21
130.185014186115
 31
0.0
  0
LINE
  5
12A66
330
37
100
AcDbEntity
  8
0
  6
PHANTOM2
 62
     3
 48
3.0
100
AcDbLine
 10
275.2487062833934
 20
180.6850141861151
 30
0.0
 11
380.5445530015603
 21
180.685014186115
 31
0.0
  0
LINE
  5
12A68
330
37
100
AcDbEntity
  8
0
  6
PHANTOM2
 62
     3
 48
3.0
100
AcDbLine
 10
275.2487062833934
 20
130.185014186115
 30
0.0
 11
275.2487062833934
 21
180.6850141861151
 31
0.0
  0
LINE
  5
12A6A
330
37
100
AcDbEntity
  8
0
  6
PHANTOM2
 62
     3
 48
3.0
100
AcDbLine
 10
380.5445530015603
 20
130.185014186115
 30
0.0
 11
380.5445530015605
 21
180.685014186115
 31
0.0
  0
DIMENSION
  5
12A6B
102
{ACAD_XDICTIONARY
360
12A78
102
}
102
{ACAD_REACTORS
330
12A82
102
}
330
37
100
AcDbEntity
  8
0
100
AcDbDimension
  2
*D33
 10
361.3966296424769
 20
119.1446421101463
 30
0.0
 11
327.8966296424769
 21
121.5196421101464
 31
0.0
 70
    32
 71
     5
 42
67.0
  3
ISO-25_WS
100
AcDbAlignedDimension
 13
294.3966296424769
 23
143.185014186115
 33
0.0
 14
361.3966296424769
 24
143.185014186115
 34
0.0
100
AcDbRotatedDimension
1001
ACAD
1000
DSTYLE
1002
{
1070
    40
1040
1.0
1002
}
  0
DIMENSION
  5
12A83
102
{ACAD_XDICTIONARY
360
12A90
102
}
102
{ACAD_REACTORS
330
12A9A
102
}
330
37
100
AcDbEntity
  8
0
100
AcDbDimension
  2
*D34
 10
366.8966296424769
 20
109.1672807469777
 30
0.0
 11
327.8966296424769
 21
111.5422807469776
 31
0.0
 70
    32
 71
     5
 42
78.0
  3
ISO-25_WS
100
AcDbAlignedDimension
 13
288.8966296424769
 23
153.492407821217
 33
0.0
 14
366.8966296424769
 24
153.492407821217
 34
0.0
100
AcDbRotatedDimension
1001
ACAD
1000
DSTYLE
1002
{
1070
    40
1040
1.0
1002
}
  0
DIMENSION
  5
12A9C
102
{ACAD_XDICTIONARY
360
12AAB
102
}
102
{ACAD_REACTORS
330
12AB7
102
}
330
37
100
AcDbEntity
  8
0
100
AcDbDimension
  2
*D35
 10
391.3355178842103
 20
151.935014186115
 30
0.0
 11
388.9605178842102
 21
155.4334505361031
 31
0.0
 70
    32
 71
     5
 42
6.996872699975995
  3
ISO-25_WS
100
AcDbAlignedDimension
 13
366.8966296424768
 23
158.931886886091
 33
0.0
 14
367.0445530015604
 24
151.935014186115
 34
0.0
 50
90.0
100
AcDbRotatedDimension
1001
ACAD
1000
DSTYLE
1002
{
1070
    40
1040
1.0
1002
}
  0
DIMENSION
  5
12AB8
102
{ACAD_XDICTIONARY
360
12AC5
102
}
102
{ACAD_REACTORS
330
12ACF
102
}
330
37
100
AcDbEntity
  8
0
100
AcDbDimension
  2
*D36
 10
403.3621110953587
 20
140.435014186115
 30
0.0
 11
400.9871110953587
 21
155.4350141861151
 31
0.0
 70
    32
 71
     5
 42
30.00000000000011
  3
ISO-25_WS
100
AcDbAlignedDimension
 13
358.396629642477
 23
170.4350141861151
 33
0.0
 14
358.3966296424769
 24
140.435014186115
 34
0.0
 50
90.0
100
AcDbRotatedDimension
1001
ACAD
1000
DSTYLE
1002
{
1070
    40
1040
1.0
1002
}
  0
ARC
  5
12AED
330
37
100
AcDbEntity
  8
0
100
AcDbCircle
 10
347.5151339370484
 20
75.2856445342168
 30
0.0
 40
1.0
100
AcDbArc
 50
14.03624346792643
 51
50.86656248157304
  0
DIMENSION
  5
12AEE
102
{ACAD_XDICTIONARY
360
12AFB
102
}
102
{ACAD_REACTORS
330
12B05
102
}
330
37
100
AcDbEntity
  8
0
100
AcDbDimension
  2
*D37
 10
357.5575301239368
 20
71.7767884081142
 30
0.0
 11
355.1825301239369
 21
77.26855799660491
 31
0.0
 70
    32
 71
     5
 42
10.98353917698128
  3
ISO-25_WS
100
AcDbAlignedDimension
 13
334.9635194892978
 23
82.76032758509552
 33
0.0
 14
349.4231243749785
 24
71.77678840811423
 34
0.0
 50
90.0
100
AcDbRotatedDimension
1001
ACAD
1000
DSTYLE
1002
{
1070
    40
1040
1.0
1002
}
  0
ARC
  5
12B1E
330
37
100
AcDbEntity
  8
0
100
AcDbCircle
 10
314.4231243748393
 20
64.27678840811424
 30
0.0
 40
1.0
100
AcDbArc
 50
180.0
 51
270.0
  0
ARC
  5
12B1F
102
{ACAD_REACTORS
330
12B37
102
}
330
37
100
AcDbEntity
  8
0
100
AcDbCircle
 10
341.4231243751134
 20
64.27678840811421
 30
0.0
 40
1.0
100
AcDbArc
 50
269.9999999999999
 51
0.0000000000004071
  0
DIMENSION
  5
12B20
102
{ACAD_XDICTIONARY
360
12B2D
102
}
102
{ACAD_REACTORS
330
12B37
102
}
330
37
100
AcDbEntity
  8
0
100
AcDbDimension
  2
*D38
 10
357.5575301239368
 20
71.77678840811421
 30
0.0
 11
355.1825301239369
 21
67.52678840811427
 31
0.0
 70
    32
 71
     5
 42
8.500000000000007
  3
ISO-25_WS
100
AcDbAlignedDimension
 13
341.4231243751134
 23
63.27678840811421
 33
0.0
 14
349.4231243749784
 24
71.77678840811423
 34
0.0
 50
90.0
100
AcDbRotatedDimension
1001
ACAD
1000
DSTYLE
1002
{
1070
    40
1040
1.0
1002
}
  0
DIMENSION
  5
12B39
330
37
100
AcDbEntity
  8
0
100
AcDbDimension
  2
*D39
 10
342.4231243751134
 20
52.91947289637299
 30
0.0
 11
327.9231243749764
 21
55.294472896373
 31
0.0
 70
    32
 71
     5
 42
29.00000000027404
  3
ISO-25_WS
100
AcDbAlignedDimension
 13
313.4231243748394
 23
66.15147445891238
 33
0.0
 14
342.4231243751134
 24
65.62592893372834
 34
0.0
100
AcDbRotatedDimension
1001
ACAD
1000
DSTYLE
1002
{
1070
    40
1040
1.0
1002
}
  0
LINE
  5
12B51
330
37
100
AcDbEntity
  8
0
  6
CENTER
 62
     1
100
AcDbLine
 10
327.9233037037265
 20
27.33742623518211
 30
0.0
 11
327.9233037037267
 21
13.08104284531365
 31
0.0
  0
LINE
  5
12B52
330
37
100
AcDbEntity
  8
0
100
AcDbLine
 10
325.9233037037265
 20
24.33742623518214
 30
0.0
 11
325.9233037037266
 21
18.28807039428744
 31
0.0
  0
LINE
  5
12B53
330
37
100
AcDbEntity
  8
0
100
AcDbLine
 10
329.9233037037266
 20
24.33742623518214
 30
0.0
 11
329.9233037037267
 21
18.28807039428744
 31
0.0
  0
LINE
  5
12B54
330
37
100
AcDbEntity
  8
0
100
AcDbLine
 10
330.9233037037266
 20
16.28807039428744
 30
0.0
 11
324.9233037037265
 21
16.28807039428744
 31
0.0
  0
LINE
  5
12B55
330
37
100
AcDbEntity
  8
0
100
AcDbLine
 10
330.9233037037266
 20
17.78807039428753
 30
0.0
 11
324.9233037037265
 21
17.78807039428753
 31
0.0
  0
LINE
  5
12B56
330
37
100
AcDbEntity
  8
0
100
AcDbLine
 10
324.9233037037265
 20
18.28807039428744
 30
0.0
 11
330.9233037037266
 21
18.28807039428744
 31
0.0
  0
LINE
  5
12B57
330
37
100
AcDbEntity
  8
0
100
AcDbLine
 10
325.9233037037266
 20
18.78807039428744
 30
0.0
 11
329.9233037037267
 21
18.78807039428744
 31
0.0
  0
ARC
  5
12B58
330
37
100
AcDbEntity
  8
0
100
AcDbCircle
 10
327.9233037037265
 20
18.66481850317794
 30
0.0
 40
3.827392267995818
100
AcDbArc
 50
218.3880031282709
 51
321.6119968717307
  0
LINE
  5
12B59
330
37
100
AcDbEntity
  8
0
100
AcDbLine
 10
324.9233037037265
 20
16.28807039428744
 30
0.0
 11
324.9233037037265
 21
17.78807039428753
 31
0.0
  0
LINE
  5
12B5A
330
37
100
AcDbEntity
  8
0
100
AcDbLine
 10
324.9233037037265
 20
17.78807039428753
 30
0.0
 11
324.9233037037265
 21
18.28807039428744
 31
0.0
  0
LINE
  5
12B5B
330
37
100
AcDbEntity
  8
0
 62
     3
100
AcDbLine
 10
327.9233832472301
 20
16.28807039428744
 30
0.0
 11
328.5412242865236
 21
14.88762324435433
 31
0.0
  0
LINE
  5
12B5C
330
37
100
AcDbEntity
  8
0
 62
     3
100
AcDbLine
 10
327.9233037037266
 20
16.28807039428744
 30
0.0
 11
327.3054626644332
 21
14.88762324435433
 31
0.0
  0
LINE
  5
12B5D
330
37
100
AcDbEntity
  8
0
100
AcDbLine
 10
330.9233037037266
 20
17.78807039428753
 30
0.0
 11
330.9233037037266
 21
16.28807039428744
 31
0.0
  0
LINE
  5
12B5E
330
37
100
AcDbEntity
  8
0
100
AcDbLine
 10
330.9233037037266
 20
18.28807039428744
 30
0.0
 11
330.9233037037266
 21
17.78807039428753
 31
0.0
  0
LINE
  5
12B5F
330
37
100
AcDbEntity
  8
0
100
AcDbLine
 10
325.9233037037265
 20
24.33742623518214
 30
0.0
 11
329.9233037037266
 21
24.33742623518217
 31
0.0
  0
LINE
  5
12B60
330
37
100
AcDbEntity
  8
0
100
AcDbLine
 10
334.9232177779582
 20
30.20968967871553
 30
0.0
 11
320.9233037037267
 21
30.20968967871553
 31
0.0
  0
LINE
  5
12B61
330
37
100
AcDbEntity
  8
0
100
AcDbLine
 10
334.9231051455472
 20
35.21000785272941
 30
0.0
 11
320.9233037037268
 21
35.20968967871561
 31
0.0
  0
LINE
  5
12B63
330
37
100
AcDbEntity
  8
0
100
AcDbLine
 10
334.9232177779582
 20
30.20968967871553
 30
0.0
 11
334.9231051455472
 21
35.21000785272941
 31
0.0
  0
LINE
  5
12B64
330
37
100
AcDbEntity
  8
0
  6
CENTER
 62
     1
100
AcDbLine
 10
327.92328346788
 20
29.2096896789738
 30
0.0
 11
327.9231243750014
 21
36.20984876416148
 31
0.0
  0
HATCH
  5
12B65
330
37
100
AcDbEntity
  8
0
 62
     4
100
AcDbHatch
 10
0.0
 20
0.0
 30
0.0
210
0.0
220
0.0
230
1.0
  2
SOLID
 70
     1
 71
     0
 91
        1
 92
        7
 72
     0
 73
     1
 93
        7
 10
327.9231243750015
 20
48.14118990971593
 10
326.4231243750014
 20
45.14118990971581
 10
327.4231243750013
 20
45.14118990971581
 10
327.4231243750013
 20
40.14118990971581
 10
328.4231243750014
 20
40.14118990971581
 10
328.4231243750014
 20
45.14118990971581
 10
329.4231243750013
 20
45.14118990971581
 97
        0
 75
     0
 76
     1
 47
0.0445070162793412
 98
        1
 10
327.8838440901002
 20
46.94033365358079
1001
ACAD
1010
0.0
1020
0.0
1030
0.0
  0
LINE
  5
12B66
330
37
100
AcDbEntity
  8
0
100
AcDbLine
 10
327.4231243750013
 20
40.14118990971581
 30
0.0
 11
328.4231243750014
 21
40.14118990971581
 31
0.0
  0
LINE
  5
12B67
330
37
100
AcDbEntity
  8
0
100
AcDbLine
 10
328.4231243750014
 20
40.14118990971581
 30
0.0
 11
328.4231243750014
 21
45.14118990971581
 31
0.0
  0
LINE
  5
12B68
330
37
100
AcDbEntity
  8
0
100
AcDbLine
 10
329.4231243750013
 20
45.14118990971581
 30
0.0
 11
328.4231243750014
 21
45.14118990971581
 31
0.0
  0
LINE
  5
12B69
330
37
100
AcDbEntity
  8
0
100
AcDbLine
 10
327.4231243750013
 20
45.14118990971581
 30
0.0
 11
326.4231243750014
 21
45.14118990971581
 31
0.0
  0
LINE
  5
12B6A
330
37
100
AcDbEntity
  8
0
100
AcDbLine
 10
327.4231243750013
 20
45.14118990971581
 30
0.0
 11
327.4231243750013
 21
40.14118990971581
 31
0.0
  0
LINE
  5
12B6B
330
37
100
AcDbEntity
  8
0
100
AcDbLine
 10
326.4231243750014
 20
45.14118990971581
 30
0.0
 11
327.9231243750014
 21
48.14118990971582
 31
0.0
  0
LINE
  5
12B6C
330
37
100
AcDbEntity
  8
0
100
AcDbLine
 10
327.9231243750014
 20
48.14118990971582
 30
0.0
 11
329.4231243750013
 21
45.14118990971581
 31
0.0
  0
MTEXT
  5
12BB8
330
37
100
AcDbEntity
  8
0
100
AcDbMText
 10
282.2714476815173
 20
198.2814830072449
 30
0.0
 40
3.149999999999999
 41
8.761183698852391
 71
     1
 72
     5
  1
{\C2;R3}
 73
     1
 44
1.0
1001
ACAD
1000
MTEXTBEGIN
1070
    73
1070
     1
1070
    44
1040
1.0
1070
    74
1070
     0
1000
MTEXTEND
  0
LEADER
  5
12BBA
330
37
100
AcDbEntity
  8
0
100
AcDbLeader
  3
ISO-25_WS
 76
     3
 10
295.2753092989172
 20
169.8063345296747
 30
0.0
 10
278.3610923100987
 20
193.8334411093274
 30
0.0
 10
290.255232961832
 20
193.8334411093274
 30
0.0
1001
ACAD
1000
DSTYLE
1002
{
1070
    40
1040
1.0
1070
    77
1070
     0
1002
}
  0
LEADER
  5
12BBB
330
37
100
AcDbEntity
  8
0
100
AcDbLeader
  3
ISO-25_WS
 76
     3
 10
174.4878713972789
 20
69.1667331644895
 30
0.0
 10
184.0596424858416
 20
60.23151740834342
 30
0.0
 10
195.974853378862
 20
60.23151740834342
 30
0.0
1001
ACAD
1000
DSTYLE
1002
{
1070
    40
1040
1.0
1070
    77
1070
     0
1002
}
  0
MTEXT
  5
12BBC
330
37
100
AcDbEntity
  8
0
100
AcDbMText
 10
185.2511641064342
 20
63.87434106290758
 30
0.0
 40
3.149999999999999
 41
8.761183698852391
 71
     1
 72
     5
  1
{\C2;2-M4}
 73
     1
 44
1.0
1001
ACAD
1000
MTEXTBEGIN
1070
    73
1070
     1
1070
    44
1040
1.0
1070
    74
1070
     0
1000
MTEXTEND
  0
LEADER
  5
12BBD
330
37
100
AcDbEntity
  8
0
100
AcDbLeader
  3
ISO-25_WS
 76
     3
 10
282.7456554500837
 20
402.9447624671552
 30
0.0
 10
266.2611136491978
 20
425.4111863909783
 30
0.0
 10
278.1075300177927
 20
425.4111863909783
 30
0.0
1001
ACAD
1000
DSTYLE
1002
{
1070
    40
1040
1.0
1070
    77
1070
     0
1002
}
  0
MTEXT
  5
12BE5
330
37
100
AcDbEntity
  8
0
100
AcDbMText
 10
286.8237843876455
 20
326.728596385314
 30
0.0
 40
4.8125
 41
112.1248333333333
 71
     1
 72
     5
  1
{\C2;PANEL DRILLING DIMENSIONS.}
  7
RR
 73
     1
 44
1.0
1001
ACAD
1000
MTEXTBEGIN
1070
    73
1070
     1
1070
    44
1040
1.0
1070
    74
1070
     0
1000
MTEXTEND
  0
LINE
  5
12BE6
330
37
100
AcDbEntity
  8
0
 62
     3
100
AcDbLine
 10
286.470465921349
 20
319.4710026378168
 30
0.0
 11
368.8149680798231
 21
319.4710026378168
 31
0.0
  0
LINE
  5
12BE7
330
37
100
AcDbEntity
  8
0
 62
     3
100
AcDbLine
 10
286.470465921349
 20
318.3935876066142
 30
0.0
 11
368.8149680798231
 21
318.3935876066142
 31
0.0
  0
MTEXT
  5
12BE8
330
37
100
AcDbEntity
  8
0
100
AcDbMText
 10
287.4970003137454
 20
98.61234746786912
 30
0.0
 40
4.8125
 41
112.1248333333333
 71
     1
 72
     5
  1
{\C2;PANEL DRILLING DIMENSIONS.}
  7
RR
 73
     1
 44
1.0
1001
ACAD
1000
MTEXTBEGIN
1070
    73
1070
     1
1070
    44
1040
1.0
1070
    74
1070
     0
1000
MTEXTEND
  0
LINE
  5
12BE9
330
37
100
AcDbEntity
  8
0
 62
     3
100
AcDbLine
 10
287.1436818474489
 20
91.35475372037188
 30
0.0
 11
369.4881840059232
 21
91.35475372037188
 31
0.0
  0
LINE
  5
12BEA
330
37
100
AcDbEntity
  8
0
 62
     3
100
AcDbLine
 10
287.1436818474489
 20
90.2773386891693
 30
0.0
 11
369.4881840059232
 21
90.2773386891693
 31
0.0
  0
LINE
  5
12BFD
330
37
100
AcDbEntity
  8
0
100
AcDbLine
 10
320.9233037037267
 20
30.20968967871553
 30
0.0
 11
320.9233037037268
 21
35.20968967871561
 31
0.0
  0
MTEXT
  5
12D59
330
37
100
AcDbEntity
  8
0
100
AcDbMText
 10
239.0654197178401
 20
21.77259089042889
 30
0.0
 40
7.0
 41
101.0063235107118
 71
     1
 72
     5
  1
{\C2;KA-75-3}
  7
RR
 73
     1
 44
1.0
1001
ACAD
1000
MTEXTBEGIN
1070
    73
1070
     1
1070
    44
1040
1.0
1070
    74
1070
     0
1000
MTEXTEND
  0
LINE
  5
12D5A
330
37
100
AcDbEntity
  8
0
 62
     3
100
AcDbLine
 10
237.6521728696967
 20
11.03702134901971
 30
0.0
 11
273.4787441116552
 21
11.03702134901971
 31
0.0
  0
LINE
  5
12D5B
330
37
100
AcDbEntity
  8
0
 62
     3
100
AcDbLine
 10
237.6521728696967
 20
10.03702134901971
 30
0.0
 11
273.4787441116552
 21
10.03702134901971
 31
0.0
  0
ARC
  5
12EE4
330
37
100
AcDbEntity
  8
0
100
AcDbCircle
 10
103.4748447625235
 20
371.2357465599152
 30
0.0
 40
6.0
100
AcDbArc
 50
91.72676013937557
 51
180.0000000001574
  0
ARC
  5
12EE5
330
37
100
AcDbEntity
  8
0
100
AcDbCircle
 10
103.4748447625563
 20
359.3207840809862
 30
0.0
 40
6.0
100
AcDbArc
 50
180.0000000001574
 51
268.2732398608639
  0
ARC
  5
12EE6
330
37
100
AcDbEntity
  8
0
100
AcDbCircle
 10
175.4748447625562
 20
359.3207840812893
 30
0.0
 40
6.0
100
AcDbArc
 50
271.7267601396181
 51
0.0000000001568734
  0
ARC
  5
12EE7
330
37
100
AcDbEntity
  8
0
100
AcDbCircle
 10
175.4748447625235
 20
371.2357465599141
 30
0.0
 40
6.0
100
AcDbArc
 50
0.0000000001568734
 51
88.2732398606201
  0
ARC
  5
12F9C
330
37
100
AcDbEntity
  8
0
 62
     7
100
AcDbCircle
 10
106.6789044280714
 20
576.2811679325046
 30
0.0
 40
6.0
100
AcDbArc
 50
179.9999999999978
 51
267.638874609332
  0
ARC
  5
12F9D
330
37
100
AcDbEntity
  8
0
 62
     7
100
AcDbCircle
 10
106.6789044280722
 20
596.2433713487909
 30
0.0
 40
6.0
100
AcDbArc
 50
92.35199483993751
 51
179.9999999999978
  0
ARC
  5
12F9E
330
37
100
AcDbEntity
  8
0
 62
     7
100
AcDbCircle
 10
204.6789044280751
 20
596.2433713487911
 30
0.0
 40
6.0
100
AcDbArc
 50
0.0000000000021713
 51
87.64800516006102
  0
ARC
  5
12F9F
330
37
100
AcDbEntity
  8
0
 62
     7
100
AcDbCircle
 10
204.6789044280757
 20
576.2655508825562
 30
0.0
 40
6.0
100
AcDbArc
 50
272.3428643489723
 51
0.0000000000021713
  0
ARC
  5
12FCC
330
37
100
AcDbEntity
  8
0
 62
     7
100
AcDbCircle
 10
90.8038110527733
 20
565.7615332434736
 30
0.0
 40
5.0
100
AcDbArc
 50
185.0052175869512
 51
266.8879520223749
  0
ARC
  5
12FCD
330
37
100
AcDbEntity
  8
0
 62
     7
100
AcDbCircle
 10
90.80381105291008
 20
617.2369446044257
 30
0.0
 40
5.0
100
AcDbArc
 50
93.11204798371084
 51
174.9947824127454
  0
ARC
  5
12FCE
330
37
100
AcDbEntity
  8
0
 62
     7
100
AcDbCircle
 10
220.5539978032491
 20
617.2369446044257
 30
0.0
 40
5.0
100
AcDbArc
 50
5.005217587258476
 51
86.88795201628691
  0
ARC
  5
12FCF
330
37
100
AcDbEntity
  8
0
 62
     7
100
AcDbCircle
 10
220.5539978046041
 20
565.7615332573515
 30
0.0
 40
5.0
100
AcDbArc
 50
273.1120479898663
 51
354.9947824157571
  0
ARC
  5
12FE3
330
37
100
AcDbEntity
  8
0
100
AcDbCircle
 10
99.17890442807772
 20
492.679115890933
 30
0.0
 40
1.0
100
AcDbArc
 50
180.0
 51
270.0000000000002
  0
ARC
  5
12FE4
330
37
100
AcDbEntity
  8
0
100
AcDbCircle
 10
212.1789044280778
 20
492.6793767247012
 30
0.0
 40
1.0
100
AcDbArc
 50
270.0002645234486
 51
0.0
  0
ARC
  5
13013
330
37
100
AcDbEntity
  8
0
 62
     7
100
AcDbCircle
 10
309.9665339053992
 20
638.1648880748826
 30
0.0
 40
3.0
100
AcDbArc
 50
90.00000062046323
 51
180.0011215038632
  0
ARC
  5
13014
330
37
100
AcDbEntity
  8
0
 62
     7
100
AcDbCircle
 10
309.9665339054022
 20
594.16488818287
 30
0.0
 40
3.0
100
AcDbArc
 50
179.9988784961447
 51
269.9999993795368
  0
ARC
  5
13015
330
37
100
AcDbEntity
  8
0
 62
     7
100
AcDbCircle
 10
419.9673951574058
 20
594.1648871696874
 30
0.0
 40
3.0
100
AcDbArc
 50
269.9999990007811
 51
0.0011215038605135
  0
ARC
  5
13016
330
37
100
AcDbEntity
  8
0
 62
     7
100
AcDbCircle
 10
419.9673951574058
 20
638.1648890880654
 30
0.0
 40
3.0
100
AcDbArc
 50
359.9988784961395
 51
90.00000099921933
  0
ENDSEC
  0
SECTION
  2
OBJECTS
  0
DICTIONARY
  5
C
330
0
100
AcDbDictionary
281
     1
  3
ACAD_COLOR
350
30
  3
ACAD_GROUP
350
D
  3
ACAD_LAYOUT
350
2F
  3
ACAD_MATERIAL
350
10
  3
ACAD_MLEADERSTYLE
350
6C6
  3
ACAD_MLINESTYLE
350
2C
  3
ACAD_PLOTSETTINGS
350
2E
  3
ACAD_PLOTSTYLENAME
350
E
  3
ACAD_SCALELIST
350
6A4
  3
ACAD_TABLESTYLE
350
31
  3
ACAD_VISUALSTYLE
350
14
  3
AcadDim
350
EF7E
  3
ACDB_RECOMPOSE_DATA
350
AAF
  3
AcDbVariableDictionary
350
42
  3
DWGPROPS
350
1318D
  0
DICTIONARY
  5
4D8
330
8
100
AcDbDictionary
280
     1
281
     1
  0
DICTIONARY
  5
6C
330
2
100
AcDbDictionary
280
     1
281
     1
  3
ACAD_LAYERFILTERS
360
4CD
  3
ACAD_LAYERSTATES
360
973
  3
ACLYDICTIONARY
360
4CC
  0
DICTIONARY
  5
AA1
330
25
100
AcDbDictionary
280
     1
281
     1
  3
ADSK_XREC_LAYER_RECONCILED
360
AA2
  0
DICTIONARY
  5
AA7
330
66
100
AcDbDictionary
280
     1
281
     1
  3
ADSK_XREC_LAYER_RECONCILED
360
AA8
  0
DICTIONARY
  5
9D
330
37
100
AcDbDictionary
280
     1
281
     1
  3
ACAD_SORTENTS
360
9E
  0
DICTIONARY
  5
123E1
330
123D4
100
AcDbDictionary
280
     1
281
     1
  3
ACAD_DIMASSOC
360
123EB
  0
DICTIONARY
  5
1244A
330
1243D
100
AcDbDictionary
280
     1
281
     1
  3
ACAD_DIMASSOC
360
12454
  0
DICTIONARY
  5
12462
330
12455
100
AcDbDictionary
280
     1
281
     1
  3
ACAD_DIMASSOC
360
1246C
  0
DICTIONARY
  5
124F5
330
124E8
100
AcDbDictionary
280
     1
281
     1
  3
ACAD_DIMASSOC
360
124FF
  0
DICTIONARY
  5
12536
330
12529
100
AcDbDictionary
280
     1
281
     1
  3
ACAD_DIMASSOC
360
12540
  0
DICTIONARY
  5
12551
330
12542
100
AcDbDictionary
280
     1
281
     1
  3
ACAD_DIMASSOC
360
1255D
  0
DICTIONARY
  5
12583
330
12576
100
AcDbDictionary
280
     1
281
     1
  3
ACAD_DIMASSOC
360
1258D
  0
DICTIONARY
  5
1259B
330
1258E
100
AcDbDictionary
280
     1
281
     1
  3
ACAD_DIMASSOC
360
125A5
  0
DICTIONARY
  5
12601
330
125F4
100
AcDbDictionary
280
     1
281
     1
  3
ACAD_DIMASSOC
360
1260B
  0
DICTIONARY
  5
12653
330
12646
100
AcDbDictionary
280
     1
281
     1
  3
ACAD_DIMASSOC
360
1265D
  0
DICTIONARY
  5
1266B
330
1265E
100
AcDbDictionary
280
     1
281
     1
  3
ACAD_DIMASSOC
360
12675
  0
DICTIONARY
  5
12683
330
12676
100
AcDbDictionary
280
     1
281
     1
  3
ACAD_DIMASSOC
360
1268D
  0
DICTIONARY
  5
126A0
330
12693
100
AcDbDictionary
280
     1
281
     1
  3
ACAD_DIMASSOC
360
126AA
  0
DICTIONARY
  5
126B8
330
126AB
100
AcDbDictionary
280
     1
281
     1
  3
ACAD_DIMASSOC
360
126C2
  0
DICTIONARY
  5
126D3
330
126C6
100
AcDbDictionary
280
     1
281
     1
  3
ACAD_DIMASSOC
360
126DD
  0
DICTIONARY
  5
126EB
330
126DE
100
AcDbDictionary
280
     1
281
     1
  3
ACAD_DIMASSOC
360
126F5
  0
DICTIONARY
  5
12705
330
126F6
100
AcDbDictionary
280
     1
281
     1
  3
ACAD_DIMASSOC
360
12711
  0
DICTIONARY
  5
1271F
330
12712
100
AcDbDictionary
280
     1
281
     1
  3
ACAD_DIMASSOC
360
12729
  0
DICTIONARY
  5
1273C
330
1272F
100
AcDbDictionary
280
     1
281
     1
  3
ACAD_DIMASSOC
360
12746
  0
DICTIONARY
  5
1276F
330
12762
100
AcDbDictionary
280
     1
281
     1
  3
ACAD_DIMASSOC
360
12779
  0
DICTIONARY
  5
12787
330
1277A
100
AcDbDictionary
280
     1
281
     1
  3
ACAD_DIMASSOC
360
12791
  0
DICTIONARY
  5
12935
330
12928
100
AcDbDictionary
280
     1
281
     1
  3
ACAD_DIMASSOC
360
1293F
  0
DICTIONARY
  5
1294D
330
12940
100
AcDbDictionary
280
     1
281
     1
  3
ACAD_DIMASSOC
360
12957
  0
DICTIONARY
  5
12965
330
12958
100
AcDbDictionary
280
     1
281
     1
  3
ACAD_DIMASSOC
360
1296F
  0
DICTIONARY
  5
12984
330
12977
100
AcDbDictionary
280
     1
281
     1
  3
ACAD_DIMASSOC
360
1298E
  0
DICTIONARY
  5
12A0D
330
12A00
100
AcDbDictionary
280
     1
281
     1
  3
ACAD_DIMASSOC
360
12A17
  0
DICTIONARY
  5
12A2A
330
12A1D
100
AcDbDictionary
280
     1
281
     1
  3
ACAD_DIMASSOC
360
12A34
  0
DICTIONARY
  5
12A78
330
12A6B
100
AcDbDictionary
280
     1
281
     1
  3
ACAD_DIMASSOC
360
12A82
  0
DICTIONARY
  5
12A90
330
12A83
100
AcDbDictionary
280
     1
281
     1
  3
ACAD_DIMASSOC
360
12A9A
  0
DICTIONARY
  5
12AAB
330
12A9C
100
AcDbDictionary
280
     1
281
     1
  3
ACAD_DIMASSOC
360
12AB7
  0
DICTIONARY
  5
12AC5
330
12AB8
100
AcDbDictionary
280
     1
281
     1
  3
ACAD_DIMASSOC
360
12ACF
  0
DICTIONARY
  5
12AFB
330
12AEE
100
AcDbDictionary
280
     1
281
     1
  3
ACAD_DIMASSOC
360
12B05
  0
DICTIONARY
  5
12B2D
330
12B20
100
AcDbDictionary
280
     1
281
     1
  3
ACAD_DIMASSOC
360
12B37
  0
DICTIONARY
  5
30
102
{ACAD_REACTORS
330
C
102
}
330
C
100
AcDbDictionary
281
     1
  0
DICTIONARY
  5
D
102
{ACAD_REACTORS
330
C
102
}
330
C
100
AcDbDictionary
281
     1
  0
DICTIONARY
  5
2F
102
{ACAD_REACTORS
330
C
102
}
330
C
100
AcDbDictionary
281
     1
  3
Layout1
350
36
  3
Layout2
350
3E
  3
Model
350
3A
  0
DICTIONARY
  5
10
102
{ACAD_REACTORS
330
C
102
}
330
C
100
AcDbDictionary
281
     1
  3
ByBlock
350
12
  3
ByLayer
350
11
  3
Global
350
13
  0
DICTIONARY
  5
6C6
102
{ACAD_REACTORS
330
C
102
}
330
C
100
AcDbDictionary
281
     1
  3
Standard
350
6C7
  0
DICTIONARY
  5
2C
102
{ACAD_REACTORS
330
C
102
}
330
C
100
AcDbDictionary
281
     1
  3
Standard
350
2D
  0
DICTIONARY
  5
2E
102
{ACAD_REACTORS
330
C
102
}
330
C
100
AcDbDictionary
281
     1
  0
ACDBDICTIONARYWDFLT
  5
E
102
{ACAD_REACTORS
330
C
102
}
330
C
100
AcDbDictionary
281
     1
  3
Normal
350
F
100
AcDbDictionaryWithDefault
340
F
  0
DICTIONARY
  5
6A4
102
{ACAD_REACTORS
330
C
102
}
330
C
100
AcDbDictionary
281
     1
  3
A0
350
6A5
  3
A1
350
6A6
  3
A2
350
6A7
  3
A3
350
6A8
  3
A4
350
6A9
  3
A5
350
6AA
  3
A6
350
6AB
  3
A7
350
6AC
  3
A8
350
6AD
  3
A9
350
6AE
  3
B0
350
6AF
  3
B1
350
6B0
  3
B2
350
6B1
  3
B3
350
6B2
  3
B4
350
6B3
  3
B5
350
6B4
  3
B6
350
6B5
  3
B7
350
6B6
  3
B8
350
6B7
  3
B9
350
6B8
  3
C0
350
6B9
  3
C1
350
6BA
  3
C2
350
6BB
  3
C3
350
6BC
  3
C4
350
6BD
  3
C5
350
6BE
  3
C6
350
6BF
  3
C7
350
6C0
  3
C8
350
6C1
  3
C9
350
6C2
  3
D0
350
6C3
  3
D1
350
6C4
  3
D2
350
6C5
  0
DICTIONARY
  5
31
102
{ACAD_REACTORS
330
C
102
}
330
C
100
AcDbDictionary
281
     1
  3
Standard
350
32
  0
DICTIONARY
  5
14
102
{ACAD_REACTORS
330
C
102
}
330
C
100
AcDbDictionary
281
     1
  3
2dWireframe
350
1A
  3
3D Hidden
350
1C
  3
3dWireframe
350
1B
  3
Basic
350
19
  3
Brighten
350
20
  3
ColorChange
350
24
  3
Conceptual
350
1D
  3
Dim
350
1F
  3
Facepattern
350
23
  3
Flat
350
15
  3
FlatWithEdges
350
16
  3
Gouraud
350
17
  3
GouraudWithEdges
350
18
  3
Linepattern
350
22
  3
Realistic
350
1E
  3
Thicken
350
21
  0
XRECORD
  5
EF7E
102
{ACAD_REACTORS
330
C
102
}
330
C
100
AcDbXrecord
280
     1
 90
   990106
  3

 60
     0
 61
     0
 62
     1
 63
     3
 64
     0
 65
     0
 66
     0
 67
     3
 68
     1
 69
     0
 70
     0
 71
     0
 72
     0
 40
0.0
170
     0
  0
XRECORD
  5
AAF
102
{ACAD_REACTORS
330
C
102
}
330
C
100
AcDbXrecord
280
     1
 90
        1
330
32
  0
DICTIONARY
  5
42
102
{ACAD_REACTORS
330
C
102
}
330
C
100
AcDbDictionary
281
     1
  3
CANNOSCALE
350
AAC
  3
CMLEADERSTYLE
350
AAB
  3
CTABLESTYLE
350
43
  3
DIMASSOC
350
47
  3
HIDETEXT
350
46
  3
INDEXCTL
350
45
  3
LIGHTINGUNITS
350
ADB
  3
LOFTANG1
350
1318A
  3
LOFTANG2
350
1318B
  3
MSLTSCALE
350
ADA
  3
SORTENTS
350
44
  0
XRECORD
  5
1318D
102
{ACAD_REACTORS
330
C
102
}
330
C
100
AcDbXrecord
280
     1
  1
DWGPROPS COOKIE
  2

  3

  4

  6

  7

  8
kj06(kj)
  9

300
=
301
=
302
=
303
=
304
=
305
=
306
=
307
=
308
=
309
=
 40
0.4097537384259259
 41
2454746.567123658
 42
2455014.429360162
  1

 90
        0
  0
DICTIONARY
  5
4CD
102
{ACAD_REACTORS
330
6C
102
}
330
6C
100
AcDbDictionary
281
     1
  0
DICTIONARY
  5
973
102
{ACAD_REACTORS
330
6C
102
}
330
6C
100
AcDbDictionary
281
     1
  0
DICTIONARY
  5
4CC
102
{ACAD_REACTORS
330
6C
102
}
330
6C
100
AcDbDictionary
281
     1
1001
ACAD
1000
<All
  0
XRECORD
  5
AA2
102
{ACAD_REACTORS
330
AA1
102
}
330
AA1
100
AcDbXrecord
280
     1
290
     1
  0
XRECORD
  5
AA8
102
{ACAD_REACTORS
330
AA7
102
}
330
AA7
100
AcDbXrecord
280
     1
290
     1
  0
SORTENTSTABLE
  5
9E
102
{ACAD_REACTORS
330
9D
102
}
330
9D
100
AcDbSortentsTable
330
37
331
125C9
  5
122CD
331
1279B
  5
12975
331
127A3
  5
1299A
331
121F1
  5
12203
331
121BA
  5
121BA
331
126C6
  5
127B6
331
12201
  5
1220F
331
121C2
  5
121C7
331
12928
  5
129E4
331
122A0
  5
122CF
331
12269
  5
1228F
331
121CA
  5
121D5
331
1222A
  5
12238
331
12B69
  5
12D5B
331
12A64
  5
12B59
331
1231E
  5
123F6
331
122E7
  5
12316
331
12232
  5
12240
331
129E6
  5
12A58
331
12977
  5
129E7
331
12326
  5
12400
331
122EF
  5
12321
331
122B0
  5
122DF
331
12279
  5
1229E
331
1223A
  5
1224C
331
12BEA
  5
12FCD
331
12940
  5
129E5
331
122F7
  5
12329
331
122B8
  5
122E7
331
12242
  5
12255
331
129FE
  5
125DC
331
12336
  5
12576
331
12FE3
  5
122AF
331
125D9
  5
126DE
331
125E1
  5
12796
331
121D2
  5
121DB
331
12193
  5
12193
331
125F1
  5
1279E
331
1268F
  5
12244
331
126DE
  5
127C0
331
121DA
  5
121E4
331
1219B
  5
1219B
331
12794
  5
12926
331
121E2
  5
121F3
331
121A3
  5
121A3
331
122C0
  5
122EF
331
12281
  5
122A8
331
121EA
  5
121F8
331
121AB
  5
121AB
331
1220B
  5
12219
331
1224A
  5
1225F
331
1243D
  5
12632
331
1233E
  5
125DF
331
122FF
  5
12331
331
122C8
  5
122F6
331
12289
  5
122B2
331
12213
  5
12221
331
12252
  5
12264
331
12B52
  5
12B65
331
12346
  5
125E8
331
12307
  5
12338
331
122D0
  5
122FE
331
12291
  5
122C1
331
1225A
  5
1227A
331
1221B
  5
12229
331
127C1
  5
129A8
331
12958
  5
129E6
331
12A9C
  5
12B5E
331
12F9C
  5
127A5
331
1234E
  5
125F3
331
12B5A
  5
12BB8
331
1230F
  5
12343
331
122D8
  5
12306
331
12299
  5
122C8
331
12262
  5
12285
331
12223
  5
12231
331
1299F
  5
129ED
331
12504
  5
12641
331
12BBB
  5
12F19
331
12455
  5
12633
331
12A5D
  5
12B52
331
12317
  5
1234A
331
129A7
  5
12A1D
331
12FCC
  5
12272
331
12EE6
  5
121C3
331
1279C
  5
12976
331
12631
  5
127A3
331
126F6
  5
127C1
331
127A4
  5
1299B
331
121F2
  5
12204
331
121B3
  5
121B3
331
121BB
  5
121BB
331
12202
  5
12210
331
121C3
  5
121C8
331
122E0
  5
1230F
331
122A1
  5
122D0
331
1226A
  5
12294
331
121CB
  5
121D6
331
1222B
  5
12239
331
12B6A
  5
12EE4
331
1231F
  5
123F9
331
122E8
  5
12317
331
122A9
  5
122D9
331
12272
  5
1229A
331
12233
  5
12241
331
12970
  5
125B0
331
12A65
  5
12B20
331
122F0
  5
12322
331
122B1
  5
122E0
331
1227A
  5
122A0
331
1223B
  5
1224D
331
129E7
  5
12A59
331
1232F
  5
12503
331
122B9
  5
122E8
331
12243
  5
12256
331
12337
  5
125C8
331
12FE4
  5
122AA
331
125DA
  5
1272C
331
125E2
  5
12797
331
AD8
  5
AD8
331
121D3
  5
121DC
331
12194
  5
12194
331
125F2
  5
127A0
331
12690
  5
12242
331
121DB
  5
121E5
331
1219C
  5
1219C
331
BC8
  5
D253
331
12795
  5
12928
331
1272E
  5
121F0
331
121A4
  5
121A4
331
122F8
  5
1232A
331
122C1
  5
122F0
331
12282
  5
122A9
331
121EB
  5
121F9
331
121AC
  5
121AC
331
1220C
  5
1221A
331
1224B
  5
12260
331
12300
  5
12332
331
122C9
  5
122F7
331
1228A
  5
122B3
331
12253
  5
12266
331
12214
  5
12222
331
12B53
  5
12B66
331
12347
  5
125EC
331
12308
  5
12339
331
122D1
  5
122FF
331
12292
  5
122C2
331
1225B
  5
1227B
331
1221C
  5
1222A
331
127C2
  5
129A9
331
12A4E
  5
12AED
331
12F9D
  5
12292
331
12B5B
  5
12BBA
331
122D9
  5
12307
331
1229A
  5
122C9
331
12263
  5
12286
331
12224
  5
12232
331
129A0
  5
129EE
331
12A56
  5
12AB8
331
12BBC
  5
12F79
331
12B63
  5
12BE8
331
12A5E
  5
12B53
331
12FCD
  5
12279
331
12EE7
  5
121CD
331
127A5
  5
1299C
331
121F3
  5
12205
331
121B4
  5
121B4
331
127AD
  5
129A0
331
121FB
  5
1220A
331
12203
  5
12211
331
121C4
  5
121CB
331
12318
  5
1234B
331
122E1
  5
12310
331
122A2
  5
122D1
331
121CC
  5
121D7
331
1222C
  5
1223A
331
129A8
  5
12A3F
331
12B6B
  5
12EE5
331
12320
  5
123FA
331
129E0
  5
12A50
331
122E9
  5
12318
331
122AA
  5
122DA
331
12234
  5
12246
331
12971
  5
1258E
331
12A66
  5
12A68
331
12328
  5
1243A
331
122F1
  5
12323
331
122B2
  5
122E1
331
1227B
  5
122A5
331
1223C
  5
1224F
331
129E8
  5
12A5A
331
12330
  5
12527
331
122BA
  5
122E9
331
12244
  5
12258
331
125DB
  5
1272E
331
125E3
  5
12798
331
125EB
  5
12762
331
AD9
  5
BC8
331
121D4
  5
121DD
331
125F3
  5
127A1
331
12691
  5
12243
331
12195
  5
12195
331
121DC
  5
121E6
331
12796
  5
12958
331
1272F
  5
127C3
331
1219D
  5
1219D
331
121A5
  5
121A5
331
12A00
  5
12A60
331
12338
  5
125C9
331
122F9
  5
1232B
331
127B3
  5
129A5
331
122C2
  5
122F1
331
12283
  5
122AB
331
121EC
  5
121FC
331
1220D
  5
1221B
331
1224C
  5
12261
331
12A47
  5
12A83
331
12AED
  5
12351
331
12340
  5
125E0
331
122CA
  5
122F8
331
1228B
  5
122B4
331
12254
  5
12267
331
12215
  5
12223
331
12B54
  5
12B67
331
12A4F
  5
12AEE
331
12348
  5
125EE
331
12309
  5
1233A
331
127C3
  5
129AA
331
122D2
  5
12300
331
1225C
  5
1227E
331
1221D
  5
1222B
331
12F9E
  5
12290
331
12B5C
  5
12BBB
331
129A1
  5
129EF
331
12A57
  5
12A6A
331
12311
  5
12344
331
122DA
  5
12309
331
1229B
  5
122CA
331
12264
  5
12287
331
12225
  5
12233
331
12BBD
  5
12F82
331
12B64
  5
12BE9
331
12A5F
  5
12B54
331
12506
  5
12642
331
12BE5
  5
12F9C
331
12FCE
  5
12265
331
1279E
  5
12977
331
127A6
  5
1299D
331
125D4
  5
12693
331
121F4
  5
12206
331
127AE
  5
129A1
331
121B5
  5
121B5
331
121FC
  5
1220B
331
121BD
  5
121BD
331
12204
  5
12212
331
121C5
  5
121CC
331
129A9
  5
12A40
331
12319
  5
1234D
331
122E2
  5
12311
331
122A3
  5
122D2
331
1226C
  5
12295
331
1222D
  5
1223B
331
12B6C
  5
12EE6
331
129E1
  5
12A52
331
12321
  5
123FB
331
122EA
  5
1231B
331
12274
  5
1229B
331
12235
  5
12247
331
129E9
  5
12A5B
331
12400
  5
12631
331
12329
  5
12455
331
122F2
  5
12324
331
122B3
  5
122E2
331
1227C
  5
122A6
331
1223D
  5
12250
331
12BFD
  5
12FCE
331
122BB
  5
122EA
331
12245
  5
12259
331
125DC
  5
1272F
331
125E4
  5
126F6
331
125EC
  5
12799
331
121D5
  5
121DF
331
1255E
  5
1268F
331
125F4
  5
127A2
331
12692
  5
12245
331
12196
  5
12196
331
121DD
  5
121E8
331
1219E
  5
1219E
331
12797
  5
12970
331
BCA
  5
D254
331
121A6
  5
121A6
331
12A40
  5
12A62
331
12339
  5
125D7
331
122FA
  5
1232C
331
127B4
  5
129A6
331
122C3
  5
122F2
331
12284
  5
122AD
331
121ED
  5
12200
331
121AE
  5
121AE
331
1220E
  5
1221C
331
12AEE
  5
12B60
331
12341
  5
125E1
331
12302
  5
12333
331
122CB
  5
122F9
331
1228C
  5
122B7
331
12255
  5
12268
331
12216
  5
12224
331
12A50
  5
12A66
331
12B55
  5
12B68
331
1299A
  5
129E8
331
12349
  5
125EF
331
1230A
  5
1233B
331
127C4
  5
129AB
331
122D3
  5
12301
331
12294
  5
122C3
331
1225D
  5
1227F
331
1221E
  5
1222C
331
12D59
  5
12FCF
331
12F9F
  5
127A4
331
12A58
  5
12A65
331
129A2
  5
12A00
331
12B5D
  5
12BBC
331
12924
  5
129E1
331
122DB
  5
1230A
331
1229C
  5
122CB
331
12226
  5
12234
331
12B65
  5
12BEA
331
12BE6
  5
12F9D
331
12FCF
  5
122A4
331
12576
  5
12690
331
125D5
  5
126AB
331
127AF
  5
129A2
331
1263C
  5
121BF
331
12760
  5
121FD
331
121B6
  5
121B6
331
12205
  5
12213
331
121C6
  5
121D1
331
12A60
  5
12B55
331
129AA
  5
12A41
331
1231A
  5
1234E
331
122E3
  5
12312
331
122A4
  5
122D3
331
1226D
  5
12296
331
1222E
  5
1223C
331
12B1E
  5
125E4
331
12A68
  5
12B5A
331
129E2
  5
12A53
331
12973
  5
1243D
331
12322
  5
123FC
331
122EB
  5
1231C
331
122AC
  5
122DB
331
12236
  5
12248
331
129EA
  5
12A5C
331
12527
  5
12644
331
1232A
  5
1246E
331
122F3
  5
12325
331
122B4
  5
122E3
331
1227D
  5
122A7
331
1223E
  5
12251
331
124D0
  5
12634
331
12332
  5
12528
331
122BC
  5
122EB
331
12246
  5
1225A
331
1258E
  5
12691
331
125DD
  5
12760
331
13013
  5
122C5
331
121D6
  5
121E0
331
12197
  5
12197
331
12693
  5
127B0
331
121DE
  5
121E9
331
1219F
  5
1219F
331
121A7
  5
121A7
331
12A41
  5
12A63
331
127B5
  5
129A3
331
1233A
  5
125D8
331
1220F
  5
1221D
331
124E8
  5
12635
331
12A49
  5
12AEB
331
12342
  5
125E3
331
12303
  5
12334
331
122CC
  5
122FA
331
12256
  5
12269
331
12217
  5
12225
331
12A51
  5
12A64
331
12B56
  5
12B69
331
1299B
  5
129E9
331
1234A
  5
125F1
331
1230B
  5
1233D
331
127C5
  5
129AC
331
122D4
  5
12302
331
1225E
  5
12280
331
1221F
  5
1222D
331
12D5A
  5
12FE3
331
12A59
  5
12B1E
331
129A3
  5
12A18
331
12B5E
  5
12BBD
331
12313
  5
12346
331
12925
  5
129E2
331
122DC
  5
1230B
331
1229D
  5
122CC
331
12266
  5
12288
331
12227
  5
12235
331
12B66
  5
12BFD
331
12BE7
  5
12F9E
331
12798
  5
12971
331
127A0
  5
12924
331
126AB
  5
127B3
331
127A8
  5
1299E
331
125D6
  5
126C4
331
121F6
  5
12207
331
12761
  5
121FB
331
121FE
  5
1220C
331
121BF
  5
121C5
331
12206
  5
12214
331
121C7
  5
121D2
331
129AB
  5
12A43
331
12A61
  5
12B56
331
12AB8
  5
12B5F
331
1231B
  5
12350
331
122E4
  5
12313
331
122A5
  5
122D6
331
1226E
  5
12298
331
121CF
  5
121D8
331
1222F
  5
1223D
331
129E3
  5
12A54
331
12974
  5
124E8
331
12B1F
  5
125DE
331
122EC
  5
1231D
331
122AD
  5
122DC
331
12237
  5
12249
331
129EB
  5
12A5D
331
12528
  5
12646
331
1232B
  5
1246F
331
122F4
  5
12326
331
122B5
  5
122E4
331
1223F
  5
12252
331
12333
  5
12529
331
122BD
  5
122EC
331
12247
  5
1225B
331
125DE
  5
12761
331
13014
  5
122BC
331
12712
  5
127C2
331
125EE
  5
1279A
331
121D7
  5
121E1
331
12198
  5
12198
331
121A0
  5
121A0
331
121DF
  5
121EA
331
12208
  5
12216
331
12A42
  5
12A6B
331
1233B
  5
125D9
331
122C5
  5
122F3
331
12286
  5
122B0
331
12210
  5
1221E
331
12304
  5
12335
331
122CD
  5
122FB
331
1228E
  5
122BA
331
12257
  5
1226D
331
12218
  5
12226
331
12B57
  5
12B6A
331
1299C
  5
129EA
331
1230C
  5
1233E
331
127C6
  5
129AD
331
122D5
  5
12303
331
12296
  5
122C4
331
1225F
  5
12281
331
12220
  5
1222E
331
12BB8
  5
12EE7
331
12D5B
  5
12FE4
331
12B5F
  5
12BE5
331
129A4
  5
12A19
331
12A1B
  5
125F0
331
12A5A
  5
12B1F
331
12501
  5
12636
331
12314
  5
12347
331
12926
  5
129E3
331
122DD
  5
1230C
331
1229E
  5
122CE
331
12267
  5
1228D
331
12B67
  5
12D59
331
12799
  5
12973
331
127A1
  5
127C7
331
121B0
  5
121B0
331
12636
  5
127A8
331
125D7
  5
126C5
331
121F7
  5
12208
331
12762
  5
127C4
331
126C4
  5
127B4
331
121C0
  5
121C6
331
121FF
  5
1220D
331
121C8
  5
121D3
331
12207
  5
12215
331
12228
  5
12236
331
12A62
  5
12B57
331
129AC
  5
12A49
331
1231C
  5
123D4
331
122E5
  5
12314
331
122A6
  5
122D7
331
1226F
  5
12299
331
12230
  5
1223E
331
12BE8
  5
12F9F
331
12B20
  5
12B61
331
129E4
  5
12A56
331
12975
  5
12439
331
12A6A
  5
12B5B
331
122ED
  5
1231E
331
122AE
  5
122DD
331
12277
  5
1229C
331
12238
  5
1224A
331
129EC
  5
12A5E
331
1232C
  5
12501
331
122F5
  5
12327
331
122B6
  5
122E5
331
12240
  5
12253
331
12529
  5
1265E
331
12334
  5
12542
331
122BE
  5
122ED
331
125DF
  5
1277A
331
12646
  5
127AC
331
1277A
  5
127C5
331
13015
  5
122B5
331
125E7
  5
1272B
331
121D0
  5
121D9
331
125EF
  5
1279B
331
121D8
  5
121E2
331
12199
  5
12199
331
12792
  5
127C6
331
1265E
  5
127AD
331
121E0
  5
121F1
331
121A1
  5
121A1
331
121E8
  5
121F4
331
12209
  5
12217
331
12248
  5
1225C
331
1233C
  5
125DA
331
122FD
  5
1232D
331
122C6
  5
122F4
331
12211
  5
1221F
331
12250
  5
12262
331
12344
  5
125E6
331
12305
  5
12336
331
127BF
  5
1299F
331
122CE
  5
122FC
331
1228F
  5
122BD
331
12258
  5
1226E
331
12219
  5
12227
331
12B58
  5
12B6B
331
1299D
  5
129EB
331
1230D
  5
1233F
331
127C7
  5
129E0
331
122D6
  5
12304
331
12297
  5
122C6
331
12260
  5
12282
331
12221
  5
1222F
331
12B60
  5
12BE6
331
12A1C
  5
125E9
331
12A5B
  5
12B39
331
129A5
  5
12A1B
331
123D4
  5
125F4
331
12315
  5
12348
331
122DE
  5
1230D
331
12502
  5
12637
331
12EE4
  5
121D0
331
125B0
  5
12692
331
1279A
  5
12974
331
125C8
  5
122D5
331
127A2
  5
12940
331
121B1
  5
121B1
331
121F0
  5
12201
331
12637
  5
127A6
331
12676
  5
127AE
331
121B9
  5
121B9
331
121F8
  5
12209
331
126C5
  5
127B5
331
12200
  5
1220E
331
ACE
  5
ACE
331
12268
  5
1228E
331
121C9
  5
121D4
331
12229
  5
12237
331
12B68
  5
12D5A
331
129AD
  5
12A4E
331
12A63
  5
12B58
331
122E6
  5
12315
331
122A7
  5
122D8
331
12231
  5
1223F
331
129E5
  5
12A57
331
12A6B
  5
12B5C
331
12976
  5
123FE
331
12325
  5
123FF
331
122EE
  5
12320
331
122AF
  5
122DE
331
12278
  5
1229D
331
12239
  5
1224B
331
12BE9
  5
12FCC
331
129ED
  5
12A5F
331
1232D
  5
12502
331
122F6
  5
12328
331
122B7
  5
122E6
331
12241
  5
12254
331
129FD
  5
125E2
331
12A83
  5
12B5D
331
122BF
  5
122EE
331
125D8
  5
126C6
331
125E0
  5
12792
331
12542
  5
12676
331
13016
  5
122BF
331
125E8
  5
12712
331
121D1
  5
121DA
331
12192
  5
12192
331
125F0
  5
1279C
331
121D9
  5
121E3
331
1219A
  5
1219A
331
1272C
  5
121F2
331
12793
  5
12925
331
121A2
  5
121A2
331
127B0
  5
129A4
331
121E9
  5
121F5
331
121AA
  5
121AA
331
1220A
  5
12218
331
12249
  5
1225E
331
12B39
  5
12B63
331
12A44
  5
12A9C
331
1233D
  5
125DD
331
122FE
  5
1232F
331
122C7
  5
122F5
331
12288
  5
122B1
331
12212
  5
12220
331
12251
  5
12263
331
12B51
  5
12B64
331
12345
  5
125E7
331
12306
  5
12337
331
127C0
  5
129A7
331
122CF
  5
122FD
331
12259
  5
12278
331
1221A
  5
12228
331
12B59
  5
12B6C
331
1299E
  5
129EC
331
1234D
  5
125F2
331
1230E
  5
12340
331
122D7
  5
12305
331
12298
  5
122C7
331
12261
  5
12283
331
12222
  5
12230
331
12B61
  5
12BE7
331
129A6
  5
12A1C
331
12A1D
  5
12A61
331
12A5C
  5
12B51
331
12316
  5
12349
331
122DF
  5
1230E
331
12503
  5
1263C
331
12BBA
  5
12EF2
331
12EE5
  5
121C4
  0
DIMASSOC
  5
123EB
102
{ACAD_REACTORS
330
123E1
102
}
330
123E1
100
AcDbDimAssoc
330
123D4
 90
        3
 70
     0
 71
     0
  1
AcDbOsnapPointRef
 72
    11
331
1226A
 73
     2
 91
        0
 40
0.0225740640452616
 10
0.0
 20
0.0
 30
0.0
332
12259
 74
     2
 92
        0
 75
     0
  1
AcDbOsnapPointRef
 72
     5
331
1227A
 73
     2
 91
        0
 40
6.283185307179584
 10
0.0
 20
0.0
 30
0.0
 75
     0
  0
DIMASSOC
  5
12454
102
{ACAD_REACTORS
330
1244A
102
}
330
1244A
100
AcDbDimAssoc
330
1243D
 90
        1
 70
     0
 71
     0
  1
AcDbOsnapPointRef
 72
     2
331
12269
 73
     2
 91
        0
 40
1.570796326794897
 10
0.0
 20
0.0
 30
0.0
 75
     0
  0
DIMASSOC
  5
1246C
102
{ACAD_REACTORS
330
12462
102
}
330
12462
100
AcDbDimAssoc
330
12455
 90
        3
 70
     0
 71
     0
  1
AcDbOsnapPointRef
 72
    11
331
12288
 73
     2
 91
        0
 40
0.918846930015724
 10
0.0
 20
0.0
 30
0.0
332
12252
 74
     2
 92
        0
 75
     0
  1
AcDbOsnapPointRef
 72
     2
331
12258
 73
     2
 91
        0
 40
4.712389135473348
 10
0.0
 20
0.0
 30
0.0
 75
     0
  0
DIMASSOC
  5
124FF
102
{ACAD_REACTORS
330
124F5
102
}
330
124F5
100
AcDbDimAssoc
330
124E8
 90
        3
 70
     0
 71
     0
  1
AcDbOsnapPointRef
 72
     1
331
122D4
 73
     2
 91
        0
 40
1.0
 10
0.0
 20
0.0
 30
2.000000000000000E+50
 75
     0
  1
AcDbOsnapPointRef
 72
     1
331
122C5
 73
     2
 91
        0
 40
1.0
 10
0.0
 20
0.0
 30
2.000000000000000E+50
 75
     0
  0
DIMASSOC
  5
12540
102
{ACAD_REACTORS
330
12536
102
}
330
12536
100
AcDbDimAssoc
330
12529
 90
        3
 70
     0
 71
     0
  1
AcDbOsnapPointRef
 72
    13
331
12527
 73
     2
 91
        0
 40
0.0
 10
0.0
 20
0.0
 30
2.000000000000000E+50
 75
     0
  1
AcDbOsnapPointRef
 72
     8
331
12528
 73
     2
 91
        0
 40
0.0
 10
0.0
 20
0.0
 30
0.0
 75
     1
  1
AcDbOsnapPointRef
 72
    13
331
12527
 73
     2
 91
        0
 40
0.0
 10
0.0
 20
0.0
 30
2.000000000000000E+50
 75
     0
  0
DIMASSOC
  5
1255D
102
{ACAD_REACTORS
330
12551
102
}
330
12551
100
AcDbDimAssoc
330
12542
 90
        3
 70
     0
 71
     0
  1
AcDbOsnapPointRef
 72
     8
331
12299
 73
     2
 91
        0
 40
0.0
 10
0.0
 20
0.0
 30
0.0
 75
     1
  1
AcDbOsnapPointRef
 72
     0
 40
0.0
 10
427.966964530939
 20
586.9189786630737
 30
0.0
 75
     0
  1
AcDbOsnapPointRef
 72
     8
331
12298
 73
     2
 91
        0
 40
0.0
 10
0.0
 20
0.0
 30
0.0
 75
     1
  1
AcDbOsnapPointRef
 72
     8
331
12299
 73
     2
 91
        0
 40
0.0
 10
0.0
 20
0.0
 30
0.0
 75
     1
  1
AcDbOsnapPointRef
 72
     0
 40
0.0
 10
427.966964530939
 20
586.9189786630737
 30
0.0
 75
     0
  0
DIMASSOC
  5
1258D
102
{ACAD_REACTORS
330
12583
102
}
330
12583
100
AcDbDimAssoc
330
12576
 90
        3
 70
     0
 71
     0
  1
AcDbOsnapPointRef
 72
    10
331
122B1
 73
     2
 91
        0
 40
0.8086370681205741
 10
0.0
 20
0.0
 30
0.0
 75
     0
  1
AcDbOsnapPointRef
 72
     1
331
122AE
 73
     2
 91
        0
 40
6.283185307179584
 10
0.0
 20
0.0
 30
2.000000000000000E+50
 75
     0
  0
DIMASSOC
  5
125A5
102
{ACAD_REACTORS
330
1259B
102
}
330
1259B
100
AcDbDimAssoc
330
1258E
 90
        2
 70
     0
 71
     0
  1
AcDbOsnapPointRef
 72
    13
331
122AD
 73
     2
 91
        0
 40
0.0
 10
0.0
 20
0.0
 30
2.000000000000000E+50
 75
     0
  0
DIMASSOC
  5
1260B
102
{ACAD_REACTORS
330
12601
102
}
330
12601
100
AcDbDimAssoc
330
125F4
 90
        3
 70
     0
 71
     0
  1
AcDbOsnapPointRef
 72
    11
331
121B5
 73
     2
 91
        0
 40
3.144925993093033
 10
0.0
 20
0.0
 30
0.0
332
121AE
 74
     2
 92
        0
 75
     0
  1
AcDbOsnapPointRef
 72
     4
331
121D3
 73
     2
 91
        0
 40
0.0
 10
0.0
 20
0.0
 30
0.0
 75
     0
  0
DIMASSOC
  5
1265D
102
{ACAD_REACTORS
330
12653
102
}
330
12653
100
AcDbDimAssoc
330
12646
 90
        3
 70
     0
 71
     0
  1
AcDbOsnapPointRef
 72
     1
331
12637
 73
     2
 91
        0
 40
1.0
 10
0.0
 20
0.0
 30
2.000000000000000E+50
 75
     0
  1
AcDbOsnapPointRef
 72
     8
331
12636
 73
     2
 91
        0
 40
1.000000000008989
 10
0.0
 20
0.0
 30
0.0
 75
     1
  1
AcDbOsnapPointRef
 72
     1
331
12637
 73
     2
 91
        0
 40
1.0
 10
0.0
 20
0.0
 30
2.000000000000000E+50
 75
     0
  0
DIMASSOC
  5
12675
102
{ACAD_REACTORS
330
1266B
102
}
330
1266B
100
AcDbDimAssoc
330
1265E
 90
        3
 70
     0
 71
     0
  1
AcDbOsnapPointRef
 72
     2
331
121C5
 73
     2
 91
        0
 40
1.570796326794881
 10
0.0
 20
0.0
 30
0.0
 75
     0
  1
AcDbOsnapPointRef
 72
     8
331
1263C
 73
     2
 91
        0
 40
4.71238898038894
 10
0.0
 20
0.0
 30
0.0
 75
     1
  1
AcDbOsnapPointRef
 72
     2
331
121C5
 73
     2
 91
        0
 40
1.570796326794881
 10
0.0
 20
0.0
 30
0.0
 75
     0
  0
DIMASSOC
  5
1268D
102
{ACAD_REACTORS
330
12683
102
}
330
12683
100
AcDbDimAssoc
330
12676
 90
        3
 70
     0
 71
     0
  1
AcDbOsnapPointRef
 72
     4
331
121C9
 73
     2
 91
        0
 40
0.0
 10
0.0
 20
0.0
 30
0.0
 75
     0
  1
AcDbOsnapPointRef
 72
     5
331
121BF
 73
     2
 91
        0
 40
4.712388980384688
 10
0.0
 20
0.0
 30
0.0
 75
     0
  0
DIMASSOC
  5
126AA
102
{ACAD_REACTORS
330
126A0
102
}
330
126A0
100
AcDbDimAssoc
330
12693
 90
        3
 70
     0
 71
     0
  1
AcDbOsnapPointRef
 72
    10
331
12690
 73
     2
 91
        0
 40
0.0818675094844593
 10
0.0
 20
0.0
 30
0.0
 75
     0
  1
AcDbOsnapPointRef
 72
     8
331
1268F
 73
     2
 91
        0
 40
0.0818675094844638
 10
0.0
 20
0.0
 30
0.0
 75
     1
  1
AcDbOsnapPointRef
 72
    10
331
12690
 73
     2
 91
        0
 40
0.0818675094844593
 10
0.0
 20
0.0
 30
0.0
 75
     0
  0
DIMASSOC
  5
126C2
102
{ACAD_REACTORS
330
126B8
102
}
330
126B8
100
AcDbDimAssoc
330
126AB
 90
        3
 70
     0
 71
     0
  1
AcDbOsnapPointRef
 72
     1
331
1219A
 73
     2
 91
        0
 40
1.0
 10
0.0
 20
0.0
 30
2.000000000000000E+50
 75
     0
  1
AcDbOsnapPointRef
 72
     1
331
121A3
 73
     2
 91
        0
 40
1.0
 10
0.0
 20
0.0
 30
2.000000000000000E+50
 75
     0
  0
DIMASSOC
  5
126DD
102
{ACAD_REACTORS
330
126D3
102
}
330
126D3
100
AcDbDimAssoc
330
126C6
 90
        3
 70
     0
 71
     0
  1
AcDbOsnapPointRef
 72
    11
331
1223B
 73
     2
 91
        0
 40
0.0
 10
0.0
 20
0.0
 30
0.0
332
1223C
 74
     2
 92
        0
 75
     0
  1
AcDbOsnapPointRef
 72
     8
331
12243
 73
     2
 91
        0
 40
0.0
 10
0.0
 20
0.0
 30
0.0
 75
     1
  1
AcDbOsnapPointRef
 72
    11
331
1223B
 73
     2
 91
        0
 40
0.0
 10
0.0
 20
0.0
 30
0.0
332
1223C
 74
     2
 92
        0
 75
     0
  0
DIMASSOC
  5
126F5
102
{ACAD_REACTORS
330
126EB
102
}
330
126EB
100
AcDbDimAssoc
330
126DE
 90
        3
 70
     0
 71
     0
  1
AcDbOsnapPointRef
 72
    13
331
1223E
 73
     2
 91
        0
 40
0.0
 10
0.0
 20
0.0
 30
2.000000000000000E+50
 75
     0
  1
AcDbOsnapPointRef
 72
    13
331
12248
 73
     2
 91
        0
 40
0.0
 10
0.0
 20
0.0
 30
2.000000000000000E+50
 75
     0
  0
DIMASSOC
  5
12711
102
{ACAD_REACTORS
330
12705
102
}
330
12705
100
AcDbDimAssoc
330
126F6
 90
        3
 70
     0
 71
     0
  1
AcDbOsnapPointRef
 72
    13
331
1224A
 73
     2
 91
        0
 40
0.0
 10
0.0
 20
0.0
 30
2.000000000000000E+50
 75
     0
  1
AcDbOsnapPointRef
 72
    13
331
12247
 73
     2
 91
        0
 40
4.712388980384688
 10
0.0
 20
0.0
 30
2.000000000000000E+50
 75
     0
  0
DIMASSOC
  5
12729
102
{ACAD_REACTORS
330
1271F
102
}
330
1271F
100
AcDbDimAssoc
330
12712
 90
        3
 70
     0
 71
     0
  1
AcDbOsnapPointRef
 72
     1
331
12246
 73
     2
 91
        0
 40
1.570796326794896
 10
0.0
 20
0.0
 30
2.000000000000000E+50
 75
     0
  1
AcDbOsnapPointRef
 72
     1
331
12235
 73
     2
 91
        0
 40
1.0
 10
0.0
 20
0.0
 30
2.000000000000000E+50
 75
     0
  0
DIMASSOC
  5
12746
102
{ACAD_REACTORS
330
1273C
102
}
330
1273C
100
AcDbDimAssoc
330
1272F
 90
        2
 70
     0
 71
     0
  1
AcDbOsnapPointRef
 72
    13
331
121EA
 73
     2
 91
        0
 40
0.0
 10
0.0
 20
0.0
 30
2.000000000000000E+50
 75
     0
  0
DIMASSOC
  5
12779
102
{ACAD_REACTORS
330
1276F
102
}
330
1276F
100
AcDbDimAssoc
330
12762
 90
        1
 70
     0
 71
     0
  1
AcDbOsnapPointRef
 72
     1
331
12232
 73
     2
 91
        0
 40
1.0
 10
0.0
 20
0.0
 30
2.000000000000000E+50
 75
     0
  0
DIMASSOC
  5
12791
102
{ACAD_REACTORS
330
12787
102
}
330
12787
100
AcDbDimAssoc
330
1277A
 90
        3
 70
     0
 71
     0
  1
AcDbOsnapPointRef
 72
    10
331
121EC
 73
     2
 91
        0
 40
0.8498090956038522
 10
0.0
 20
0.0
 30
0.0
 75
     0
  1
AcDbOsnapPointRef
 72
     8
331
121EB
 73
     2
 91
        0
 40
0.8498090956038428
 10
0.0
 20
0.0
 30
0.0
 75
     1
  1
AcDbOsnapPointRef
 72
    10
331
121EC
 73
     2
 91
        0
 40
0.8498090956038522
 10
0.0
 20
0.0
 30
0.0
 75
     0
  0
DIMASSOC
  5
1293F
102
{ACAD_REACTORS
330
12935
102
}
330
12935
100
AcDbDimAssoc
330
12928
 90
        3
 70
     0
 71
     0
  1
AcDbOsnapPointRef
 72
     2
331
12325
 73
     2
 91
        0
 40
3.141592653585233
 10
0.0
 20
0.0
 30
0.0
 75
     0
  1
AcDbOsnapPointRef
 72
     8
331
1232F
 73
     2
 91
        0
 40
6.283185307186593
 10
0.0
 20
0.0
 30
0.0
 75
     1
  1
AcDbOsnapPointRef
 72
     2
331
12325
 73
     2
 91
        0
 40
3.141592653585233
 10
0.0
 20
0.0
 30
0.0
 75
     0
  0
DIMASSOC
  5
12957
102
{ACAD_REACTORS
330
1294D
102
}
330
1294D
100
AcDbDimAssoc
330
12940
 90
        2
 70
     0
 71
     0
  1
AcDbOsnapPointRef
 72
     5
331
12329
 73
     2
 91
        0
 40
4.712388980384688
 10
0.0
 20
0.0
 30
0.0
 75
     0
  0
DIMASSOC
  5
1296F
102
{ACAD_REACTORS
330
12965
102
}
330
12965
100
AcDbDimAssoc
330
12958
 90
        3
 70
     0
 71
     0
  1
AcDbOsnapPointRef
 72
     1
331
1232B
 73
     2
 91
        0
 40
1.570796326792168
 10
0.0
 20
0.0
 30
2.000000000000000E+50
 75
     0
  1
AcDbOsnapPointRef
 72
    11
331
12336
 73
     2
 91
        0
 40
0.6522125471593127
 10
0.0
 20
0.0
 30
0.0
332
12326
 74
     2
 92
        0
 75
     0
  0
DIMASSOC
  5
1298E
102
{ACAD_REACTORS
330
12984
102
}
330
12984
100
AcDbDimAssoc
330
12977
 90
        3
 70
     0
 71
     0
  1
AcDbOsnapPointRef
 72
     1
331
12973
 73
     2
 91
        0
 40
6.283185307179588
 10
0.0
 20
0.0
 30
2.000000000000000E+50
 75
     0
  1
AcDbOsnapPointRef
 72
     8
331
12971
 73
     2
 91
        0
 40
1.000000000024297
 10
0.0
 20
0.0
 30
0.0
 75
     1
  1
AcDbOsnapPointRef
 72
     1
331
12973
 73
     2
 91
        0
 40
6.283185307179588
 10
0.0
 20
0.0
 30
2.000000000000000E+50
 75
     0
  0
DIMASSOC
  5
12A17
102
{ACAD_REACTORS
330
12A0D
102
}
330
12A0D
100
AcDbDimAssoc
330
12A00
 90
        3
 70
     0
 71
     0
  1
AcDbOsnapPointRef
 72
     1
331
1234E
 73
     2
 91
        0
 40
1.0
 10
0.0
 20
0.0
 30
2.000000000000000E+50
 75
     0
  1
AcDbOsnapPointRef
 72
     1
331
1234D
 73
     2
 91
        0
 40
1.0
 10
0.0
 20
0.0
 30
2.000000000000000E+50
 75
     0
  0
DIMASSOC
  5
12A34
102
{ACAD_REACTORS
330
12A2A
102
}
330
12A2A
100
AcDbDimAssoc
330
12A1D
 90
        3
 70
     0
 71
     0
  1
AcDbOsnapPointRef
 72
    10
331
12349
 73
     2
 91
        0
 40
0.9061706768281311
 10
0.0
 20
0.0
 30
0.0
 75
     0
  1
AcDbOsnapPointRef
 72
     8
331
12346
 73
     2
 91
        0
 40
0.9061706768281302
 10
0.0
 20
0.0
 30
0.0
 75
     1
  1
AcDbOsnapPointRef
 72
    10
331
12349
 73
     2
 91
        0
 40
0.9061706768281311
 10
0.0
 20
0.0
 30
0.0
 75
     0
  0
DIMASSOC
  5
12A82
102
{ACAD_REACTORS
330
12A78
102
}
330
12A78
100
AcDbDimAssoc
330
12A6B
 90
        3
 70
     0
 71
     0
  1
AcDbOsnapPointRef
 72
     1
331
12A56
 73
     2
 91
        0
 40
1.0
 10
0.0
 20
0.0
 30
2.000000000000000E+50
 75
     0
  1
AcDbOsnapPointRef
 72
     1
331
12A61
 73
     2
 91
        0
 40
1.0
 10
0.0
 20
0.0
 30
2.000000000000000E+50
 75
     0
  0
DIMASSOC
  5
12A9A
102
{ACAD_REACTORS
330
12A90
102
}
330
12A90
100
AcDbDimAssoc
330
12A83
 90
        3
 70
     0
 71
     0
  1
AcDbOsnapPointRef
 72
    10
331
12A47
 73
     2
 91
        0
 40
0.7160939784015356
 10
0.0
 20
0.0
 30
0.0
 75
     0
  1
AcDbOsnapPointRef
 72
     8
331
12A5F
 73
     2
 91
        0
 40
0.7160939784015356
 10
0.0
 20
0.0
 30
0.0
 75
     1
  1
AcDbOsnapPointRef
 72
    10
331
12A47
 73
     2
 91
        0
 40
0.7160939784015356
 10
0.0
 20
0.0
 30
0.0
 75
     0
  0
DIMASSOC
  5
12AB7
102
{ACAD_REACTORS
330
12AAB
102
}
330
12AAB
100
AcDbDimAssoc
330
12A9C
 90
        3
 70
     0
 71
     0
  1
AcDbOsnapPointRef
 72
     1
331
12A62
 73
     2
 91
        0
 40
7.896258043130981
 10
0.0
 20
0.0
 30
2.000000000000000E+50
 75
     0
  1
AcDbOsnapPointRef
 72
     5
331
12A62
 73
     2
 91
        0
 40
4.712388980384688
 10
0.0
 20
0.0
 30
0.0
 75
     0
  0
DIMASSOC
  5
12ACF
102
{ACAD_REACTORS
330
12AC5
102
}
330
12AC5
100
AcDbDimAssoc
330
12AB8
 90
        3
 70
     0
 71
     0
  1
AcDbOsnapPointRef
 72
     1
331
12A5D
 73
     2
 91
        0
 40
7.853981633974482
 10
0.0
 20
0.0
 30
2.000000000000000E+50
 75
     0
  1
AcDbOsnapPointRef
 72
    13
331
12A5B
 73
     2
 91
        0
 40
4.712388980384688
 10
0.0
 20
0.0
 30
2.000000000000000E+50
 75
     0
  0
DIMASSOC
  5
12B05
102
{ACAD_REACTORS
330
12AFB
102
}
330
12AFB
100
AcDbDimAssoc
330
12AEE
 90
        3
 70
     0
 71
     0
  1
AcDbOsnapPointRef
 72
     1
331
1231B
 73
     2
 91
        0
 40
1.313487609501786
 10
0.0
 20
0.0
 30
2.000000000000000E+50
 75
     0
  1
AcDbOsnapPointRef
 72
    13
331
122EF
 73
     2
 91
        0
 40
0.0
 10
0.0
 20
0.0
 30
2.000000000000000E+50
 75
     0
  0
DIMASSOC
  5
12B37
102
{ACAD_REACTORS
330
12B2D
102
}
330
12B2D
100
AcDbDimAssoc
330
12B20
 90
        3
 70
     0
 71
     0
  1
AcDbOsnapPointRef
 72
    13
331
12B1F
 73
     2
 91
        0
 40
4.712388980384688
 10
0.0
 20
0.0
 30
2.000000000000000E+50
 75
     0
  1
AcDbOsnapPointRef
 72
    13
331
122E9
 73
     2
 91
        0
 40
0.0
 10
0.0
 20
0.0
 30
2.000000000000000E+50
 75
     0
  0
LAYOUT
  5
36
102
{ACAD_XDICTIONARY
360
13195
102
}
102
{ACAD_REACTORS
330
2F
102
}
330
2F
100
AcDbPlotSettings
  1

  2
HP LaserJet 5200L PCL 5e
  4

  6

 40
0.0
 41
0.0
 42
0.0
 43
0.0
 44
0.0
 45
0.0
 46
0.0
 47
0.0
 48
0.0
 49
0.0
140
0.0
141
0.0
142
1.0
143
1.0
 70
   688
 72
     0
 73
     0
 74
     5
  7
1.ctb
 75
    16
147
1.0
148
0.0
149
0.0
100
AcDbLayout
  1
Layout1
 70
     1
 71
     1
 10
0.0
 20
0.0
 11
420.0
 21
297.0
 12
0.0
 22
0.0
 32
0.0
 14
1.000000000000000E+20
 24
1.000000000000000E+20
 34
1.000000000000000E+20
 15
-1.000000000000000E+20
 25
-1.000000000000000E+20
 35
-1.000000000000000E+20
146
0.0
 13
0.0
 23
0.0
 33
0.0
 16
1.0
 26
0.0
 36
0.0
 17
0.0
 27
1.0
 37
0.0
 76
     0
330
33
  0
LAYOUT
  5
3E
102
{ACAD_XDICTIONARY
360
13199
102
}
102
{ACAD_REACTORS
330
2F
102
}
330
2F
100
AcDbPlotSettings
  1

  2
HP LaserJet 5200L PCL 5e
  4

  6

 40
0.0
 41
0.0
 42
0.0
 43
0.0
 44
0.0
 45
0.0
 46
0.0
 47
0.0
 48
0.0
 49
0.0
140
0.0
141
0.0
142
1.0
143
1.0
 70
   688
 72
     0
 73
     0
 74
     5
  7
1.ctb
 75
    16
147
1.0
148
0.0
149
0.0
100
AcDbLayout
  1
Layout2
 70
     1
 71
     2
 10
0.0
 20
0.0
 11
12.0
 21
9.0
 12
0.0
 22
0.0
 32
0.0
 14
0.0
 24
0.0
 34
0.0
 15
0.0
 25
0.0
 35
0.0
146
0.0
 13
0.0
 23
0.0
 33
0.0
 16
1.0
 26
0.0
 36
0.0
 17
0.0
 27
1.0
 37
0.0
 76
     0
330
3B
  0
LAYOUT
  5
3A
102
{ACAD_XDICTIONARY
360
13197
102
}
102
{ACAD_REACTORS
330
2F
102
}
330
2F
100
AcDbPlotSettings
  1

  2
HP LaserJet 5200L PCL 5e
  4
A4
  6

 40
6.805083274841307
 41
5.027085781097412
 42
6.805068969726562
 43
5.027069091796875
 44
209.9733276367186
 45
296.9683227539062
 46
0.0
 47
0.0
 48
0.0
 49
0.0
140
0.0
141
0.0
142
1.0
143
2.335080412357863
 70
 11952
 72
     1
 73
     1
 74
     0
  7
1.ctb
 75
     0
147
0.4282507765932752
148
37.9631755291519
149
1.597709406975269
100
AcDbLayout
  1
Model
 70
     1
 71
     0
 10
0.0
 20
0.0
 11
12.0
 21
9.0
 12
0.0
 22
0.0
 32
0.0
 14
0.0
 24
0.0
 34
0.0
 15
0.0
 25
0.0
 35
0.0
146
0.0
 13
0.0
 23
0.0
 33
0.0
 16
1.0
 26
0.0
 36
0.0
 17
0.0
 27
1.0
 37
0.0
 76
     0
330
37
331
28
1001
ACAD_PSEXT
1000
HP LaserJet 5200L PCL 5e
1000
HP LaserJet 5200L PCL 5e
1000
DOT4_001
1000

1070
     0
  0
MATERIAL
  5
12
102
{ACAD_XDICTIONARY
360
13190
102
}
102
{ACAD_REACTORS
330
10
102
}
330
10
100
AcDbMaterial
  1
ByBlock
  0
MATERIAL
  5
11
102
{ACAD_XDICTIONARY
360
1318E
102
}
102
{ACAD_REACTORS
330
10
102
}
330
10
100
AcDbMaterial
  1
ByLayer
  0
MATERIAL
  5
13
102
{ACAD_XDICTIONARY
360
13192
102
}
102
{ACAD_REACTORS
330
10
102
}
330
10
100
AcDbMaterial
  1
Global
  0
MLEADERSTYLE
  5
6C7
102
{ACAD_REACTORS
330
6C6
102
}
330
6C6
100
AcDbMLeaderStyle
170
     2
171
     1
172
     0
 90
        2
 40
0.0
 41
0.0
173
     1
 91
-1056964608
340
29
 92
       -2
290
     1
 42
2.0
291
     1
 43
0.36
  3
Standard
 44
4.0
300

342
26
174
     1
178
     6
175
     1
176
     0
 93
-1056964608
 45
4.0
292
     0
297
     0
 46
4.0
 94
-1056964608
 47
1.0
 49
1.0
140
1.0
293
     1
141
0.0
294
     1
177
     0
142
1.0
295
     0
296
     0
143
0.125
1001
ACAD_MLEADERVER
1070
     2
  0
MLINESTYLE
  5
2D
102
{ACAD_REACTORS
330
2C
102
}
330
2C
100
AcDbMlineStyle
  2
STANDARD
 70
     0
  3

 62
   256
 51
90.0
 52
90.0
 71
     2
 49
0.5
 62
   256
  6
BYLAYER
 49
-0.5
 62
   256
  6
BYLAYER
  0
ACDBPLACEHOLDER
  5
F
102
{ACAD_REACTORS
330
E
102
}
330
E
  0
SCALE
  5
6A5
102
{ACAD_REACTORS
330
6A4
102
}
330
6A4
100
AcDbScale
 70
     0
300
1:1
140
1.0
141
1.0
290
     1
  0
SCALE
  5
6A6
102
{ACAD_REACTORS
330
6A4
102
}
330
6A4
100
AcDbScale
 70
     0
300
1:2
140
1.0
141
2.0
290
     0
  0
SCALE
  5
6A7
102
{ACAD_REACTORS
330
6A4
102
}
330
6A4
100
AcDbScale
 70
     0
300
1:4
140
1.0
141
4.0
290
     0
  0
SCALE
  5
6A8
102
{ACAD_REACTORS
330
6A4
102
}
330
6A4
100
AcDbScale
 70
     0
300
1:5
140
1.0
141
5.0
290
     0
  0
SCALE
  5
6A9
102
{ACAD_REACTORS
330
6A4
102
}
330
6A4
100
AcDbScale
 70
     0
300
1:8
140
1.0
141
8.0
290
     0
  0
SCALE
  5
6AA
102
{ACAD_REACTORS
330
6A4
102
}
330
6A4
100
AcDbScale
 70
     0
300
1:10
140
1.0
141
10.0
290
     0
  0
SCALE
  5
6AB
102
{ACAD_REACTORS
330
6A4
102
}
330
6A4
100
AcDbScale
 70
     0
300
1:16
140
1.0
141
16.0
290
     0
  0
SCALE
  5
6AC
102
{ACAD_REACTORS
330
6A4
102
}
330
6A4
100
AcDbScale
 70
     0
300
1:20
140
1.0
141
20.0
290
     0
  0
SCALE
  5
6AD
102
{ACAD_REACTORS
330
6A4
102
}
330
6A4
100
AcDbScale
 70
     0
300
1:30
140
1.0
141
30.0
290
     0
  0
SCALE
  5
6AE
102
{ACAD_REACTORS
330
6A4
102
}
330
6A4
100
AcDbScale
 70
     0
300
1:40
140
1.0
141
40.0
290
     0
  0
SCALE
  5
6AF
102
{ACAD_REACTORS
330
6A4
102
}
330
6A4
100
AcDbScale
 70
     0
300
1:50
140
1.0
141
50.0
290
     0
  0
SCALE
  5
6B0
102
{ACAD_REACTORS
330
6A4
102
}
330
6A4
100
AcDbScale
 70
     0
300
1:100
140
1.0
141
100.0
290
     0
  0
SCALE
  5
6B1
102
{ACAD_REACTORS
330
6A4
102
}
330
6A4
100
AcDbScale
 70
     0
300
2:1
140
2.0
141
1.0
290
     0
  0
SCALE
  5
6B2
102
{ACAD_REACTORS
330
6A4
102
}
330
6A4
100
AcDbScale
 70
     0
300
4:1
140
4.0
141
1.0
290
     0
  0
SCALE
  5
6B3
102
{ACAD_REACTORS
330
6A4
102
}
330
6A4
100
AcDbScale
 70
     0
300
8:1
140
8.0
141
1.0
290
     0
  0
SCALE
  5
6B4
102
{ACAD_REACTORS
330
6A4
102
}
330
6A4
100
AcDbScale
 70
     0
300
10:1
140
10.0
141
1.0
290
     0
  0
SCALE
  5
6B5
102
{ACAD_REACTORS
330
6A4
102
}
330
6A4
100
AcDbScale
 70
     0
300
100:1
140
100.0
141
1.0
290
     0
  0
SCALE
  5
6B6
102
{ACAD_REACTORS
330
6A4
102
}
330
6A4
100
AcDbScale
 70
     0
300
1/128" = 1'-0"
140
0.0078125
141
12.0
290
     0
  0
SCALE
  5
6B7
102
{ACAD_REACTORS
330
6A4
102
}
330
6A4
100
AcDbScale
 70
     0
300
1/64" = 1'-0"
140
0.015625
141
12.0
290
     0
  0
SCALE
  5
6B8
102
{ACAD_REACTORS
330
6A4
102
}
330
6A4
100
AcDbScale
 70
     0
300
1/32" = 1'-0"
140
0.03125
141
12.0
290
     0
  0
SCALE
  5
6B9
102
{ACAD_REACTORS
330
6A4
102
}
330
6A4
100
AcDbScale
 70
     0
300
1/16" = 1'-0"
140
0.0625
141
12.0
290
     0
  0
SCALE
  5
6BA
102
{ACAD_REACTORS
330
6A4
102
}
330
6A4
100
AcDbScale
 70
     0
300
3/32" = 1'-0"
140
0.09375
141
12.0
290
     0
  0
SCALE
  5
6BB
102
{ACAD_REACTORS
330
6A4
102
}
330
6A4
100
AcDbScale
 70
     0
300
1/8" = 1'-0"
140
0.125
141
12.0
290
     0
  0
SCALE
  5
6BC
102
{ACAD_REACTORS
330
6A4
102
}
330
6A4
100
AcDbScale
 70
     0
300
3/16" = 1'-0"
140
0.1875
141
12.0
290
     0
  0
SCALE
  5
6BD
102
{ACAD_REACTORS
330
6A4
102
}
330
6A4
100
AcDbScale
 70
     0
300
1/4" = 1'-0"
140
0.25
141
12.0
290
     0
  0
SCALE
  5
6BE
102
{ACAD_REACTORS
330
6A4
102
}
330
6A4
100
AcDbScale
 70
     0
300
3/8" = 1'-0"
140
0.375
141
12.0
290
     0
  0
SCALE
  5
6BF
102
{ACAD_REACTORS
330
6A4
102
}
330
6A4
100
AcDbScale
 70
     0
300
1/2" = 1'-0"
140
0.5
141
12.0
290
     0
  0
SCALE
  5
6C0
102
{ACAD_REACTORS
330
6A4
102
}
330
6A4
100
AcDbScale
 70
     0
300
3/4" = 1'-0"
140
0.75
141
12.0
290
     0
  0
SCALE
  5
6C1
102
{ACAD_REACTORS
330
6A4
102
}
330
6A4
100
AcDbScale
 70
     0
300
1" = 1'-0"
140
1.0
141
12.0
290
     0
  0
SCALE
  5
6C2
102
{ACAD_REACTORS
330
6A4
102
}
330
6A4
100
AcDbScale
 70
     0
300
1-1/2" = 1'-0"
140
1.5
141
12.0
290
     0
  0
SCALE
  5
6C3
102
{ACAD_REACTORS
330
6A4
102
}
330
6A4
100
AcDbScale
 70
     0
300
3" = 1'-0"
140
3.0
141
12.0
290
     0
  0
SCALE
  5
6C4
102
{ACAD_REACTORS
330
6A4
102
}
330
6A4
100
AcDbScale
 70
     0
300
6" = 1'-0"
140
6.0
141
12.0
290
     0
  0
SCALE
  5
6C5
102
{ACAD_REACTORS
330
6A4
102
}
330
6A4
100
AcDbScale
 70
     0
300
1'-0" = 1'-0"
140
12.0
141
12.0
290
     0
  0
TABLESTYLE
  5
32
102
{ACAD_XDICTIONARY
360
AAD
102
}
102
{ACAD_REACTORS
330
31
102
}
330
31
100
AcDbTableStyle
  3
Standard
 70
     0
 71
     0
 40
1.5
 41
1.5
280
     0
281
     0
  7
Standard
140
4.5
170
     2
 62
     0
 63
     7
283
     0
274
    -2
284
     1
 64
     0
275
    -2
285
     1
 65
     0
276
    -2
286
     1
 66
     0
277
    -2
287
     1
 67
     0
278
    -2
288
     1
 68
     0
279
    -2
289
     1
 69
     0
  7
Standard
140
6.0
170
     5
 62
     0
 63
     7
283
     0
274
    -2
284
     1
 64
     0
275
    -2
285
     1
 65
     0
276
    -2
286
     1
 66
     0
277
    -2
287
     1
 67
     0
278
    -2
288
     1
 68
     0
279
    -2
289
     1
 69
     0
  7
Standard
140
4.5
170
     5
 62
     0
 63
     7
283
     0
274
    -2
284
     1
 64
     0
275
    -2
285
     1
 65
     0
276
    -2
286
     1
 66
     0
277
    -2
287
     1
 67
     0
278
    -2
288
     1
 68
     0
279
    -2
289
     1
 69
     0
  0
VISUALSTYLE
  5
1A
102
{ACAD_REACTORS
330
14
102
}
330
14
100
AcDbVisualStyle
  2
2dWireframe
 70
     4
 71
     0
 72
     2
 73
     0
 90
        0
 40
-0.6
 41
-30.0
 62
     5
 63
     7
 74
     1
 91
        4
 64
     7
 65
   257
 75
     1
175
     1
 42
1.0
 92
        0
 66
   257
 43
1.0
 76
     1
 77
     6
 78
     2
 67
     7
 79
     5
170
     0
171
     0
290
     0
174
     0
 93
        1
 44
0.0
173
     0
291
     0
 45
0.0
1001
ACAD
1000
AcDbSavedByObjectVersion
1070
     0
1000
AcDbSavedByObjectVersion
1070
     0
1000
AcDbSavedByObjectVersion
1070
     0
1000
AcDbSavedByObjectVersion
1070
     0
1000
AcDbSavedByObjectVersion
1070
     0
1000
AcDbSavedByObjectVersion
1070
     0
1000
AcDbSavedByObjectVersion
1070
     0
1000
AcDbSavedByObjectVersion
1070
     0
1000
AcDbSavedByObjectVersion
1070
     0
1000
AcDbSavedByObjectVersion
1070
     0
1000
AcDbSavedByObjectVersion
1070
     0
  0
VISUALSTYLE
  5
1C
102
{ACAD_REACTORS
330
14
102
}
330
14
100
AcDbVisualStyle
  2
3D Hidden
 70
     6
 71
     1
 72
     2
 73
     2
 90
        0
 40
-0.6
 41
-30.0
 62
     5
 63
     7
 74
     2
 91
        2
 64
     7
 65
   257
 75
     2
175
     1
 42
40.0
 92
        0
 66
   257
 43
1.0
 76
     1
 77
     6
 78
     2
 67
     7
 79
     3
170
     0
171
     0
290
     0
174
     0
 93
        1
 44
0.0
173
     0
291
     0
 45
0.0
1001
ACAD
1000
AcDbSavedByObjectVersion
1070
     0
1000
AcDbSavedByObjectVersion
1070
     0
1000
AcDbSavedByObjectVersion
1070
     0
1000
AcDbSavedByObjectVersion
1070
     0
1000
AcDbSavedByObjectVersion
1070
     0
1000
AcDbSavedByObjectVersion
1070
     0
1000
AcDbSavedByObjectVersion
1070
     0
1000
AcDbSavedByObjectVersion
1070
     0
1000
AcDbSavedByObjectVersion
1070
     0
1000
AcDbSavedByObjectVersion
1070
     0
1000
AcDbSavedByObjectVersion
1070
     0
  0
VISUALSTYLE
  5
1B
102
{ACAD_REACTORS
330
14
102
}
330
14
100
AcDbVisualStyle
  2
3dWireframe
 70
     5
 71
     0
 72
     2
 73
     0
 90
        0
 40
-0.6
 41
-30.0
 62
     5
 63
     7
 74
     1
 91
        4
 64
     7
 65
   257
 75
     1
175
     1
 42
1.0
 92
        0
 66
   257
 43
1.0
 76
     1
 77
     6
 78
     2
 67
     7
 79
     5
170
     0
171
     0
290
     0
174
     0
 93
        1
 44
0.0
173
     0
291
     0
 45
0.0
1001
ACAD
1000
AcDbSavedByObjectVersion
1070
     0
1000
AcDbSavedByObjectVersion
1070
     0
1000
AcDbSavedByObjectVersion
1070
     0
1000
AcDbSavedByObjectVersion
1070
     0
1000
AcDbSavedByObjectVersion
1070
     0
1000
AcDbSavedByObjectVersion
1070
     0
1000
AcDbSavedByObjectVersion
1070
     0
1000
AcDbSavedByObjectVersion
1070
     0
1000
AcDbSavedByObjectVersion
1070
     0
1000
AcDbSavedByObjectVersion
1070
     0
1000
AcDbSavedByObjectVersion
1070
     0
  0
VISUALSTYLE
  5
19
102
{ACAD_REACTORS
330
14
102
}
330
14
100
AcDbVisualStyle
  2
Basic
 70
     7
 71
     1
 72
     0
 73
     1
 90
        0
 40
-0.6
 41
-30.0
 62
     5
 63
     7
 74
     0
 91
        4
 64
     7
 65
   257
 75
     1
175
     1
 42
1.0
 92
        8
 66
     7
 43
1.0
 76
     1
 77
     6
 78
     2
 67
     7
 79
     5
170
     0
171
     0
290
     0
174
     0
 93
        1
 44
0.0
173
     0
291
     1
 45
0.0
1001
ACAD
1000
AcDbSavedByObjectVersion
1070
     0
1000
AcDbSavedByObjectVersion
1070
     0
1000
AcDbSavedByObjectVersion
1070
     0
1000
AcDbSavedByObjectVersion
1070
     0
1000
AcDbSavedByObjectVersion
1070
     0
1000
AcDbSavedByObjectVersion
1070
     0
1000
AcDbSavedByObjectVersion
1070
     0
1000
AcDbSavedByObjectVersion
1070
     0
1000
AcDbSavedByObjectVersion
1070
     0
1000
AcDbSavedByObjectVersion
1070
     0
1000
AcDbSavedByObjectVersion
1070
     0
  0
VISUALSTYLE
  5
20
102
{ACAD_REACTORS
330
14
102
}
330
14
100
AcDbVisualStyle
  2
Brighten
 70
    12
 71
     2
 72
     2
 73
     0
 90
        0
 40
-0.6
 41
-30.0
 62
     5
 63
     7
 74
     1
 91
        4
 64
     7
 65
   257
 75
     1
175
     1
 42
1.0
 92
        8
 66
     7
 43
1.0
 76
     1
 77
     6
 78
     2
 67
     7
 79
     5
170
     0
171
     0
290
     0
174
     0
 93
        1
 44
50.0
173
     0
291
     1
 45
0.0
1001
ACAD
1000
AcDbSavedByObjectVersion
1070
     0
1000
AcDbSavedByObjectVersion
1070
     0
1000
AcDbSavedByObjectVersion
1070
     0
1000
AcDbSavedByObjectVersion
1070
     0
1000
AcDbSavedByObjectVersion
1070
     0
1000
AcDbSavedByObjectVersion
1070
     0
1000
AcDbSavedByObjectVersion
1070
     0
1000
AcDbSavedByObjectVersion
1070
     0
1000
AcDbSavedByObjectVersion
1070
     0
1000
AcDbSavedByObjectVersion
1070
     0
1000
AcDbSavedByObjectVersion
1070
     0
  0
VISUALSTYLE
  5
24
102
{ACAD_REACTORS
330
14
102
}
330
14
100
AcDbVisualStyle
  2
ColorChange
 70
    16
 71
     2
 72
     2
 73
     3
 90
        0
 40
-0.6
 41
-30.0
 62
     5
 63
     8
 74
     1
 91
        4
 64
     7
 65
   257
 75
     1
175
     1
 42
1.0
 92
        8
 66
     8
 43
1.0
 76
     1
 77
     6
 78
     2
 67
     7
 79
     5
170
     0
171
     0
290
     0
174
     0
 93
        1
 44
0.0
173
     0
291
     1
 45
0.0
1001
ACAD
1000
AcDbSavedByObjectVersion
1070
     0
1000
AcDbSavedByObjectVersion
1070
     0
1000
AcDbSavedByObjectVersion
1070
     0
1000
AcDbSavedByObjectVersion
1070
     0
1000
AcDbSavedByObjectVersion
1070
     0
1000
AcDbSavedByObjectVersion
1070
     0
1000
AcDbSavedByObjectVersion
1070
     0
1000
AcDbSavedByObjectVersion
1070
     0
1000
AcDbSavedByObjectVersion
1070
     0
1000
AcDbSavedByObjectVersion
1070
     0
1000
AcDbSavedByObjectVersion
1070
     0
  0
VISUALSTYLE
  5
1D
102
{ACAD_REACTORS
330
14
102
}
330
14
100
AcDbVisualStyle
  2
Conceptual
 70
     9
 71
     3
 72
     2
 73
     0
 90
        0
 40
-0.6
 41
-30.0
 62
     5
 63
     7
 74
     2
 91
        2
 64
     7
 65
   257
 75
     1
175
     1
 42
40.0
 92
        8
 66
     7
 43
1.0
 76
     1
 77
     6
 78
     2
 67
     7
 79
     3
170
     0
171
     0
290
     0
174
     0
 93
        1
 44
0.0
173
     0
291
     0
 45
0.0
1001
ACAD
1000
AcDbSavedByObjectVersion
1070
     0
1000
AcDbSavedByObjectVersion
1070
     0
1000
AcDbSavedByObjectVersion
1070
     0
1000
AcDbSavedByObjectVersion
1070
     0
1000
AcDbSavedByObjectVersion
1070
     0
1000
AcDbSavedByObjectVersion
1070
     0
1000
AcDbSavedByObjectVersion
1070
     0
1000
AcDbSavedByObjectVersion
1070
     0
1000
AcDbSavedByObjectVersion
1070
     0
1000
AcDbSavedByObjectVersion
1070
     0
1000
AcDbSavedByObjectVersion
1070
     0
  0
VISUALSTYLE
  5
1F
102
{ACAD_REACTORS
330
14
102
}
330
14
100
AcDbVisualStyle
  2
Dim
 70
    11
 71
     2
 72
     2
 73
     0
 90
        0
 40
-0.6
 41
-30.0
 62
     5
 63
     7
 74
     1
 91
        4
 64
     7
 65
   257
 75
     1
175
     1
 42
1.0
 92
        8
 66
     7
 43
1.0
 76
     1
 77
     6
 78
     2
 67
     7
 79
     5
170
     0
171
     0
290
     0
174
     0
 93
        1
 44
-50.0
173
     0
291
     1
 45
0.0
1001
ACAD
1000
AcDbSavedByObjectVersion
1070
     0
1000
AcDbSavedByObjectVersion
1070
     0
1000
AcDbSavedByObjectVersion
1070
     0
1000
AcDbSavedByObjectVersion
1070
     0
1000
AcDbSavedByObjectVersion
1070
     0
1000
AcDbSavedByObjectVersion
1070
     0
1000
AcDbSavedByObjectVersion
1070
     0
1000
AcDbSavedByObjectVersion
1070
     0
1000
AcDbSavedByObjectVersion
1070
     0
1000
AcDbSavedByObjectVersion
1070
     0
1000
AcDbSavedByObjectVersion
1070
     0
  0
VISUALSTYLE
  5
23
102
{ACAD_REACTORS
330
14
102
}
330
14
100
AcDbVisualStyle
  2
Facepattern
 70
    15
 71
     2
 72
     2
 73
     0
 90
        0
 40
-0.6
 41
-30.0
 62
     5
 63
     7
 74
     1
 91
        4
 64
     7
 65
   257
 75
     1
175
     1
 42
1.0
 92
        8
 66
     7
 43
1.0
 76
     1
 77
     6
 78
     2
 67
     7
 79
     5
170
     0
171
     0
290
     0
174
     0
 93
        1
 44
0.0
173
     0
291
     1
 45
0.0
1001
ACAD
1000
AcDbSavedByObjectVersion
1070
     0
1000
AcDbSavedByObjectVersion
1070
     0
1000
AcDbSavedByObjectVersion
1070
     0
1000
AcDbSavedByObjectVersion
1070
     0
1000
AcDbSavedByObjectVersion
1070
     0
1000
AcDbSavedByObjectVersion
1070
     0
1000
AcDbSavedByObjectVersion
1070
     0
1000
AcDbSavedByObjectVersion
1070
     0
1000
AcDbSavedByObjectVersion
1070
     0
1000
AcDbSavedByObjectVersion
1070
     0
1000
AcDbSavedByObjectVersion
1070
     0
  0
VISUALSTYLE
  5
15
102
{ACAD_REACTORS
330
14
102
}
330
14
100
AcDbVisualStyle
  2
Flat
 70
     0
 71
     2
 72
     1
 73
     1
 90
        2
 40
-0.6
 41
30.0
 62
     5
 63
     7
 74
     0
 91
        4
 64
     7
 65
   257
 75
     1
175
     1
 42
1.0
 92
        8
 66
     7
 43
1.0
 76
     1
 77
     6
 78
     2
 67
     7
 79
     5
170
     0
171
     0
290
     0
174
     0
 93
       13
 44
0.0
173
     0
291
     1
 45
0.0
1001
ACAD
1000
AcDbSavedByObjectVersion
1070
     0
1000
AcDbSavedByObjectVersion
1070
     0
1000
AcDbSavedByObjectVersion
1070
     0
1000
AcDbSavedByObjectVersion
1070
     0
1000
AcDbSavedByObjectVersion
1070
     0
1000
AcDbSavedByObjectVersion
1070
     0
1000
AcDbSavedByObjectVersion
1070
     0
1000
AcDbSavedByObjectVersion
1070
     0
1000
AcDbSavedByObjectVersion
1070
     0
1000
AcDbSavedByObjectVersion
1070
     0
1000
AcDbSavedByObjectVersion
1070
     0
  0
VISUALSTYLE
  5
16
102
{ACAD_REACTORS
330
14
102
}
330
14
100
AcDbVisualStyle
  2
FlatWithEdges
 70
     1
 71
     2
 72
     1
 73
     1
 90
        2
 40
-0.6
 41
30.0
 62
     5
 63
     7
 74
     1
 91
        4
 64
     7
 65
   257
 75
     1
175
     1
 42
1.0
 92
        0
 66
   257
 43
1.0
 76
     1
 77
     6
 78
     2
 67
     7
 79
     5
170
     0
171
     0
290
     0
174
     0
 93
       13
 44
0.0
173
     0
291
     1
 45
0.0
1001
ACAD
1000
AcDbSavedByObjectVersion
1070
     0
1000
AcDbSavedByObjectVersion
1070
     0
1000
AcDbSavedByObjectVersion
1070
     0
1000
AcDbSavedByObjectVersion
1070
     0
1000
AcDbSavedByObjectVersion
1070
     0
1000
AcDbSavedByObjectVersion
1070
     0
1000
AcDbSavedByObjectVersion
1070
     0
1000
AcDbSavedByObjectVersion
1070
     0
1000
AcDbSavedByObjectVersion
1070
     0
1000
AcDbSavedByObjectVersion
1070
     0
1000
AcDbSavedByObjectVersion
1070
     0
  0
VISUALSTYLE
  5
17
102
{ACAD_REACTORS
330
14
102
}
330
14
100
AcDbVisualStyle
  2
Gouraud
 70
     2
 71
     2
 72
     2
 73
     1
 90
        2
 40
-0.6
 41
30.0
 62
     5
 63
     7
 74
     0
 91
        4
 64
     7
 65
   257
 75
     1
175
     1
 42
1.0
 92
        0
 66
     7
 43
1.0
 76
     1
 77
     6
 78
     2
 67
     7
 79
     5
170
     0
171
     0
290
     0
174
     0
 93
       13
 44
0.0
173
     0
291
     1
 45
0.0
1001
ACAD
1000
AcDbSavedByObjectVersion
1070
     0
1000
AcDbSavedByObjectVersion
1070
     0
1000
AcDbSavedByObjectVersion
1070
     0
1000
AcDbSavedByObjectVersion
1070
     0
1000
AcDbSavedByObjectVersion
1070
     0
1000
AcDbSavedByObjectVersion
1070
     0
1000
AcDbSavedByObjectVersion
1070
     0
1000
AcDbSavedByObjectVersion
1070
     0
1000
AcDbSavedByObjectVersion
1070
     0
1000
AcDbSavedByObjectVersion
1070
     0
1000
AcDbSavedByObjectVersion
1070
     0
  0
VISUALSTYLE
  5
18
102
{ACAD_REACTORS
330
14
102
}
330
14
100
AcDbVisualStyle
  2
GouraudWithEdges
 70
     3
 71
     2
 72
     2
 73
     1
 90
        2
 40
-0.6
 41
30.0
 62
     5
 63
     7
 74
     1
 91
        4
 64
     7
 65
   257
 75
     1
175
     1
 42
1.0
 92
        0
 66
   257
 43
1.0
 76
     1
 77
     6
 78
     2
 67
     7
 79
     5
170
     0
171
     0
290
     0
174
     0
 93
       13
 44
0.0
173
     0
291
     1
 45
0.0
1001
ACAD
1000
AcDbSavedByObjectVersion
1070
     0
1000
AcDbSavedByObjectVersion
1070
     0
1000
AcDbSavedByObjectVersion
1070
     0
1000
AcDbSavedByObjectVersion
1070
     0
1000
AcDbSavedByObjectVersion
1070
     0
1000
AcDbSavedByObjectVersion
1070
     0
1000
AcDbSavedByObjectVersion
1070
     0
1000
AcDbSavedByObjectVersion
1070
     0
1000
AcDbSavedByObjectVersion
1070
     0
1000
AcDbSavedByObjectVersion
1070
     0
1000
AcDbSavedByObjectVersion
1070
     0
  0
VISUALSTYLE
  5
22
102
{ACAD_REACTORS
330
14
102
}
330
14
100
AcDbVisualStyle
  2
Linepattern
 70
    14
 71
     2
 72
     2
 73
     0
 90
        0
 40
-0.6
 41
-30.0
 62
     5
 63
     7
 74
     1
 91
        4
 64
     7
 65
   257
 75
     7
175
     7
 42
1.0
 92
        8
 66
     7
 43
1.0
 76
     1
 77
     6
 78
     2
 67
     7
 79
     5
170
     0
171
     0
290
     0
174
     0
 93
        1
 44
0.0
173
     0
291
     1
 45
0.0
1001
ACAD
1000
AcDbSavedByObjectVersion
1070
     0
1000
AcDbSavedByObjectVersion
1070
     0
1000
AcDbSavedByObjectVersion
1070
     0
1000
AcDbSavedByObjectVersion
1070
     0
1000
AcDbSavedByObjectVersion
1070
     0
1000
AcDbSavedByObjectVersion
1070
     0
1000
AcDbSavedByObjectVersion
1070
     0
1000
AcDbSavedByObjectVersion
1070
     0
1000
AcDbSavedByObjectVersion
1070
     0
1000
AcDbSavedByObjectVersion
1070
     0
1000
AcDbSavedByObjectVersion
1070
     0
  0
VISUALSTYLE
  5
1E
102
{ACAD_REACTORS
330
14
102
}
330
14
100
AcDbVisualStyle
  2
Realistic
 70
     8
 71
     2
 72
     2
 73
     0
 90
        0
 40
-0.6
 41
-30.0
 62
     5
 63
     7
 74
     1
 91
        0
 64
     7
 65
   257
 75
     1
175
     1
 42
1.0
 92
        8
 66
     8
 43
1.0
 76
     1
 77
     6
 78
     2
 67
     7
 79
     5
170
     0
171
     0
290
     0
174
     0
 93
       13
 44
0.0
173
     0
291
     0
 45
0.0
1001
ACAD
1000
AcDbSavedByObjectVersion
1070
     0
1000
AcDbSavedByObjectVersion
1070
     0
1000
AcDbSavedByObjectVersion
1070
     0
1000
AcDbSavedByObjectVersion
1070
     0
1000
AcDbSavedByObjectVersion
1070
     0
1000
AcDbSavedByObjectVersion
1070
     0
1000
AcDbSavedByObjectVersion
1070
     0
1000
AcDbSavedByObjectVersion
1070
     0
1000
AcDbSavedByObjectVersion
1070
     0
1000
AcDbSavedByObjectVersion
1070
     0
1000
AcDbSavedByObjectVersion
1070
     0
  0
VISUALSTYLE
  5
21
102
{ACAD_REACTORS
330
14
102
}
330
14
100
AcDbVisualStyle
  2
Thicken
 70
    13
 71
     2
 72
     2
 73
     0
 90
        0
 40
-0.6
 41
-30.0
 62
     5
 63
     7
 74
     1
 91
        4
 64
     7
 65
   257
 75
     1
175
     1
 42
1.0
 92
       12
 66
     7
 43
1.0
 76
     1
 77
     6
 78
     2
 67
     7
 79
     5
170
     0
171
     0
290
     0
174
     0
 93
        1
 44
0.0
173
     0
291
     1
 45
0.0
1001
ACAD
1000
AcDbSavedByObjectVersion
1070
     0
1000
AcDbSavedByObjectVersion
1070
     0
1000
AcDbSavedByObjectVersion
1070
     0
1000
AcDbSavedByObjectVersion
1070
     0
1000
AcDbSavedByObjectVersion
1070
     0
1000
AcDbSavedByObjectVersion
1070
     0
1000
AcDbSavedByObjectVersion
1070
     0
1000
AcDbSavedByObjectVersion
1070
     0
1000
AcDbSavedByObjectVersion
1070
     0
1000
AcDbSavedByObjectVersion
1070
     0
1000
AcDbSavedByObjectVersion
1070
     0
  0
DICTIONARYVAR
  5
AAC
102
{ACAD_REACTORS
330
42
102
}
330
42
100
DictionaryVariables
280
     0
  1
1:1
  0
DICTIONARYVAR
  5
AAB
102
{ACAD_REACTORS
330
42
102
}
330
42
100
DictionaryVariables
280
     0
  1
STANDARD
  0
DICTIONARYVAR
  5
43
102
{ACAD_REACTORS
330
42
102
}
330
42
100
DictionaryVariables
280
     0
  1
STANDARD
  0
DICTIONARYVAR
  5
47
102
{ACAD_REACTORS
330
42
102
}
330
42
100
DictionaryVariables
280
     0
  1
2
  0
DICTIONARYVAR
  5
46
102
{ACAD_REACTORS
330
42
102
}
330
42
100
DictionaryVariables
280
     0
  1
1
  0
DICTIONARYVAR
  5
45
102
{ACAD_REACTORS
330
42
102
}
330
42
100
DictionaryVariables
280
     0
  1
0
  0
DICTIONARYVAR
  5
ADB
102
{ACAD_REACTORS
330
42
102
}
330
42
100
DictionaryVariables
280
     0
  1
0
  0
DICTIONARYVAR
  5
1318A
102
{ACAD_REACTORS
330
42
102
}
330
42
100
DictionaryVariables
280
     0
  1
1.570796
  0
DICTIONARYVAR
  5
1318B
102
{ACAD_REACTORS
330
42
102
}
330
42
100
DictionaryVariables
280
     0
  1
1.570796
  0
DICTIONARYVAR
  5
ADA
102
{ACAD_REACTORS
330
42
102
}
330
42
100
DictionaryVariables
280
     0
  1
0
  0
DICTIONARYVAR
  5
44
102
{ACAD_REACTORS
330
42
102
}
330
42
100
DictionaryVariables
280
     0
  1
127
  0
DICTIONARY
  5
13195
330
36
100
AcDbDictionary
280
     1
281
     1
  3
ACAD_XREC_ROUNDTRIP
360
13196
  0
DICTIONARY
  5
13199
330
3E
100
AcDbDictionary
280
     1
281
     1
  3
ACAD_XREC_ROUNDTRIP
360
1319A
  0
DICTIONARY
  5
13197
330
3A
100
AcDbDictionary
280
     1
281
     1
  3
ACAD_XREC_ROUNDTRIP
360
13198
  0
DICTIONARY
  5
13190
330
12
100
AcDbDictionary
280
     1
281
     1
  3
ACAD_XREC_ROUNDTRIP
360
13191
  0
DICTIONARY
  5
1318E
330
11
100
AcDbDictionary
280
     1
281
     1
  3
ACAD_XREC_ROUNDTRIP
360
1318F
  0
DICTIONARY
  5
13192
330
13
100
AcDbDictionary
280
     1
281
     1
  3
ACAD_XREC_ROUNDTRIP
360
13193
  0
DICTIONARY
  5
AAD
330
32
100
AcDbDictionary
280
     1
281
     1
  3
ACAD_ROUNDTRIP_2008_TABLESTYLE_CELLSTYLEMAP
360
1318C
  3
ACAD_XREC_ROUNDTRIP
360
13194
  0
XRECORD
  5
13196
102
{ACAD_REACTORS
330
13195
102
}
330
13195
100
AcDbXrecord
280
     1
102
SHADEPLOT
 70
     0
102
SHADEPLOTRESLEVEL
 70
     2
102
SHADEPLOTCUSTOMDPI
 70
   300
  0
XRECORD
  5
1319A
102
{ACAD_REACTORS
330
13199
102
}
330
13199
100
AcDbXrecord
280
     1
102
SHADEPLOT
 70
     0
102
SHADEPLOTRESLEVEL
 70
     2
102
SHADEPLOTCUSTOMDPI
 70
   300
  0
XRECORD
  5
13198
102
{ACAD_REACTORS
330
13197
102
}
330
13197
100
AcDbXrecord
280
     1
102
SHADEPLOT
 70
     0
102
SHADEPLOTRESLEVEL
 70
     2
102
SHADEPLOTCUSTOMDPI
 70
   300
  0
XRECORD
  5
13191
102
{ACAD_REACTORS
330
13190
102
}
330
13190
100
AcDbXrecord
280
     1
102
MATERIAL
148
0.0
149
0.0
149
0.0
 93
        0
 94
      127
282
     0
 72
     1
 77
     1
171
     1
175
     1
179
     1
273
     0
  0
XRECORD
  5
1318F
102
{ACAD_REACTORS
330
1318E
102
}
330
1318E
100
AcDbXrecord
280
     1
102
MATERIAL
148
0.0
149
0.0
149
0.0
 93
        0
 94
      127
282
     0
 72
     1
 77
     1
171
     1
175
     1
179
     1
273
     0
  0
XRECORD
  5
13193
102
{ACAD_REACTORS
330
13192
102
}
330
13192
100
AcDbXrecord
280
     1
102
MATERIAL
148
0.0
149
0.0
149
0.0
 93
        0
 94
      127
282
     0
 72
     1
 77
     1
171
     1
175
     1
179
     1
273
     0
  0
CELLSTYLEMAP
  5
1318C
102
{ACAD_REACTORS
330
AAD
102
}
330
AAD
100
AcDbCellStyleMap
 90
        3
300
CELLSTYLE
  1
TABLEFORMAT_BEGIN
 90
        5
170
     1
 91
        0
 92
    32768
 62
   257
 93
        1
300
CONTENTFORMAT
  1
CONTENTFORMAT_BEGIN
 90
        0
 91
        0
 92
      512
 93
        0
300

 40
0.0
140
1.0
 94
        5
 62
     0
340
26
144
6.0
309
CONTENTFORMAT_END
171
     1
301
MARGIN
  1
CELLMARGIN_BEGIN
 40
1.5
 40
1.5
 40
1.5
 40
1.5
 40
0.18
 40
0.18
309
CELLMARGIN_END
 94
        6
 95
        1
302
GRIDFORMAT
  1
GRIDFORMAT_BEGIN
 90
        0
 91
        1
 62
     0
 92
       -2
340
0
 93
        0
 40
0.045
309
GRIDFORMAT_END
 95
        2
302
GRIDFORMAT
  1
GRIDFORMAT_BEGIN
 90
        0
 91
        1
 62
     0
 92
       -2
340
0
 93
        0
 40
0.045
309
GRIDFORMAT_END
 95
        4
302
GRIDFORMAT
  1
GRIDFORMAT_BEGIN
 90
        0
 91
        1
 62
     0
 92
       -2
340
0
 93
        0
 40
0.045
309
GRIDFORMAT_END
 95
        8
302
GRIDFORMAT
  1
GRIDFORMAT_BEGIN
 90
        0
 91
        1
 62
     0
 92
       -2
340
0
 93
        0
 40
0.045
309
GRIDFORMAT_END
 95
       16
302
GRIDFORMAT
  1
GRIDFORMAT_BEGIN
 90
        0
 91
        1
 62
     0
 92
       -2
340
0
 93
        0
 40
0.045
309
GRIDFORMAT_END
 95
       32
302
GRIDFORMAT
  1
GRIDFORMAT_BEGIN
 90
        0
 91
        1
 62
     0
 92
       -2
340
0
 93
        0
 40
0.045
309
GRIDFORMAT_END
309
TABLEFORMAT_END
  1
CELLSTYLE_BEGIN
 90
        1
 91
        1
300
_TITLE
309
CELLSTYLE_END
300
CELLSTYLE
  1
TABLEFORMAT_BEGIN
 90
        5
170
     1
 91
        0
 92
        0
 62
   257
 93
        1
300
CONTENTFORMAT
  1
CONTENTFORMAT_BEGIN
 90
        0
 91
        0
 92
      512
 93
        0
300

 40
0.0
140
1.0
 94
        5
 62
     0
340
26
144
4.5
309
CONTENTFORMAT_END
171
     1
301
MARGIN
  1
CELLMARGIN_BEGIN
 40
1.5
 40
1.5
 40
1.5
 40
1.5
 40
0.18
 40
0.18
309
CELLMARGIN_END
 94
        6
 95
        1
302
GRIDFORMAT
  1
GRIDFORMAT_BEGIN
 90
        0
 91
        1
 62
     0
 92
       -2
340
0
 93
        0
 40
0.045
309
GRIDFORMAT_END
 95
        2
302
GRIDFORMAT
  1
GRIDFORMAT_BEGIN
 90
        0
 91
        1
 62
     0
 92
       -2
340
0
 93
        0
 40
0.045
309
GRIDFORMAT_END
 95
        4
302
GRIDFORMAT
  1
GRIDFORMAT_BEGIN
 90
        0
 91
        1
 62
     0
 92
       -2
340
0
 93
        0
 40
0.045
309
GRIDFORMAT_END
 95
        8
302
GRIDFORMAT
  1
GRIDFORMAT_BEGIN
 90
        0
 91
        1
 62
     0
 92
       -2
340
0
 93
        0
 40
0.045
309
GRIDFORMAT_END
 95
       16
302
GRIDFORMAT
  1
GRIDFORMAT_BEGIN
 90
        0
 91
        1
 62
     0
 92
       -2
340
0
 93
        0
 40
0.045
309
GRIDFORMAT_END
 95
       32
302
GRIDFORMAT
  1
GRIDFORMAT_BEGIN
 90
        0
 91
        1
 62
     0
 92
       -2
340
0
 93
        0
 40
0.045
309
GRIDFORMAT_END
309
TABLEFORMAT_END
  1
CELLSTYLE_BEGIN
 90
        2
 91
        1
300
_HEADER
309
CELLSTYLE_END
300
CELLSTYLE
  1
TABLEFORMAT_BEGIN
 90
        5
170
     1
 91
        0
 92
        0
 62
   257
 93
        1
300
CONTENTFORMAT
  1
CONTENTFORMAT_BEGIN
 90
        0
 91
        0
 92
      512
 93
        0
300

 40
0.0
140
1.0
 94
        2
 62
     0
340
26
144
4.5
309
CONTENTFORMAT_END
171
     1
301
MARGIN
  1
CELLMARGIN_BEGIN
 40
1.5
 40
1.5
 40
1.5
 40
1.5
 40
0.18
 40
0.18
309
CELLMARGIN_END
 94
        6
 95
        1
302
GRIDFORMAT
  1
GRIDFORMAT_BEGIN
 90
        0
 91
        1
 62
     0
 92
       -2
340
0
 93
        0
 40
0.045
309
GRIDFORMAT_END
 95
        2
302
GRIDFORMAT
  1
GRIDFORMAT_BEGIN
 90
        0
 91
        1
 62
     0
 92
       -2
340
0
 93
        0
 40
0.045
309
GRIDFORMAT_END
 95
        4
302
GRIDFORMAT
  1
GRIDFORMAT_BEGIN
 90
        0
 91
        1
 62
     0
 92
       -2
340
0
 93
        0
 40
0.045
309
GRIDFORMAT_END
 95
        8
302
GRIDFORMAT
  1
GRIDFORMAT_BEGIN
 90
        0
 91
        1
 62
     0
 92
       -2
340
0
 93
        0
 40
0.045
309
GRIDFORMAT_END
 95
       16
302
GRIDFORMAT
  1
GRIDFORMAT_BEGIN
 90
        0
 91
        1
 62
     0
 92
       -2
340
0
 93
        0
 40
0.045
309
GRIDFORMAT_END
 95
       32
302
GRIDFORMAT
  1
GRIDFORMAT_BEGIN
 90
        0
 91
        1
 62
     0
 92
       -2
340
0
 93
        0
 40
0.045
309
GRIDFORMAT_END
309
TABLEFORMAT_END
  1
CELLSTYLE_BEGIN
 90
        3
 91
        2
300
_DATA
309
CELLSTYLE_END
  0
XRECORD
  5
13194
102
{ACAD_REACTORS
330
AAD
102
}
330
AAD
100
AcDbXrecord
280
     1
102
ACAD_ROUNDTRIP_PRE2007_TABLESTYLE
 90
      512
 91
        0
  1

 92
      512
 93
        0
  2

 94
      512
 95
        0
  3

  0
ENDSEC
  0
EOF
