  0
SECTION
  2
HEADER
  9
$ACADVER
  1
AC1015
  9
$ACADMAINTVER
 70
     6
  9
$DWGCODEPAGE
  3
ANSI_1252
  9
$INSBASE
 10
0.0
 20
0.0
 30
0.0
  9
$EXTMIN
 10
0.0
 20
0.0
 30
0.0
  9
$EXTMAX
 10
431.8
 20
279.4
 30
0.0
  9
$LIMMIN
 10
0.0
 20
0.0
  9
$LIMMAX
 10
431.8
 20
279.4
  9
$ORTHOMODE
 70
     0
  9
$REGENMODE
 70
     1
  9
$FILLMODE
 70
     1
  9
$QTEXTMODE
 70
     0
  9
$MIRRTEXT
 70
     1
  9
$LTSCALE
 40
1.0
  9
$ATTMODE
 70
     1
  9
$TEXTSIZE
 40
3.5
  9
$TRACEWID
 40
1.0
  9
$TEXTSTYLE
  7
Standard
  9
$CLAYER
  8
0
  9
$CELTYPE
  6
ByLayer
  9
$CECOLOR
 62
   256
  9
$CELTSCALE
 40
1.0
  9
$DISPSILH
 70
     0
  9
$DIMSCALE
 40
1.0
  9
$DIMASZ
 40
3.302
  9
$DIMEXO
 40
1.0
  9
$DIMDLI
 40
3.75
  9
$DIMRND
 40
0.0
  9
$DIMDLE
 40
0.0
  9
$DIMEXE
 40
1.0
  9
$DIMTP
 40
0.0
  9
$DIMTM
 40
0.0
  9
$DIMTXT
 40
3.5
  9
$DIMCEN
 40
2.5
  9
$DIMTSZ
 40
0.0
  9
$DIMTOL
 70
     0
  9
$DIMLIM
 70
     0
  9
$DIMTIH
 70
     1
  9
$DIMTOH
 70
     1
  9
$DIMSE1
 70
     0
  9
$DIMSE2
 70
     0
  9
$DIMTAD
 70
     1
  9
$DIMZIN
 70
     1
  9
$DIMBLK
  1

  9
$DIMASO
 70
     1
  9
$DIMSHO
 70
     1
  9
$DIMPOST
  1

  9
$DIMAPOST
  1

  9
$DIMALT
 70
     0
  9
$DIMALTD
 70
     3
  9
$DIMALTF
 40
0.0393700787
  9
$DIMLFAC
 40
1.0
  9
$DIMTOFL
 70
     1
  9
$DIMTVP
 40
0.0
  9
$DIMTIX
 70
     0
  9
$DIMSOXD
 70
     0
  9
$DIMSAH
 70
     0
  9
$DIMBLK1
  1

  9
$DIMBLK2
  1

  9
$DIMSTYLE
  2
ISO-25
  9
$DIMCLRD
 70
     0
  9
$DIMCLRE
 70
     0
  9
$DIMCLRT
 70
     0
  9
$DIMTFAC
 40
1.0
  9
$DIMGAP
 40
1.524
  9
$DIMJUST
 70
     0
  9
$DIMSD1
 70
     0
  9
$DIMSD2
 70
     0
  9
$DIMTOLJ
 70
     0
  9
$DIMTZIN
 70
     1
  9
$DIMALTZ
 70
     0
  9
$DIMALTTZ
 70
     0
  9
$DIMUPT
 70
     0
  9
$DIMDEC
 70
     1
  9
$DIMTDEC
 70
     1
  9
$DIMALTU
 70
     2
  9
$DIMALTTD
 70
     3
  9
$DIMTXSTY
  7
Standard
  9
$DIMAUNIT
 70
     0
  9
$DIMADEC
 70
     1
  9
$DIMALTRND
 40
0.0
  9
$DIMAZIN
 70
     0
  9
$DIMDSEP
 70
    44
  9
$DIMATFIT
 70
     3
  9
$DIMFRAC
 70
     0
  9
$DIMLDRBLK
  1

  9
$DIMLUNIT
 70
     2
  9
$DIMLWD
 70
    -2
  9
$DIMLWE
 70
    -2
  9
$DIMTMOVE
 70
     0
  9
$LUNITS
 70
     2
  9
$LUPREC
 70
     2
  9
$SKETCHINC
 40
1.0
  9
$FILLETRAD
 40
10.0
  9
$AUNITS
 70
     0
  9
$AUPREC
 70
     2
  9
$MENU
  1
.
  9
$ELEVATION
 40
0.0
  9
$PELEVATION
 40
0.0
  9
$THICKNESS
 40
0.0
  9
$LIMCHECK
 70
     0
  9
$CHAMFERA
 40
10.0
  9
$CHAMFERB
 40
10.0
  9
$CHAMFERC
 40
20.0
  9
$CHAMFERD
 40
0.0
  9
$SKPOLY
 70
     0
  9
$TDCREATE
 40
2455756.589904329
  9
$TDUCREATE
 40
2455756.756570995
  9
$TDUPDATE
 40
2455756.58990434
  9
$TDUUPDATE
 40
2455756.756571007
  9
$TDINDWG
 40
0.0000000116
  9
$TDUSRTIMER
 40
0.0000000116
  9
$USRTIMER
 70
     1
  9
$ANGBASE
 50
0.0
  9
$ANGDIR
 70
     0
  9
$PDMODE
 70
     0
  9
$PDSIZE
 40
-1.0
  9
$PLINEWID
 40
0.0
  9
$SPLFRAME
 70
     0
  9
$SPLINETYPE
 70
     6
  9
$SPLINESEGS
 70
     8
  9
$HANDSEED
  5
5CC
  9
$SURFTAB1
 70
     6
  9
$SURFTAB2
 70
     6
  9
$SURFTYPE
 70
     6
  9
$SURFU
 70
     6
  9
$SURFV
 70
     6
  9
$UCSBASE
  2

  9
$UCSNAME
  2

  9
$UCSORG
 10
0.0
 20
0.0
 30
0.0
  9
$UCSXDIR
 10
1.0
 20
0.0
 30
0.0
  9
$UCSYDIR
 10
0.0
 20
1.0
 30
0.0
  9
$UCSORTHOREF
  2

  9
$UCSORTHOVIEW
 70
     0
  9
$UCSORGTOP
 10
0.0
 20
0.0
 30
0.0
  9
$UCSORGBOTTOM
 10
0.0
 20
0.0
 30
0.0
  9
$UCSORGLEFT
 10
0.0
 20
0.0
 30
0.0
  9
$UCSORGRIGHT
 10
0.0
 20
0.0
 30
0.0
  9
$UCSORGFRONT
 10
0.0
 20
0.0
 30
0.0
  9
$UCSORGBACK
 10
0.0
 20
0.0
 30
0.0
  9
$PUCSBASE
  2

  9
$PUCSNAME
  2

  9
$PUCSORG
 10
0.0
 20
0.0
 30
0.0
  9
$PUCSXDIR
 10
1.0
 20
0.0
 30
0.0
  9
$PUCSYDIR
 10
0.0
 20
1.0
 30
0.0
  9
$PUCSORTHOREF
  2

  9
$PUCSORTHOVIEW
 70
     0
  9
$PUCSORGTOP
 10
0.0
 20
0.0
 30
0.0
  9
$PUCSORGBOTTOM
 10
0.0
 20
0.0
 30
0.0
  9
$PUCSORGLEFT
 10
0.0
 20
0.0
 30
0.0
  9
$PUCSORGRIGHT
 10
0.0
 20
0.0
 30
0.0
  9
$PUCSORGFRONT
 10
0.0
 20
0.0
 30
0.0
  9
$PUCSORGBACK
 10
0.0
 20
0.0
 30
0.0
  9
$USERI1
 70
     0
  9
$USERI2
 70
     0
  9
$USERI3
 70
     0
  9
$USERI4
 70
     0
  9
$USERI5
 70
     0
  9
$USERR1
 40
0.0
  9
$USERR2
 40
0.0
  9
$USERR3
 40
0.0
  9
$USERR4
 40
0.0
  9
$USERR5
 40
0.0
  9
$WORLDVIEW
 70
     1
  9
$SHADEDGE
 70
     3
  9
$SHADEDIF
 70
    70
  9
$TILEMODE
 70
     1
  9
$MAXACTVP
 70
    64
  9
$PINSBASE
 10
0.0
 20
0.0
 30
0.0
  9
$PLIMCHECK
 70
     0
  9
$PEXTMIN
 10
1.0000000000E+20
 20
1.0000000000E+20
 30
1.0000000000E+20
  9
$PEXTMAX
 10
-1.0000000000E+20
 20
-1.0000000000E+20
 30
-1.0000000000E+20
  9
$PLIMMIN
 10
0.0
 20
0.0
  9
$PLIMMAX
 10
420.0
 20
297.0
  9
$UNITMODE
 70
     0
  9
$VISRETAIN
 70
     1
  9
$PLINEGEN
 70
     0
  9
$PSLTSCALE
 70
     1
  9
$TREEDEPTH
 70
  3020
  9
$CMLSTYLE
  2
Standard
  9
$CMLJUST
 70
     0
  9
$CMLSCALE
 40
20.0
  9
$PROXYGRAPHICS
 70
     1
  9
$MEASUREMENT
 70
     1
  9
$CELWEIGHT
370
    -1
  9
$ENDCAPS
280
     0
  9
$JOINSTYLE
280
     0
  9
$LWDISPLAY
290
     1
  9
$INSUNITS
 70
     4
  9
$HYPERLINKBASE
  1

  9
$STYLESHEET
  1

  9
$XEDIT
290
     1
  9
$CEPSNTYPE
380
     0
  9
$PSTYLEMODE
290
     1
  9
$FINGERPRINTGUID
  2
{9CD7D070-AF65-4ACA-ACED-56D35476910F}
  9
$VERSIONGUID
  2
{FAEB1C32-E019-11D5-929B-00C0DF256EC4}
  9
$EXTNAMES
290
     1
  9
$PSVPSCALE
 40
0.0
  9
$OLESTARTUP
290
     0
  0
ENDSEC
  0
SECTION
  2
CLASSES
  0
CLASS
  1
ACDBDICTIONARYWDFLT
  2
AcDbDictionaryWithDefault
  3
ObjectDBX Classes
 90
        0
280
     0
281
     0
  0
CLASS
  1
VISUALSTYLE
  2
AcDbVisualStyle
  3
ObjectDBX Classes
 90
     4095
280
     0
281
     0
  0
CLASS
  1
MATERIAL
  2
AcDbMaterial
  3
ObjectDBX Classes
 90
     1153
280
     0
281
     0
  0
CLASS
  1
ACDBPLACEHOLDER
  2
AcDbPlaceHolder
  3
ObjectDBX Classes
 90
        0
280
     0
281
     0
  0
CLASS
  1
LAYOUT
  2
AcDbLayout
  3
ObjectDBX Classes
 90
        0
280
     0
281
     0
  0
ENDSEC
  0
SECTION
  2
TABLES
  0
TABLE
  2
VPORT
  5
8
330
0
100
AcDbSymbolTable
 70
     1
  0
VPORT
  5
29
330
8
100
AcDbSymbolTableRecord
100
AcDbViewportTableRecord
  2
*Active
 70
     0
 10
0.0
 20
0.0
 11
1.0
 21
1.0
 12
215.9
 22
139.7
 13
0.0
 23
0.0
 14
10.0
 24
10.0
 15
10.0
 25
10.0
 16
0.0
 26
0.0
 36
1.0
 17
0.0
 27
0.0
 37
0.0
 40
279.4
 41
1.5454545455
 42
50.0
 43
0.0
 44
0.0
 50
0.0
 51
0.0
 71
     0
 72
  2000
 73
     1
 74
     3
 75
     0
 76
     0
 77
     0
 78
     0
281
     0
 65
     1
110
0.0
120
0.0
130
0.0
111
1.0
121
0.0
131
0.0
112
0.0
122
1.0
132
0.0
 79
     0
146
0.0
  0
ENDTAB
  0
TABLE
  2
LTYPE
  5
5
330
0
100
AcDbSymbolTable
 70
     6
  0
LTYPE
  5
14
330
5
100
AcDbSymbolTableRecord
100
AcDbLinetypeTableRecord
  2
ByBlock
 70
     0
  3

 72
    65
 73
     0
 40
0.0
  0
LTYPE
  5
15
330
5
100
AcDbSymbolTableRecord
100
AcDbLinetypeTableRecord
  2
ByLayer
 70
     0
  3

 72
    65
 73
     0
 40
0.0
  0
LTYPE
  5
16
330
5
100
AcDbSymbolTableRecord
100
AcDbLinetypeTableRecord
  2
Continuous
 70
     0
  3
Solid line
 72
    65
 73
     0
 40
0.0
  0
LTYPE
  5
3F
330
5
100
AcDbSymbolTableRecord
100
AcDbLinetypeTableRecord
  2
HIDDEN
 70
     0
  3
Hidden __ __ __ __ __ __ __ __ __ __ __ __ __ __
 72
    65
 73
     2
 40
1.905
 49
1.27
 74
     0
 49
-0.635
 74
     0
  0
LTYPE
  5
40
330
5
100
AcDbSymbolTableRecord
100
AcDbLinetypeTableRecord
  2
PHANTOM
 70
     0
  3
Phantom ______  __  __  ______  __  __  ______
 72
    65
 73
     6
 40
12.7
 49
6.35
 74
     0
 49
-1.27
 74
     0
 49
1.27
 74
     0
 49
-1.27
 74
     0
 49
1.27
 74
     0
 49
-1.27
 74
     0
  0
LTYPE
  5
41
330
5
100
AcDbSymbolTableRecord
100
AcDbLinetypeTableRecord
  2
CENTER
 70
     0
  3
Center ____ _ ____ _ ____ _ ____ _ ____ _ ____
 72
    65
 73
     4
 40
10.16
 49
6.35
 74
     0
 49
-1.27
 74
     0
 49
1.27
 74
     0
 49
-1.27
 74
     0
  0
LTYPE
  5
42
330
5
100
AcDbSymbolTableRecord
100
AcDbLinetypeTableRecord
  2
CENTERX2
 70
     0
  3
Center (2x) ________  __  ________  __  _____
 72
    65
 73
     4
 40
20.32
 49
12.7
 74
     0
 49
-2.54
 74
     0
 49
2.54
 74
     0
 49
-2.54
 74
     0
  0
LTYPE
  5
43
330
5
100
AcDbSymbolTableRecord
100
AcDbLinetypeTableRecord
  2
DOT2
 70
     0
  3
Dot (.5x) ........................................
 72
    65
 73
     2
 40
0.635
 49
0.0
 74
     0
 49
-0.635
 74
     0
  0
ENDTAB
  0
TABLE
  2
LAYER
  5
2
330
0
100
AcDbSymbolTable
 70
     2
  0
LAYER
  5
10
330
2
100
AcDbSymbolTableRecord
100
AcDbLayerTableRecord
  2
0
 70
     0
 62
     7
  6
Continuous
370
    -3
390
F
  0
LAYER
  5
44
330
2
100
AcDbSymbolTableRecord
100
AcDbLayerTableRecord
  2
FORMAT
 70
     0
 62
     7
  6
Continuous
370
    -3
390
F
  0
ENDTAB
  0
TABLE
  2
STYLE
  5
3
330
0
100
AcDbSymbolTable
 70
     4
  0
STYLE
  5
11
330
3
100
AcDbSymbolTableRecord
100
AcDbTextStyleTableRecord
  2
Standard
 70
     0
 40
0.0
 41
1.0
 50
0.0
 71
     0
 42
2.5
  3
txt
  4

  0
STYLE
  5
8F
330
3
100
AcDbSymbolTableRecord
100
AcDbTextStyleTableRecord
  2
SLDTEXTSTYLE0
 70
     0
 40
0.0
 41
0.75
 50
0.0
 71
     0
 42
0.2
  3
TXT
  4

  0
STYLE
  5
DD
330
3
100
AcDbSymbolTableRecord
100
AcDbTextStyleTableRecord
  2
SLDTEXTSTYLE1
 70
     0
 40
0.0
 41
0.7
 50
0.0
 71
     0
 42
0.2
  3
TXT
  4

  0
STYLE
  5
DF
330
3
100
AcDbSymbolTableRecord
100
AcDbTextStyleTableRecord
  2
SLDTEXTSTYLE2
 70
     0
 40
0.0
 41
0.6875
 50
0.0
 71
     0
 42
0.2
  3
TXT
  4

  0
ENDTAB
  0
TABLE
  2
VIEW
  5
6
330
0
100
AcDbSymbolTable
 70
     0
  0
ENDTAB
  0
TABLE
  2
UCS
  5
7
330
0
100
AcDbSymbolTable
 70
     0
  0
ENDTAB
  0
TABLE
  2
APPID
  5
9
330
0
100
AcDbSymbolTable
 70
     1
  0
APPID
  5
12
330
9
100
AcDbSymbolTableRecord
100
AcDbRegAppTableRecord
  2
ACAD
 70
     0
  0
ENDTAB
  0
TABLE
  2
DIMSTYLE
  5
A
330
0
100
AcDbSymbolTable
 70
     4
100
AcDbDimStyleTable
  0
DIMSTYLE
105
27
330
A
100
AcDbSymbolTableRecord
100
AcDbDimStyleTableRecord
  2
ISO-25
 70
     0
 41
2.5
 42
0.625
 43
3.75
 44
1.25
 73
     0
 74
     0
 77
     1
 78
     8
140
2.5
141
2.5
143
0.0393700787
147
0.625
171
     3
172
     1
178
     0
271
     2
272
     2
274
     3
278
    44
283
     0
284
     8
340
11
  0
DIMSTYLE
105
239
102
{ACAD_REACTORS
330
238
330
267
330
384
330
38F
330
399
102
}
330
A
100
AcDbSymbolTableRecord
100
AcDbDimStyleTableRecord
  2
SLDDIMSTYLE0
 70
     0
 41
3.302
 44
0.0
 45
0.000000001
 73
     0
 74
     0
 77
     1
 78
    12
 79
     3
140
3.5
147
0.875
173
     1
178
     0
271
     2
272
     2
276
     2
284
    12
340
8F
  0
DIMSTYLE
105
244
102
{ACAD_REACTORS
330
243
102
}
330
A
100
AcDbSymbolTableRecord
100
AcDbDimStyleTableRecord
  2
SLDDIMSTYLE1
 70
     0
 41
3.302
 44
0.0
 45
0.000000001
 73
     0
 74
     0
 77
     1
 78
     4
 79
     1
140
3.5
147
0.875
173
     1
178
     0
271
     2
272
     2
276
     2
284
    12
340
8F
  0
DIMSTYLE
105
24F
102
{ACAD_REACTORS
330
24E
330
25B
102
}
330
A
100
AcDbSymbolTableRecord
100
AcDbDimStyleTableRecord
  2
SLDDIMSTYLE2
 70
     0
 41
3.302
 44
0.0
 45
0.000000001
 73
     0
 74
     0
 77
     1
 78
    12
 79
     3
140
3.5
147
0.875
172
     1
173
     1
178
     0
271
     2
272
     2
276
     2
284
    12
289
     0
340
8F
  0
ENDTAB
  0
TABLE
  2
BLOCK_RECORD
  5
1
330
0
100
AcDbSymbolTable
 70
    14
  0
BLOCK_RECORD
  5
1F
330
1
100
AcDbSymbolTableRecord
100
AcDbBlockTableRecord
  2
*Model_Space
340
22
  0
BLOCK_RECORD
  5
1B
330
1
100
AcDbSymbolTableRecord
100
AcDbBlockTableRecord
  2
*Paper_Space
340
1E
  0
BLOCK_RECORD
  5
23
330
1
100
AcDbSymbolTableRecord
100
AcDbBlockTableRecord
  2
*Paper_Space0
340
26
  0
BLOCK_RECORD
  5
A5
330
1
100
AcDbSymbolTableRecord
100
AcDbBlockTableRecord
  2
SW_NOTE_0
340
0
102
{BLKREFS
331
AE
102
}
  0
BLOCK_RECORD
  5
B3
330
1
100
AcDbSymbolTableRecord
100
AcDbBlockTableRecord
  2
SW_NOTE_1
340
0
102
{BLKREFS
331
C9
102
}
  0
BLOCK_RECORD
  5
CA
330
1
100
AcDbSymbolTableRecord
100
AcDbBlockTableRecord
  2
SW_NOTE_2
340
0
102
{BLKREFS
331
CF
102
}
  0
BLOCK_RECORD
  5
E7
330
1
100
AcDbSymbolTableRecord
100
AcDbBlockTableRecord
  2
SW_NOTE_3
340
0
102
{BLKREFS
331
EC
102
}
  0
BLOCK_RECORD
  5
ED
330
1
100
AcDbSymbolTableRecord
100
AcDbBlockTableRecord
  2
SW_TABLEANNOTATION_0
340
0
102
{BLKREFS
331
FF
102
}
  0
BLOCK_RECORD
  5
23A
330
1
100
AcDbSymbolTableRecord
100
AcDbBlockTableRecord
  2
*D6
340
0
  0
BLOCK_RECORD
  5
245
330
1
100
AcDbSymbolTableRecord
100
AcDbBlockTableRecord
  2
*D7
340
0
  0
BLOCK_RECORD
  5
250
330
1
100
AcDbSymbolTableRecord
100
AcDbBlockTableRecord
  2
*D8
340
0
  0
BLOCK_RECORD
  5
25C
330
1
100
AcDbSymbolTableRecord
100
AcDbBlockTableRecord
  2
*D9
340
0
  0
BLOCK_RECORD
  5
268
330
1
100
AcDbSymbolTableRecord
100
AcDbBlockTableRecord
  2
*D10
340
0
  0
BLOCK_RECORD
  5
385
330
1
100
AcDbSymbolTableRecord
100
AcDbBlockTableRecord
  2
*D11
340
0
  0
BLOCK_RECORD
  5
390
330
1
100
AcDbSymbolTableRecord
100
AcDbBlockTableRecord
  2
*D12
340
0
  0
BLOCK_RECORD
  5
39A
330
1
100
AcDbSymbolTableRecord
100
AcDbBlockTableRecord
  2
*D13
340
0
  0
ENDTAB
  0
ENDSEC
  0
SECTION
  2
BLOCKS
  0
BLOCK
  5
20
330
1F
100
AcDbEntity
  8
0
100
AcDbBlockBegin
  2
*Model_Space
 70
     0
 10
0.0
 20
0.0
 30
0.0
  3
*Model_Space
  1

  0
ENDBLK
  5
21
330
1F
100
AcDbEntity
  8
0
100
AcDbBlockEnd
  0
BLOCK
  5
1C
330
1B
100
AcDbEntity
 67
     1
  8
0
100
AcDbBlockBegin
  2
*Paper_Space
 70
     0
 10
0.0
 20
0.0
 30
0.0
  3
*Paper_Space
  1

  0
ENDBLK
  5
1D
330
1B
100
AcDbEntity
 67
     1
  8
0
100
AcDbBlockEnd
  0
BLOCK
  5
24
330
23
100
AcDbEntity
  8
0
100
AcDbBlockBegin
  2
*Paper_Space0
 70
     0
 10
0.0
 20
0.0
 30
0.0
  3
*Paper_Space0
  1

  0
ENDBLK
  5
25
330
23
100
AcDbEntity
  8
0
100
AcDbBlockEnd
  0
BLOCK
  5
A6
330
A5
100
AcDbEntity
  8
0
100
AcDbBlockBegin
  2
SW_NOTE_0
 70
     0
 10
0.0
 20
0.0
 30
0.0
  3
SW_NOTE_0
  1

  0
MTEXT
  5
A8
330
A5
100
AcDbEntity
  8
0
  6
Continuous
 62
     0
370
     0
100
AcDbMText
 10
0.0
 20
1.9645392354
 30
0.0
 40
1.524
 41
0.0
 71
     1
 72
     1
  1
THE INFORMATION CONTAINED IN THIS
  7
SLDTEXTSTYLE0
 73
     1
 44
1.0
  0
MTEXT
  5
A9
330
A5
100
AcDbEntity
  8
0
  6
Continuous
 62
     0
370
     0
100
AcDbMText
 10
0.0
 20
-0.5594606586
 30
0.0
 40
1.524
 41
0.0
 71
     1
 72
     1
  1
DRAWING IS THE SOLE PROPERTY OF
  7
SLDTEXTSTYLE0
 73
     1
 44
1.0
  0
MTEXT
  5
AA
330
A5
100
AcDbEntity
  8
0
  6
Continuous
 62
     0
370
     0
100
AcDbMText
 10
0.0
 20
-3.0834605527
 30
0.0
 40
1.524
 41
0.0
 71
     1
 72
     1
  1
SmartVisionLights.  ANY
  7
SLDTEXTSTYLE0
 73
     1
 44
1.0
  0
MTEXT
  5
AB
330
A5
100
AcDbEntity
  8
0
  6
Continuous
 62
     0
370
     0
100
AcDbMText
 10
0.0
 20
-5.6074604467
 30
0.0
 40
1.524
 41
0.0
 71
     1
 72
     1
  1
REPRODUCTION IN PART OR AS A WHOLE
  7
SLDTEXTSTYLE0
 73
     1
 44
1.0
  0
MTEXT
  5
AC
330
A5
100
AcDbEntity
  8
0
  6
Continuous
 62
     0
370
     0
100
AcDbMText
 10
0.0
 20
-8.1314603407
 30
0.0
 40
1.524
 41
0.0
 71
     1
 72
     1
  1
WITHOUT THE WRITTEN PERMISSION OF
  7
SLDTEXTSTYLE0
 73
     1
 44
1.0
  0
MTEXT
  5
AD
330
A5
100
AcDbEntity
  8
0
  6
Continuous
 62
     0
370
     0
100
AcDbMText
 10
0.0
 20
-10.6554602348
 30
0.0
 40
1.524
 41
0.0
 71
     1
 72
     1
  1
SmartVisionLights IS PROHIBITED.
  7
SLDTEXTSTYLE0
 73
     1
 44
1.0
  0
ENDBLK
  5
A7
330
A5
100
AcDbEntity
  8
0
100
AcDbBlockEnd
  0
BLOCK
  5
B4
330
B3
100
AcDbEntity
  8
0
100
AcDbBlockBegin
  2
SW_NOTE_1
 70
     0
 10
0.0
 20
0.0
 30
0.0
  3
SW_NOTE_1
  1

  0
MTEXT
  5
B6
330
B3
100
AcDbEntity
  8
0
  6
Continuous
 62
     0
370
     0
100
AcDbMText
 10
0.0
 20
2.1282508384
 30
0.0
 40
1.651
 41
0.0
 71
     1
 72
     1
  1
DIMENSIONS ARE IN MM
  7
SLDTEXTSTYLE0
 73
     1
 44
1.0
  0
MTEXT
  5
B7
330
B3
100
AcDbEntity
  8
0
  6
Continuous
 62
     0
370
     0
100
AcDbMText
 10
0.0
 20
-0.5227490914
 30
0.0
 40
1.651
 41
0.0
 71
     1
 72
     1
  1
TOLERANCES:
  7
SLDTEXTSTYLE0
 73
     1
 44
1.0
  0
MTEXT
  5
B8
330
B3
100
AcDbEntity
  8
0
  6
Continuous
 62
     0
370
     0
100
AcDbMText
 10
0.0
 20
-3.1737490211
 30
0.0
 40
1.651
 41
0.0
 71
     1
 72
     1
  1
FRACTIONAL
  7
SLDTEXTSTYLE0
 73
     1
 44
1.0
  0
MTEXT
  5
B9
330
B3
100
AcDbEntity
  8
0
  6
Continuous
 62
     0
370
     0
100
AcDbMText
 10
13.1466602907
 20
-3.1737490211
 30
0.0
 40
1.651
 41
0.0
 71
     1
 72
     1
  1
%%p
  7
SLDTEXTSTYLE0
 73
     1
 44
1.0
  0
MTEXT
  5
BA
330
B3
100
AcDbEntity
  8
0
  6
Continuous
 62
     0
370
     0
100
AcDbMText
 10
14.7192385048
 20
-3.1737490211
 30
0.0
 40
1.651
 41
0.0
 71
     1
 72
     1
  1
1-64
  7
SLDTEXTSTYLE0
 73
     1
 44
1.0
  0
MTEXT
  5
BB
330
B3
100
AcDbEntity
  8
0
  6
Continuous
 62
     0
370
     0
100
AcDbMText
 10
0.0
 20
-5.8247489509
 30
0.0
 40
1.651
 41
0.0
 71
     1
 72
     1
  1
ANGULAR: MACH
  7
SLDTEXTSTYLE0
 73
     1
 44
1.0
  0
MTEXT
  5
BC
330
B3
100
AcDbEntity
  8
0
  6
Continuous
 62
     0
370
     0
100
AcDbMText
 10
18.3736812323
 20
-5.8247489509
 30
0.0
 40
1.651
 41
0.0
 71
     1
 72
     1
  1
%%p
  7
SLDTEXTSTYLE0
 73
     1
 44
1.0
  0
MTEXT
  5
BD
330
B3
100
AcDbEntity
  8
0
  6
Continuous
 62
     0
370
     0
100
AcDbMText
 10
19.9462585151
 20
-5.8247489509
 30
0.0
 40
1.651
 41
0.0
 71
     1
 72
     1
  1
.25
  7
SLDTEXTSTYLE0
 73
     1
 44
1.0
  0
MTEXT
  5
BE
330
B3
100
AcDbEntity
  8
0
  6
Continuous
 62
     0
370
     0
100
AcDbMText
 10
22.9111798108
 20
-5.8247489509
 30
0.0
 40
1.651
 41
0.0
 71
     1
 72
     1
  1
%%d
  7
SLDTEXTSTYLE0
 73
     1
 44
1.0
  0
MTEXT
  5
BF
330
B3
100
AcDbEntity
  8
0
  6
Continuous
 62
     0
370
     0
100
AcDbMText
 10
24.5786890451
 20
-5.8247489509
 30
0.0
 40
1.651
 41
0.0
 71
     1
 72
     1
  1
BEND
  7
SLDTEXTSTYLE0
 73
     1
 44
1.0
  0
MTEXT
  5
C0
330
B3
100
AcDbEntity
  8
0
  6
Continuous
 62
     0
370
     0
100
AcDbMText
 10
30.7286642492
 20
-5.8247489509
 30
0.0
 40
1.651
 41
0.0
 71
     1
 72
     1
  1
%%p
  7
SLDTEXTSTYLE0
 73
     1
 44
1.0
  0
MTEXT
  5
C1
330
B3
100
AcDbEntity
  8
0
  6
Continuous
 62
     0
370
     0
100
AcDbMText
 10
32.3012433946
 20
-5.8247489509
 30
0.0
 40
1.651
 41
0.0
 71
     1
 72
     1
  1
3
  7
SLDTEXTSTYLE0
 73
     1
 44
1.0
  0
MTEXT
  5
C2
330
B3
100
AcDbEntity
  8
0
  6
Continuous
 62
     0
370
     0
100
AcDbMText
 10
33.5007980466
 20
-5.8247489509
 30
0.0
 40
1.651
 41
0.0
 71
     1
 72
     1
  1
%%d
  7
SLDTEXTSTYLE0
 73
     1
 44
1.0
  0
MTEXT
  5
C3
330
B3
100
AcDbEntity
  8
0
  6
Continuous
 62
     0
370
     0
100
AcDbMText
 10
0.0
 20
-8.4757488807
 30
0.0
 40
1.651
 41
0.0
 71
     1
 72
     1
  1
TWO PLACE DECIMAL
  7
SLDTEXTSTYLE0
 73
     1
 44
1.0
  0
MTEXT
  5
C4
330
B3
100
AcDbEntity
  8
0
  6
Continuous
 62
     0
370
     0
100
AcDbMText
 10
24.877646938
 20
-8.4757488807
 30
0.0
 40
1.651
 41
0.0
 71
     1
 72
     1
  1
%%p
  7
SLDTEXTSTYLE0
 73
     1
 44
1.0
  0
MTEXT
  5
C5
330
B3
100
AcDbEntity
  8
0
  6
Continuous
 62
     0
370
     0
100
AcDbMText
 10
26.4502242208
 20
-8.4757488807
 30
0.0
 40
1.651
 41
0.0
 71
     1
 72
     1
  1
.10 mm
  7
SLDTEXTSTYLE0
 73
     1
 44
1.0
  0
MTEXT
  5
C6
330
B3
100
AcDbEntity
  8
0
  6
Continuous
 62
     0
370
     0
100
AcDbMText
 10
0.0
 20
-11.1267488104
 30
0.0
 40
1.651
 41
0.0
 71
     1
 72
     1
  1
THREE PLACE DECIMAL
  7
SLDTEXTSTYLE0
 73
     1
 44
1.0
  0
MTEXT
  5
C7
330
B3
100
AcDbEntity
  8
0
  6
Continuous
 62
     0
370
     0
100
AcDbMText
 10
24.7346162796
 20
-11.1267488104
 30
0.0
 40
1.651
 41
0.0
 71
     1
 72
     1
  1
%%p
  7
SLDTEXTSTYLE0
 73
     1
 44
1.0
  0
MTEXT
  5
C8
330
B3
100
AcDbEntity
  8
0
  6
Continuous
 62
     0
370
     0
100
AcDbMText
 10
26.307195425
 20
-11.1267488104
 30
0.0
 40
1.651
 41
0.0
 71
     1
 72
     1
  1
.01 mm
  7
SLDTEXTSTYLE0
 73
     1
 44
1.0
  0
ENDBLK
  5
B5
330
B3
100
AcDbEntity
  8
0
100
AcDbBlockEnd
  0
BLOCK
  5
CB
330
CA
100
AcDbEntity
  8
0
100
AcDbBlockBegin
  2
SW_NOTE_2
 70
     0
 10
0.0
 20
0.0
 30
0.0
  3
SW_NOTE_2
  1

  0
MTEXT
  5
CD
330
CA
100
AcDbEntity
  8
0
  6
Continuous
 62
     0
370
     0
100
AcDbMText
 10
0.0
 20
1.9645392354
 30
0.0
 40
1.524
 41
0.0
 71
     1
 72
     1
  1
INTERPRET GEOMETRIC
  7
SLDTEXTSTYLE0
 73
     1
 44
1.0
  0
MTEXT
  5
CE
330
CA
100
AcDbEntity
  8
0
  6
Continuous
 62
     0
370
     0
100
AcDbMText
 10
0.0
 20
-0.5594606586
 30
0.0
 40
1.524
 41
0.0
 71
     1
 72
     1
  1
TOLERANCING PER:
  7
SLDTEXTSTYLE0
 73
     1
 44
1.0
  0
ENDBLK
  5
CC
330
CA
100
AcDbEntity
  8
0
100
AcDbBlockEnd
  0
BLOCK
  5
E8
330
E7
100
AcDbEntity
  8
0
100
AcDbBlockBegin
  2
SW_NOTE_3
 70
     0
 10
0.0
 20
0.0
 30
0.0
  3
SW_NOTE_3
  1

  0
MTEXT
  5
EA
330
E7
100
AcDbEntity
  8
FORMAT
 62
     0
100
AcDbMText
 10
30.2286458333
 20
5.4570534317
 30
0.0
 40
4.2333333333
 41
0.0
 71
     2
 72
     1
  1
SmartVisionLights.Com
  7
SLDTEXTSTYLE0
 73
     1
 44
1.0
  0
MTEXT
  5
EB
330
E7
100
AcDbEntity
  8
FORMAT
 62
     0
100
AcDbMText
 10
30.3018999934
 20
-5.7849873518
 30
0.0
 40
3.175
 41
0.0
 71
     2
 72
     1
  1
matt@smartvisionlights.com
  7
SLDTEXTSTYLE0
 73
     1
 44
1.0
  0
ENDBLK
  5
E9
330
E7
100
AcDbEntity
  8
0
100
AcDbBlockEnd
  0
BLOCK
  5
EE
330
ED
100
AcDbEntity
  8
0
100
AcDbBlockBegin
  2
SW_TABLEANNOTATION_0
 70
     0
 10
0.0
 20
0.0
 30
0.0
  3
SW_TABLEANNOTATION_0
  1

  0
LINE
  5
F0
330
ED
100
AcDbEntity
  8
FORMAT
 62
     0
100
AcDbLine
 10
0.0
 20
0.0
 30
0.0
 11
0.0
 21
-9.9737019835
 31
0.0
  0
LINE
  5
F1
330
ED
100
AcDbEntity
  8
FORMAT
 62
     0
100
AcDbLine
 10
0.0
 20
-9.9737019835
 30
0.0
 11
117.8686089276
 21
-9.9737019835
 31
0.0
  0
LINE
  5
F2
330
ED
100
AcDbEntity
  8
FORMAT
 62
     0
100
AcDbLine
 10
117.8686089276
 20
-9.9737019835
 30
0.0
 11
117.8686089276
 21
0.0
 31
0.0
  0
LINE
  5
F3
330
ED
100
AcDbEntity
  8
FORMAT
 62
     0
100
AcDbLine
 10
117.8686089276
 20
0.0
 30
0.0
 11
0.0
 21
0.0
 31
0.0
  0
LINE
  5
F4
330
ED
100
AcDbEntity
  8
FORMAT
 62
     0
100
AcDbLine
 10
10.16
 20
-4.3265294553
 30
0.0
 11
10.16
 21
-9.9737019835
 31
0.0
  0
LINE
  5
F5
330
ED
100
AcDbEntity
  8
FORMAT
 62
     0
100
AcDbLine
 10
19.759069312
 20
-4.3265294553
 30
0.0
 11
19.759069312
 21
-9.9737019835
 31
0.0
  0
LINE
  5
F6
330
ED
100
AcDbEntity
  8
FORMAT
 62
     0
100
AcDbLine
 10
82.105705538
 20
-4.3265294553
 30
0.0
 11
82.105705538
 21
-9.9737019835
 31
0.0
  0
LINE
  5
F7
330
ED
100
AcDbEntity
  8
FORMAT
 62
     0
100
AcDbLine
 10
97.0292371959
 20
-4.3265294553
 30
0.0
 11
97.0292371959
 21
-9.9737019835
 31
0.0
  0
LINE
  5
F8
330
ED
100
AcDbEntity
  8
FORMAT
 62
     0
100
AcDbLine
 10
0.0
 20
-4.3265294553
 30
0.0
 11
117.8686089276
 21
-4.3265294553
 31
0.0
  0
MTEXT
  5
F9
330
ED
100
AcDbEntity
  8
FORMAT
 62
     0
100
AcDbMText
 10
52.0120203226
 20
-1.1087532813
 30
0.0
 40
2.1166666667
 41
0.0
 71
     1
 72
     1
  1
REVISIONS
  7
SLDTEXTSTYLE0
 73
     1
 44
1.0
  0
MTEXT
  5
FA
330
ED
100
AcDbEntity
  8
FORMAT
 62
     0
100
AcDbMText
 10
1.3738735262
 20
-6.0956042731
 30
0.0
 40
2.1166666667
 41
0.0
 71
     1
 72
     1
  1
ZONE
  7
SLDTEXTSTYLE0
 73
     1
 44
1.0
  0
MTEXT
  5
FB
330
ED
100
AcDbEntity
  8
FORMAT
 62
     0
100
AcDbMText
 10
11.9648431686
 20
-6.0956042731
 30
0.0
 40
2.1166666667
 41
0.0
 71
     1
 72
     1
  1
REV.
  7
SLDTEXTSTYLE0
 73
     1
 44
1.0
  0
MTEXT
  5
FC
330
ED
100
AcDbEntity
  8
FORMAT
 62
     0
100
AcDbMText
 10
42.0717853815
 20
-6.0956042731
 30
0.0
 40
2.1166666667
 41
0.0
 71
     1
 72
     1
  1
DESCRIPTION
  7
SLDTEXTSTYLE0
 73
     1
 44
1.0
  0
MTEXT
  5
FD
330
ED
100
AcDbEntity
  8
FORMAT
 62
     0
100
AcDbMText
 10
86.114168937
 20
-6.0956042731
 30
0.0
 40
2.1166666667
 41
0.0
 71
     1
 72
     1
  1
DATE
  7
SLDTEXTSTYLE0
 73
     1
 44
1.0
  0
MTEXT
  5
FE
330
ED
100
AcDbEntity
  8
FORMAT
 62
     0
100
AcDbMText
 10
99.8524414703
 20
-6.0956042731
 30
0.0
 40
2.1166666667
 41
0.0
 71
     1
 72
     1
  1
APPROVED
  7
SLDTEXTSTYLE0
 73
     1
 44
1.0
  0
ENDBLK
  5
EF
330
ED
100
AcDbEntity
  8
0
100
AcDbBlockEnd
  0
BLOCK
  5
23B
330
23A
100
AcDbEntity
  8
0
100
AcDbBlockBegin
  2
*D6
 70
     1
 10
0.0
 20
0.0
 30
0.0
  3
*D6
  1

  0
SOLID
  5
23D
330
23A
100
AcDbEntity
  8
FORMAT
100
AcDbTrace
 10
57.6493418596
 20
117.7926396088
 30
0.0
 11
57.1413418596
 21
114.4906396088
 31
0.0
 12
58.1573418596
 22
114.4906396088
 32
0.0
 13
58.1573418596
 23
114.4906396088
 33
0.0
  0
SOLID
  5
23E
330
23A
100
AcDbEntity
  8
FORMAT
100
AcDbTrace
 10
57.6493418596
 20
88.7141396179
 30
0.0
 11
58.1573418596
 21
92.0161396179
 31
0.0
 12
57.1413418596
 22
92.0161396179
 32
0.0
 13
57.1413418596
 23
92.0161396179
 33
0.0
  0
LINE
  5
23F
330
23A
100
AcDbEntity
  8
FORMAT
100
AcDbLine
 10
67.0799448196
 20
117.7926396088
 30
0.0
 11
56.6493418596
 21
117.7926396088
 31
0.0
  0
LINE
  5
240
330
23A
100
AcDbEntity
  8
FORMAT
100
AcDbLine
 10
76.9669676701
 20
88.7141396179
 30
0.0
 11
56.6493418596
 21
88.7141396179
 31
0.0
  0
LINE
  5
241
330
23A
100
AcDbEntity
  8
FORMAT
100
AcDbLine
 10
57.6493418596
 20
117.7926396088
 30
0.0
 11
57.6493418596
 21
88.7141396179
 31
0.0
  0
MTEXT
  5
242
330
23A
100
AcDbEntity
  8
FORMAT
100
AcDbMText
 10
53.1376049451
 20
99.1159714998
 30
-152.3
 40
3.5
 41
0.0
 71
     1
 72
     1
  1
29.1
  7
SLDTEXTSTYLE0
 11
-7.044195017643634E-15
 21
1.0
 31
0.0
 73
     1
 44
1.0
  0
ENDBLK
  5
23C
330
23A
100
AcDbEntity
  8
0
100
AcDbBlockEnd
  0
BLOCK
  5
246
330
245
100
AcDbEntity
  8
0
100
AcDbBlockBegin
  2
*D7
 70
     1
 10
0.0
 20
0.0
 30
0.0
  3
*D7
  1

  0
SOLID
  5
248
330
245
100
AcDbEntity
  8
FORMAT
100
AcDbTrace
 10
76.9669676701
 20
76.4426396179
 30
0.0
 11
80.2689676701
 21
75.9346396179
 31
0.0
 12
80.2689676701
 22
76.9506396179
 32
0.0
 13
80.2689676701
 23
76.9506396179
 33
0.0
  0
SOLID
  5
249
330
245
100
AcDbEntity
  8
FORMAT
100
AcDbTrace
 10
142.9669676701
 20
76.4426396179
 30
0.0
 11
139.6649676701
 21
76.9506396179
 31
0.0
 12
139.6649676701
 22
75.9346396179
 32
0.0
 13
139.6649676701
 23
75.9346396179
 33
0.0
  0
LINE
  5
24A
330
245
100
AcDbEntity
  8
FORMAT
100
AcDbLine
 10
76.9669676701
 20
88.7141396179
 30
0.0
 11
76.9669676701
 21
75.4426396179
 31
0.0
  0
LINE
  5
24B
330
245
100
AcDbEntity
  8
FORMAT
100
AcDbLine
 10
142.9669676701
 20
88.7141396179
 30
0.0
 11
142.9669676701
 21
75.4426396179
 31
0.0
  0
LINE
  5
24C
330
245
100
AcDbEntity
  8
FORMAT
100
AcDbLine
 10
76.9669676701
 20
76.4426396179
 30
0.0
 11
142.9669676701
 21
76.4426396179
 31
0.0
  0
MTEXT
  5
24D
330
245
100
AcDbEntity
  8
FORMAT
100
AcDbMText
 10
104.0193982849
 20
80.9543765325
 30
-152.3
 40
3.5
 41
0.0
 71
     1
 72
     1
  1
66.0
  7
SLDTEXTSTYLE0
 73
     1
 44
1.0
  0
ENDBLK
  5
247
330
245
100
AcDbEntity
  8
0
100
AcDbBlockEnd
  0
BLOCK
  5
251
330
250
100
AcDbEntity
  8
0
100
AcDbBlockBegin
  2
*D8
 70
     1
 10
0.0
 20
0.0
 30
0.0
  3
*D8
  1

  0
SOLID
  5
253
330
250
100
AcDbEntity
  8
FORMAT
100
AcDbTrace
 10
154.9669676701
 20
126.6926396179
 30
0.0
 11
155.4749676701
 21
129.9946396179
 31
0.0
 12
154.4589676701
 22
129.9946396179
 32
0.0
 13
154.4589676701
 23
129.9946396179
 33
0.0
  0
SOLID
  5
254
330
250
100
AcDbEntity
  8
FORMAT
100
AcDbTrace
 10
154.9669676701
 20
108.8926395997
 30
0.0
 11
154.4589676701
 21
105.5906395997
 31
0.0
 12
155.4749676701
 22
105.5906395997
 32
0.0
 13
155.4749676701
 23
105.5906395997
 33
0.0
  0
LINE
  5
255
330
250
100
AcDbEntity
  8
FORMAT
100
AcDbLine
 10
141.7169676701
 20
126.6926396179
 30
0.0
 11
155.9669676701
 21
126.6926396179
 31
0.0
  0
LINE
  5
256
330
250
100
AcDbEntity
  8
FORMAT
100
AcDbLine
 10
141.7169676701
 20
108.8926395997
 30
0.0
 11
155.9669676701
 21
108.8926395997
 31
0.0
  0
LINE
  5
257
330
250
100
AcDbEntity
  8
FORMAT
100
AcDbLine
 10
154.9669676701
 20
126.6926396179
 30
0.0
 11
154.9669676701
 21
133.0426396179
 31
0.0
  0
LINE
  5
258
330
250
100
AcDbEntity
  8
FORMAT
100
AcDbLine
 10
154.9669676701
 20
126.6926396179
 30
0.0
 11
154.9669676701
 21
108.8926395997
 31
0.0
  0
LINE
  5
259
330
250
100
AcDbEntity
  8
FORMAT
100
AcDbLine
 10
154.9669676701
 20
108.8926395997
 30
0.0
 11
154.9669676701
 21
102.5426395997
 31
0.0
  0
MTEXT
  5
25A
330
250
100
AcDbEntity
  8
FORMAT
100
AcDbMText
 10
150.4552307555
 20
111.8450702236
 30
-152.3
 40
3.5
 41
0.0
 71
     1
 72
     1
  1
17.8
  7
SLDTEXTSTYLE0
 11
-8.820551857043885E-15
 21
1.0
 31
0.0
 73
     1
 44
1.0
  0
ENDBLK
  5
252
330
250
100
AcDbEntity
  8
0
100
AcDbBlockEnd
  0
BLOCK
  5
25D
330
25C
100
AcDbEntity
  8
0
100
AcDbBlockBegin
  2
*D9
 70
     1
 10
0.0
 20
0.0
 30
0.0
  3
*D9
  1

  0
SOLID
  5
25F
330
25C
100
AcDbEntity
  8
FORMAT
100
AcDbTrace
 10
140.9669676701
 20
145.4426396179
 30
0.0
 11
144.2689676701
 21
144.9346396179
 31
0.0
 12
144.2689676701
 22
145.9506396179
 32
0.0
 13
144.2689676701
 23
145.9506396179
 33
0.0
  0
SOLID
  5
260
330
25C
100
AcDbEntity
  8
FORMAT
100
AcDbTrace
 10
133.9169676519
 20
145.4426396179
 30
0.0
 11
130.6149676519
 21
145.9506396179
 31
0.0
 12
130.6149676519
 22
144.9346396179
 32
0.0
 13
130.6149676519
 23
144.9346396179
 33
0.0
  0
LINE
  5
261
330
25C
100
AcDbEntity
  8
FORMAT
100
AcDbLine
 10
140.9669676701
 20
113.8926396088
 30
0.0
 11
140.9669676701
 21
146.4426396179
 31
0.0
  0
LINE
  5
262
330
25C
100
AcDbEntity
  8
FORMAT
100
AcDbLine
 10
133.9169676519
 20
123.2961930085
 30
0.0
 11
133.9169676519
 21
146.4426396179
 31
0.0
  0
LINE
  5
263
330
25C
100
AcDbEntity
  8
FORMAT
100
AcDbLine
 10
140.9669676701
 20
145.4426396179
 30
0.0
 11
156.4971758725
 21
145.4426396179
 31
0.0
  0
LINE
  5
264
330
25C
100
AcDbEntity
  8
FORMAT
100
AcDbLine
 10
140.9669676701
 20
145.4426396179
 30
0.0
 11
133.9169676519
 21
145.4426396179
 31
0.0
  0
LINE
  5
265
330
25C
100
AcDbEntity
  8
FORMAT
100
AcDbLine
 10
133.9169676519
 20
145.4426396179
 30
0.0
 11
127.5669676519
 21
145.4426396179
 31
0.0
  0
MTEXT
  5
266
330
25C
100
AcDbEntity
  8
FORMAT
100
AcDbMText
 10
147.1881485286
 20
149.9543765325
 30
-152.3
 40
3.5
 41
0.0
 71
     1
 72
     1
  1
7.1
  7
SLDTEXTSTYLE0
 73
     1
 44
1.0
  0
ENDBLK
  5
25E
330
25C
100
AcDbEntity
  8
0
100
AcDbBlockEnd
  0
BLOCK
  5
269
330
268
100
AcDbEntity
  8
0
100
AcDbBlockBegin
  2
*D10
 70
     1
 10
0.0
 20
0.0
 30
0.0
  3
*D10
  1

  0
SOLID
  5
26B
330
268
100
AcDbEntity
  8
FORMAT
100
AcDbTrace
 10
44.9669676701
 20
88.7141396179
 30
0.0
 11
45.4749676701
 21
92.0161396179
 31
0.0
 12
44.4589676701
 22
92.0161396179
 32
0.0
 13
44.4589676701
 23
92.0161396179
 33
0.0
  0
SOLID
  5
26C
330
268
100
AcDbEntity
  8
FORMAT
100
AcDbTrace
 10
44.9669676701
 20
133.1641396179
 30
0.0
 11
44.4589676701
 21
129.8621396179
 31
0.0
 12
45.4749676701
 22
129.8621396179
 32
0.0
 13
45.4749676701
 23
129.8621396179
 33
0.0
  0
LINE
  5
26D
330
268
100
AcDbEntity
  8
FORMAT
100
AcDbLine
 10
76.9669676701
 20
88.7141396179
 30
0.0
 11
43.9669676701
 21
88.7141396179
 31
0.0
  0
LINE
  5
26E
330
268
100
AcDbEntity
  8
FORMAT
100
AcDbLine
 10
76.9669676701
 20
133.1641396179
 30
0.0
 11
43.9669676701
 21
133.1641396179
 31
0.0
  0
LINE
  5
26F
330
268
100
AcDbEntity
  8
FORMAT
100
AcDbLine
 10
44.9669676701
 20
88.7141396179
 30
0.0
 11
44.9669676701
 21
133.1641396179
 31
0.0
  0
MTEXT
  5
270
330
268
100
AcDbEntity
  8
FORMAT
100
AcDbMText
 10
40.4552307555
 20
104.9915702327
 30
-152.3
 40
3.5
 41
0.0
 71
     1
 72
     1
  1
44.5
  7
SLDTEXTSTYLE0
 11
6.123233995736766E-17
 21
1.0
 31
0.0
 73
     1
 44
1.0
  0
ENDBLK
  5
26A
330
268
100
AcDbEntity
  8
0
100
AcDbBlockEnd
  0
BLOCK
  5
386
330
385
100
AcDbEntity
  8
0
100
AcDbBlockBegin
  2
*D11
 70
     1
 10
0.0
 20
0.0
 30
0.0
  3
*D11
  1

  0
SOLID
  5
388
330
385
100
AcDbEntity
  8
FORMAT
100
AcDbTrace
 10
372.6981936743
 20
145.4426396179
 30
0.0
 11
369.3961936743
 21
145.9506396179
 31
0.0
 12
369.3961936743
 22
144.9346396179
 32
0.0
 13
369.3961936743
 23
144.9346396179
 33
0.0
  0
SOLID
  5
389
330
385
100
AcDbEntity
  8
FORMAT
100
AcDbTrace
 10
222.8381936743
 20
145.4426396179
 30
0.0
 11
226.1401936743
 21
144.9346396179
 31
0.0
 12
226.1401936743
 22
145.9506396179
 32
0.0
 13
226.1401936743
 23
145.9506396179
 33
0.0
  0
LINE
  5
38A
330
385
100
AcDbEntity
  8
FORMAT
100
AcDbLine
 10
372.6981936743
 20
134.4426396179
 30
0.0
 11
372.6981936743
 21
146.4426396179
 31
0.0
  0
LINE
  5
38B
330
385
100
AcDbEntity
  8
FORMAT
100
AcDbLine
 10
222.8381936743
 20
134.4426396179
 30
0.0
 11
222.8381936743
 21
146.4426396179
 31
0.0
  0
LINE
  5
38C
330
385
100
AcDbEntity
  8
FORMAT
100
AcDbLine
 10
372.6981936743
 20
145.4426396179
 30
0.0
 11
222.8381936743
 21
145.4426396179
 31
0.0
  0
MTEXT
  5
38D
330
385
100
AcDbEntity
  8
FORMAT
100
AcDbMText
 10
273.9490859252
 20
149.9543765325
 30
0.0
 40
3.5
 41
0.0
 71
     1
 72
     1
  1
149.9
  7
SLDTEXTSTYLE0
 73
     1
 44
1.0
  0
MTEXT
  5
38E
330
385
100
AcDbEntity
  8
FORMAT
100
AcDbMText
 10
286.8959668846
 20
149.9543765325
 30
0.0
 40
3.5
 41
0.0
 71
     1
 72
     1
  1
ACTIVE LENGTH
  7
SLDTEXTSTYLE0
 73
     1
 44
1.0
  0
ENDBLK
  5
387
330
385
100
AcDbEntity
  8
0
100
AcDbBlockEnd
  0
BLOCK
  5
391
330
390
100
AcDbEntity
  8
0
100
AcDbBlockBegin
  2
*D12
 70
     1
 10
0.0
 20
0.0
 30
0.0
  3
*D12
  1

  0
SOLID
  5
393
330
390
100
AcDbEntity
  8
FORMAT
100
AcDbTrace
 10
219.7379936743
 20
155.4426396179
 30
0.0
 11
223.0399936743
 21
154.9346396179
 31
0.0
 12
223.0399936743
 22
155.9506396179
 32
0.0
 13
223.0399936743
 23
155.9506396179
 33
0.0
  0
SOLID
  5
394
330
390
100
AcDbEntity
  8
FORMAT
100
AcDbTrace
 10
375.7983936743
 20
155.4426396179
 30
0.0
 11
372.4963936743
 21
155.9506396179
 31
0.0
 12
372.4963936743
 22
154.9346396179
 32
0.0
 13
372.4963936743
 23
154.9346396179
 33
0.0
  0
LINE
  5
395
330
390
100
AcDbEntity
  8
FORMAT
100
AcDbLine
 10
219.7379936743
 20
128.0736396179
 30
0.0
 11
219.7379936743
 21
156.4426396179
 31
0.0
  0
LINE
  5
396
330
390
100
AcDbEntity
  8
FORMAT
100
AcDbLine
 10
375.7983936743
 20
128.0736396179
 30
0.0
 11
375.7983936743
 21
156.4426396179
 31
0.0
  0
LINE
  5
397
330
390
100
AcDbEntity
  8
FORMAT
100
AcDbLine
 10
219.7379936743
 20
155.4426396179
 30
0.0
 11
375.7983936743
 21
155.4426396179
 31
0.0
  0
MTEXT
  5
398
330
390
100
AcDbEntity
  8
FORMAT
100
AcDbMText
 10
291.9510031946
 20
159.9543765325
 30
0.0
 40
3.5
 41
0.0
 71
     1
 72
     1
  1
156.1
  7
SLDTEXTSTYLE0
 73
     1
 44
1.0
  0
ENDBLK
  5
392
330
390
100
AcDbEntity
  8
0
100
AcDbBlockEnd
  0
BLOCK
  5
39B
330
39A
100
AcDbEntity
  8
0
100
AcDbBlockBegin
  2
*D13
 70
     1
 10
0.0
 20
0.0
 30
0.0
  3
*D13
  1

  0
SOLID
  5
39D
330
39A
100
AcDbEntity
  8
FORMAT
100
AcDbTrace
 10
375.7983936743
 20
165.4426396179
 30
0.0
 11
372.4963936743
 21
165.9506396179
 31
0.0
 12
372.4963936743
 22
164.9346396179
 32
0.0
 13
372.4963936743
 23
164.9346396179
 33
0.0
  0
SOLID
  5
39E
330
39A
100
AcDbEntity
  8
FORMAT
100
AcDbTrace
 10
214.6679936743
 20
165.4426396179
 30
0.0
 11
217.9699936743
 21
164.9346396179
 31
0.0
 12
217.9699936743
 22
165.9506396179
 32
0.0
 13
217.9699936743
 23
165.9506396179
 33
0.0
  0
LINE
  5
39F
330
39A
100
AcDbEntity
  8
FORMAT
100
AcDbLine
 10
375.7983936743
 20
128.0736396179
 30
0.0
 11
375.7983936743
 21
166.4426396179
 31
0.0
  0
LINE
  5
3A0
330
39A
100
AcDbEntity
  8
FORMAT
100
AcDbLine
 10
214.6679936743
 20
118.4626396179
 30
0.0
 11
214.6679936743
 21
166.4426396179
 31
0.0
  0
LINE
  5
3A1
330
39A
100
AcDbEntity
  8
FORMAT
100
AcDbLine
 10
375.7983936743
 20
165.4426396179
 30
0.0
 11
214.6679936743
 21
165.4426396179
 31
0.0
  0
MTEXT
  5
3A2
330
39A
100
AcDbEntity
  8
FORMAT
100
AcDbMText
 10
292.712034793
 20
169.9543765325
 30
0.0
 40
3.5
 41
0.0
 71
     1
 72
     1
  1
161.1
  7
SLDTEXTSTYLE0
 73
     1
 44
1.0
  0
ENDBLK
  5
39C
330
39A
100
AcDbEntity
  8
0
100
AcDbBlockEnd
  0
ENDSEC
  0
SECTION
  2
ENTITIES
  0
LINE
  5
45
330
1F
100
AcDbEntity
  8
0
  6
Continuous
 62
     7
370
     0
100
AcDbLine
 10
15.9067907574
 20
270.3086585366
 30
0.0
 11
415.9567907574
 21
270.3086585366
 31
0.0
  0
LINE
  5
46
330
1F
100
AcDbEntity
  8
0
  6
Continuous
 62
     7
370
     0
100
AcDbLine
 10
15.9067907574
 20
270.3086585366
 30
0.0
 11
15.9067907574
 21
9.9586585366
 31
0.0
  0
LINE
  5
47
330
1F
100
AcDbEntity
  8
0
  6
Continuous
 62
     7
370
     0
100
AcDbLine
 10
415.9567907574
 20
9.9586585366
 30
0.0
 11
15.9067907574
 21
9.9586585366
 31
0.0
  0
LINE
  5
48
330
1F
100
AcDbEntity
  8
0
  6
Continuous
 62
     7
370
     0
100
AcDbLine
 10
415.9567907574
 20
9.9586585366
 30
0.0
 11
415.9567907574
 21
270.3086585366
 31
0.0
  0
LINE
  5
49
330
1F
100
AcDbEntity
  8
0
  6
Continuous
 62
     7
370
     0
100
AcDbLine
 10
415.9567907574
 20
205.1124212398
 30
0.0
 11
419.1317907574
 21
205.1124212398
 31
0.0
  0
LINE
  5
4A
330
1F
100
AcDbEntity
  8
0
  6
Continuous
 62
     7
370
     0
100
AcDbLine
 10
415.9567907574
 20
140.0249212398
 30
0.0
 11
419.1317907574
 21
140.0249212398
 31
0.0
  0
LINE
  5
4B
330
1F
100
AcDbEntity
  8
0
  6
Continuous
 62
     7
370
     0
100
AcDbLine
 10
415.9567907574
 20
140.0249212398
 30
0.0
 11
417.6631990566
 21
140.6347663616
 31
0.0
  0
LINE
  5
4C
330
1F
100
AcDbEntity
  8
0
  6
Continuous
 62
     7
370
     0
100
AcDbLine
 10
415.9567907574
 20
140.0249212398
 30
0.0
 11
417.6631990566
 21
139.4514266928
 31
0.0
  0
LINE
  5
4D
330
1F
100
AcDbEntity
  8
0
  6
Continuous
 62
     7
370
     0
100
AcDbLine
 10
417.6631990566
 20
140.6347663616
 30
0.0
 11
417.6631990566
 21
139.4514266928
 31
0.0
  0
LINE
  5
4E
330
1F
100
AcDbEntity
  8
0
  6
Continuous
 62
     7
370
     0
100
AcDbLine
 10
415.9567907574
 20
140.0249212398
 30
0.0
 11
417.6631990566
 21
140.2544904611
 31
0.0
  0
LINE
  5
4F
330
1F
100
AcDbEntity
  8
0
  6
Continuous
 62
     7
370
     0
100
AcDbLine
 10
415.9567907574
 20
140.0249212398
 30
0.0
 11
417.6631990566
 21
139.7630949914
 31
0.0
  0
LINE
  5
50
330
1F
100
AcDbEntity
  8
0
  6
Continuous
 62
     7
370
     0
100
AcDbLine
 10
415.9567907574
 20
74.9374212398
 30
0.0
 11
419.1317907574
 21
74.9374212398
 31
0.0
  0
LINE
  5
51
330
1F
100
AcDbEntity
  8
0
  6
Continuous
 62
     7
370
     0
100
AcDbLine
 10
15.9067907574
 20
75.0461585366
 30
0.0
 11
12.7317907574
 21
75.0461585366
 31
0.0
  0
LINE
  5
52
330
1F
100
AcDbEntity
  8
0
  6
Continuous
 62
     7
370
     0
100
AcDbLine
 10
15.9067907574
 20
140.1336585366
 30
0.0
 11
14.2003824582
 21
139.8718322882
 31
0.0
  0
LINE
  5
53
330
1F
100
AcDbEntity
  8
0
  6
Continuous
 62
     7
370
     0
100
AcDbLine
 10
15.9067907574
 20
140.1336585366
 30
0.0
 11
14.2003824582
 21
140.3632277579
 31
0.0
  0
LINE
  5
54
330
1F
100
AcDbEntity
  8
0
  6
Continuous
 62
     7
370
     0
100
AcDbLine
 10
14.2003824582
 20
140.7435036584
 30
0.0
 11
14.2003824582
 21
139.5601639895
 31
0.0
  0
LINE
  5
55
330
1F
100
AcDbEntity
  8
0
  6
Continuous
 62
     7
370
     0
100
AcDbLine
 10
15.9067907574
 20
140.1336585366
 30
0.0
 11
14.2003824582
 21
139.5601639895
 31
0.0
  0
LINE
  5
56
330
1F
100
AcDbEntity
  8
0
  6
Continuous
 62
     7
370
     0
100
AcDbLine
 10
15.9067907574
 20
140.1336585366
 30
0.0
 11
14.2003824582
 21
140.7435036584
 31
0.0
  0
LINE
  5
57
330
1F
100
AcDbEntity
  8
0
  6
Continuous
 62
     7
370
     0
100
AcDbLine
 10
15.9067907574
 20
140.1336585366
 30
0.0
 11
12.7317907574
 21
140.1336585366
 31
0.0
  0
LINE
  5
58
330
1F
100
AcDbEntity
  8
0
  6
Continuous
 62
     7
370
     0
100
AcDbLine
 10
15.9067907574
 20
205.2211585366
 30
0.0
 11
12.7317907574
 21
205.2211585366
 31
0.0
  0
LINE
  5
59
330
1F
100
AcDbEntity
  8
0
  6
Continuous
 62
     7
370
     0
100
AcDbLine
 10
267.830521828
 20
9.9586585366
 30
0.0
 11
267.830521828
 21
59.8530968697
 31
0.0
  0
LINE
  5
5A
330
1F
100
AcDbEntity
  8
0
  6
Continuous
 62
     7
370
     0
100
AcDbLine
 10
217.6109227274
 20
59.8530968697
 30
0.0
 11
415.9567907574
 21
59.8530968697
 31
0.0
  0
LINE
  5
5B
330
1F
100
AcDbEntity
  8
0
  6
Continuous
 62
     7
370
     0
100
AcDbLine
 10
302.9193803417
 20
59.8530968697
 30
0.0
 11
302.9193803417
 21
9.9586585366
 31
0.0
  0
LINE
  5
5C
330
1F
100
AcDbEntity
  8
0
  6
Continuous
 62
     7
370
     0
100
AcDbLine
 10
345.8853028693
 20
59.8530968697
 30
0.0
 11
345.8853028693
 21
9.9586585366
 31
0.0
  0
LINE
  5
5D
330
1F
100
AcDbEntity
  8
0
  6
Continuous
 62
     7
370
     0
100
AcDbLine
 10
345.8853028693
 20
15.3659588565
 30
0.0
 11
415.9567907574
 21
15.3659588565
 31
0.0
  0
LINE
  5
5E
330
1F
100
AcDbEntity
  8
0
  6
Continuous
 62
     7
370
     0
100
AcDbLine
 10
345.8853028693
 20
28.2431806399
 30
0.0
 11
415.9567907574
 21
28.2431806399
 31
0.0
  0
LINE
  5
5F
330
1F
100
AcDbEntity
  8
0
  6
Continuous
 62
     7
370
     0
100
AcDbLine
 10
345.8853028693
 20
50.5274674196
 30
0.0
 11
415.9567907574
 21
50.5274674196
 31
0.0
  0
LINE
  5
60
330
1F
100
AcDbEntity
  8
0
  6
Continuous
 62
     7
370
     0
100
AcDbLine
 10
355.9321394572
 20
28.2431806399
 30
0.0
 11
355.9321394572
 21
15.3659588565
 31
0.0
  0
LINE
  5
61
330
1F
100
AcDbEntity
  8
0
  6
Continuous
 62
     7
370
     0
100
AcDbLine
 10
366.7929703041
 20
15.3659588565
 30
0.0
 11
366.7929703041
 21
9.9586585366
 31
0.0
  0
LINE
  5
62
330
1F
100
AcDbEntity
  8
0
  6
Continuous
 62
     7
370
     0
100
AcDbLine
 10
401.4296342521
 20
28.2431806399
 30
0.0
 11
401.4296342521
 21
15.3659588565
 31
0.0
  0
LINE
  5
63
330
1F
100
AcDbEntity
  8
0
  6
Continuous
 62
     7
370
     0
100
AcDbLine
 10
391.4795388001
 20
15.3659588565
 30
0.0
 11
391.4795388001
 21
9.9586585366
 31
0.0
  0
LINE
  5
64
330
1F
100
AcDbEntity
  8
0
  6
Continuous
 62
     7
370
     0
100
AcDbLine
 10
217.6109227274
 20
14.9440391966
 30
0.0
 11
302.9193803417
 21
14.9440391966
 31
0.0
  0
LINE
  5
65
330
1F
100
AcDbEntity
  8
0
  6
Continuous
 62
     7
370
     0
100
AcDbLine
 10
302.9193803417
 20
45.5655968697
 30
0.0
 11
345.8853028693
 21
45.5655968697
 31
0.0
  0
LINE
  5
66
330
1F
100
AcDbEntity
  8
0
  6
Continuous
 62
     7
370
     0
100
AcDbLine
 10
302.9193803417
 20
50.3280968697
 30
0.0
 11
345.8853028693
 21
50.3280968697
 31
0.0
  0
LINE
  5
67
330
1F
100
AcDbEntity
  8
0
  6
Continuous
 62
     7
370
     0
100
AcDbLine
 10
302.9193803417
 20
55.0905968697
 30
0.0
 11
345.8853028693
 21
55.0905968697
 31
0.0
  0
LINE
  5
68
330
1F
100
AcDbEntity
  8
0
  6
Continuous
 62
     7
370
     0
100
AcDbLine
 10
345.8853028693
 20
31.2780968697
 30
0.0
 11
302.9193803417
 21
31.2780968697
 31
0.0
  0
LINE
  5
69
330
1F
100
AcDbEntity
  8
0
  6
Continuous
 62
     7
370
     0
100
AcDbLine
 10
333.717459143
 20
59.8530968697
 30
0.0
 11
333.717459143
 21
31.2780968697
 31
0.0
  0
LINE
  5
6A
330
1F
100
AcDbEntity
  8
0
  6
Continuous
 62
     7
370
     0
100
AcDbLine
 10
321.8168681458
 20
59.8530968697
 30
0.0
 11
321.8168681458
 21
31.2780968697
 31
0.0
  0
LINE
  5
6B
330
1F
100
AcDbEntity
  8
0
  6
Continuous
 62
     7
370
     0
100
AcDbLine
 10
267.830521828
 20
21.7372318753
 30
0.0
 11
302.9193803417
 21
21.7372318753
 31
0.0
  0
LINE
  5
6C
330
1F
100
AcDbEntity
  8
0
  6
Continuous
 62
     7
370
     0
100
AcDbLine
 10
267.830521828
 20
28.5952318753
 30
0.0
 11
302.9193803417
 21
28.5952318753
 31
0.0
  0
LINE
  5
6D
330
1F
100
AcDbEntity
  8
0
  6
Continuous
 62
     7
370
     0
100
AcDbLine
 10
217.6109227274
 20
9.9586585366
 30
0.0
 11
217.6109227274
 21
59.8530968697
 31
0.0
  0
LINE
  5
6E
330
1F
100
AcDbEntity
  8
0
  6
Continuous
 62
     7
370
     0
100
AcDbLine
 10
217.6109227274
 20
28.1030968697
 30
0.0
 11
267.830521828
 21
28.1030968697
 31
0.0
  0
LINE
  5
6F
330
1F
100
AcDbEntity
  8
0
  6
Continuous
 62
     7
370
     0
100
AcDbLine
 10
217.6109227274
 20
34.4530968697
 30
0.0
 11
267.830521828
 21
34.4530968697
 31
0.0
  0
LINE
  5
70
330
1F
100
AcDbEntity
  8
0
  6
Continuous
 62
     7
370
     0
100
AcDbLine
 10
217.6109227274
 20
40.8030968697
 30
0.0
 11
267.830521828
 21
40.8030968697
 31
0.0
  0
LINE
  5
71
330
1F
100
AcDbEntity
  8
0
  6
Continuous
 62
     7
370
     0
100
AcDbLine
 10
217.6109227274
 20
47.1530968697
 30
0.0
 11
267.830521828
 21
47.1530968697
 31
0.0
  0
LINE
  5
72
330
1F
100
AcDbEntity
  8
0
  6
Continuous
 62
     7
370
     0
100
AcDbLine
 10
242.9596180208
 20
59.8530968697
 30
0.0
 11
242.9596180208
 21
14.9440391966
 31
0.0
  0
LINE
  5
73
330
1F
100
AcDbEntity
  8
0
  6
Continuous
 62
     7
370
     0
100
AcDbLine
 10
302.9193803417
 20
55.932866281
 30
0.0
 11
267.830521828
 21
55.932866281
 31
0.0
  0
LINE
  5
74
330
1F
100
AcDbEntity
  8
0
  6
Continuous
 62
     7
370
     0
100
AcDbLine
 10
345.8853028693
 20
40.8030968697
 30
0.0
 11
302.9193803417
 21
40.8030968697
 31
0.0
  0
LINE
  5
75
330
1F
100
AcDbEntity
  8
0
  6
Continuous
 62
     7
370
     0
100
AcDbLine
 10
345.8853028693
 20
36.0405968697
 30
0.0
 11
302.9193803417
 21
36.0405968697
 31
0.0
  0
LINE
  5
76
330
1F
100
AcDbEntity
  8
0
  6
Continuous
 62
     7
370
     0
100
AcDbLine
 10
217.6109227274
 20
53.5030968697
 30
0.0
 11
267.830521828
 21
53.5030968697
 31
0.0
  0
LINE
  5
77
330
1F
100
AcDbEntity
  8
0
  6
Continuous
 62
     7
370
     0
100
AcDbLine
 10
267.830521828
 20
35.4532318753
 30
0.0
 11
302.9193803417
 21
35.4532318753
 31
0.0
  0
LINE
  5
78
330
1F
100
AcDbEntity
  8
0
  6
Continuous
 62
     7
370
     0
100
AcDbLine
 10
217.6109227274
 20
21.7530968697
 30
0.0
 11
267.830521828
 21
21.7530968697
 31
0.0
  0
LINE
  5
79
330
1F
100
AcDbEntity
  8
0
  6
Continuous
 62
     7
370
     0
100
AcDbLine
 10
176.025807432
 20
9.9586585366
 30
0.0
 11
176.025807432
 21
33.1830968697
 31
0.0
  0
LINE
  5
7A
330
1F
100
AcDbEntity
  8
0
  6
Continuous
 62
     7
370
     0
100
AcDbLine
 10
217.6109227274
 20
33.1830968697
 30
0.0
 11
176.025807432
 21
33.1830968697
 31
0.0
  0
LINE
  5
7B
330
1F
100
AcDbEntity
  8
0
  6
Continuous
 62
     7
370
     0
100
AcDbLine
 10
265.9316907574
 20
9.9586585366
 30
0.0
 11
265.9316907574
 21
7.8047587093
 31
0.0
  0
LINE
  5
7C
330
1F
100
AcDbEntity
  8
0
  6
Continuous
 62
     7
370
     0
100
AcDbLine
 10
215.9254407574
 20
9.9586585366
 30
0.0
 11
215.9254407574
 21
7.8047587093
 31
0.0
  0
LINE
  5
7D
330
1F
100
AcDbEntity
  8
0
  6
Continuous
 62
     7
370
     0
100
AcDbLine
 10
165.9191907574
 20
9.9586585366
 30
0.0
 11
165.9191907574
 21
7.8047587093
 31
0.0
  0
LINE
  5
7E
330
1F
100
AcDbEntity
  8
0
  6
Continuous
 62
     7
370
     0
100
AcDbLine
 10
115.9129407574
 20
9.9586585366
 30
0.0
 11
115.9129407574
 21
7.8047587093
 31
0.0
  0
LINE
  5
7F
330
1F
100
AcDbEntity
  8
0
  6
Continuous
 62
     7
370
     0
100
AcDbLine
 10
65.9066907574
 20
9.9586585366
 30
0.0
 11
65.9066907574
 21
7.8047587093
 31
0.0
  0
LINE
  5
80
330
1F
100
AcDbEntity
  8
0
  6
Continuous
 62
     7
370
     0
100
AcDbLine
 10
65.9066907574
 20
270.3086585366
 30
0.0
 11
65.9066907574
 21
272.4625583638
 31
0.0
  0
LINE
  5
81
330
1F
100
AcDbEntity
  8
0
  6
Continuous
 62
     7
370
     0
100
AcDbLine
 10
115.9129407574
 20
270.3086585366
 30
0.0
 11
115.9129407574
 21
272.4625583638
 31
0.0
  0
LINE
  5
82
330
1F
100
AcDbEntity
  8
0
  6
Continuous
 62
     7
370
     0
100
AcDbLine
 10
165.9191907574
 20
270.3086585366
 30
0.0
 11
165.9191907574
 21
272.4625583638
 31
0.0
  0
LINE
  5
83
330
1F
100
AcDbEntity
  8
0
  6
Continuous
 62
     7
370
     0
100
AcDbLine
 10
215.9254407574
 20
270.3086585366
 30
0.0
 11
215.9254407574
 21
272.4625583638
 31
0.0
  0
LINE
  5
84
330
1F
100
AcDbEntity
  8
0
  6
Continuous
 62
     7
370
     0
100
AcDbLine
 10
265.9316907574
 20
270.3086585366
 30
0.0
 11
265.9316907574
 21
272.4625583638
 31
0.0
  0
LINE
  5
85
330
1F
100
AcDbEntity
  8
0
  6
Continuous
 62
     7
370
     0
100
AcDbLine
 10
315.9379407574
 20
270.3086585366
 30
0.0
 11
315.9379407574
 21
272.4625583638
 31
0.0
  0
LINE
  5
86
330
1F
100
AcDbEntity
  8
0
  6
Continuous
 62
     7
370
     0
100
AcDbLine
 10
365.9441907574
 20
270.3086585366
 30
0.0
 11
365.9441907574
 21
272.4625583638
 31
0.0
  0
LINE
  5
87
330
1F
100
AcDbEntity
  8
0
  6
Continuous
 62
     7
370
     0
100
AcDbLine
 10
215.9254407574
 20
270.3086585366
 30
0.0
 11
215.5888623736
 21
271.3737387512
 31
0.0
  0
LINE
  5
88
330
1F
100
AcDbEntity
  8
0
  6
Continuous
 62
     7
370
     0
100
AcDbLine
 10
215.9254407574
 20
270.3086585366
 30
0.0
 11
216.2443370929
 21
271.3737387512
 31
0.0
  0
LINE
  5
89
330
1F
100
AcDbEntity
  8
0
  6
Continuous
 62
     7
370
     0
100
AcDbLine
 10
216.2443370929
 20
271.3737387512
 30
0.0
 11
215.5888623736
 21
271.3737387512
 31
0.0
  0
LINE
  5
8A
330
1F
100
AcDbEntity
  8
0
  6
Continuous
 62
     7
370
     0
100
AcDbLine
 10
215.7466618431
 20
271.3737387512
 30
0.0
 11
215.9254407574
 21
270.3086585366
 31
0.0
  0
LINE
  5
8B
330
1F
100
AcDbEntity
  8
0
  6
Continuous
 62
     7
370
     0
100
AcDbLine
 10
216.0501223612
 20
271.3737387512
 30
0.0
 11
215.9254407574
 21
270.3086585366
 31
0.0
  0
LINE
  5
8C
330
1F
100
AcDbEntity
  8
0
  6
Continuous
 62
     7
370
     0
100
AcDbLine
 10
215.9254407574
 20
9.9586585366
 30
0.0
 11
216.2443370929
 21
9.0805
 31
0.0
  0
LINE
  5
8D
330
1F
100
AcDbEntity
  8
0
  6
Continuous
 62
     7
370
     0
100
AcDbLine
 10
216.2443370929
 20
9.0805
 30
0.0
 11
215.5888623736
 21
9.0805
 31
0.0
  0
LINE
  5
8E
330
1F
100
AcDbEntity
  8
0
  6
Continuous
 62
     7
370
     0
100
AcDbLine
 10
215.5888623736
 20
9.0805
 30
0.0
 11
215.9254407574
 21
9.9586585366
 31
0.0
  0
MTEXT
  5
90
330
1F
100
AcDbEntity
  8
0
  6
Continuous
 62
     7
370
     0
100
AcDbMText
 10
418.8794231834
 20
241.0714054433
 30
0.0
 40
2.38125
 41
0.0
 71
     1
 72
     1
  1
D
  7
SLDTEXTSTYLE0
 73
     1
 44
1.0
  0
MTEXT
  5
91
330
1F
100
AcDbEntity
  8
0
  6
Continuous
 62
     7
370
     0
100
AcDbMText
 10
418.3680386609
 20
175.3890220962
 30
0.0
 40
2.38125
 41
0.0
 71
     1
 72
     1
  1
C
  7
SLDTEXTSTYLE0
 73
     1
 44
1.0
  0
MTEXT
  5
92
330
1F
100
AcDbEntity
  8
0
  6
Continuous
 62
     7
370
     0
100
AcDbMText
 10
419.3915604936
 20
111.2288371218
 30
0.0
 40
2.38125
 41
0.0
 71
     1
 72
     1
  1
B
  7
SLDTEXTSTYLE0
 73
     1
 44
1.0
  0
MTEXT
  5
93
330
1F
100
AcDbEntity
  8
0
  6
Continuous
 62
     7
370
     0
100
AcDbMText
 10
418.6448555065
 20
45.0246917692
 30
0.0
 40
2.38125
 41
0.0
 71
     1
 72
     1
  1
A
  7
SLDTEXTSTYLE0
 73
     1
 44
1.0
  0
MTEXT
  5
94
330
1F
100
AcDbEntity
  8
0
  6
Continuous
 62
     7
370
     0
100
AcDbMText
 10
10.820652718
 20
44.5985924773
 30
0.0
 40
2.38125
 41
0.0
 71
     1
 72
     1
  1
A
  7
SLDTEXTSTYLE0
 73
     1
 44
1.0
  0
MTEXT
  5
95
330
1F
100
AcDbEntity
  8
0
  6
Continuous
 62
     7
370
     0
100
AcDbMText
 10
10.8306039777
 20
111.5884357443
 30
0.0
 40
2.38125
 41
0.0
 71
     1
 72
     1
  1
B
  7
SLDTEXTSTYLE0
 73
     1
 44
1.0
  0
MTEXT
  5
96
330
1F
100
AcDbEntity
  8
0
  6
Continuous
 62
     7
370
     0
100
AcDbMText
 10
10.853786142
 20
175.522733138
 30
0.0
 40
2.38125
 41
0.0
 71
     1
 72
     1
  1
C
  7
SLDTEXTSTYLE0
 73
     1
 44
1.0
  0
MTEXT
  5
97
330
1F
100
AcDbEntity
  8
0
  6
Continuous
 62
     7
370
     0
100
AcDbMText
 10
10.8867061911
 20
240.2217030242
 30
0.0
 40
2.38125
 41
0.0
 71
     1
 72
     1
  1
D
  7
SLDTEXTSTYLE0
 73
     1
 44
1.0
  0
MTEXT
  5
98
330
1F
100
AcDbEntity
  8
0
  6
Continuous
 62
     7
370
     0
100
AcDbMText
 10
240.541173263
 20
7.9685832965
 30
0.0
 40
2.38125
 41
0.0
 71
     1
 72
     1
  1
4
  7
SLDTEXTSTYLE0
 73
     1
 44
1.0
  0
MTEXT
  5
99
330
1F
100
AcDbEntity
  8
0
  6
Continuous
 62
     7
370
     0
100
AcDbMText
 10
190.1219351105
 20
7.8888951884
 30
0.0
 40
2.38125
 41
0.0
 71
     1
 72
     1
  1
5
  7
SLDTEXTSTYLE0
 73
     1
 44
1.0
  0
MTEXT
  5
9A
330
1F
100
AcDbEntity
  8
0
  6
Continuous
 62
     7
370
     0
100
AcDbMText
 10
140.1781610596
 20
7.9668476272
 30
0.0
 40
2.38125
 41
0.0
 71
     1
 72
     1
  1
6
  7
SLDTEXTSTYLE0
 73
     1
 44
1.0
  0
MTEXT
  5
9B
330
1F
100
AcDbEntity
  8
0
  6
Continuous
 62
     7
370
     0
100
AcDbMText
 10
90.3586375544
 20
7.9568297864
 30
0.0
 40
2.38125
 41
0.0
 71
     1
 72
     1
  1
7
  7
SLDTEXTSTYLE0
 73
     1
 44
1.0
  0
MTEXT
  5
9C
330
1F
100
AcDbEntity
  8
0
  6
Continuous
 62
     7
370
     0
100
AcDbMText
 10
38.7800710995
 20
7.9492539073
 30
0.0
 40
2.38125
 41
0.0
 71
     1
 72
     1
  1
8
  7
SLDTEXTSTYLE0
 73
     1
 44
1.0
  0
MTEXT
  5
9D
330
1F
100
AcDbEntity
  8
0
  6
Continuous
 62
     7
370
     0
100
AcDbMText
 10
38.3308572712
 20
275.1200557166
 30
0.0
 40
2.38125
 41
0.0
 71
     1
 72
     1
  1
8
  7
SLDTEXTSTYLE0
 73
     1
 44
1.0
  0
MTEXT
  5
9E
330
1F
100
AcDbEntity
  8
0
  6
Continuous
 62
     7
370
     0
100
AcDbMText
 10
90.1950704946
 20
275.0478953561
 30
0.0
 40
2.38125
 41
0.0
 71
     1
 72
     1
  1
7
  7
SLDTEXTSTYLE0
 73
     1
 44
1.0
  0
MTEXT
  5
9F
330
1F
100
AcDbEntity
  8
0
  6
Continuous
 62
     7
370
     0
100
AcDbMText
 10
139.6666672272
 20
275.2534126814
 30
0.0
 40
2.38125
 41
0.0
 71
     1
 72
     1
  1
6
  7
SLDTEXTSTYLE0
 73
     1
 44
1.0
  0
MTEXT
  5
A0
330
1F
100
AcDbEntity
  8
0
  6
Continuous
 62
     7
370
     0
100
AcDbMText
 10
189.9588449211
 20
275.2670412387
 30
0.0
 40
2.38125
 41
0.0
 71
     1
 72
     1
  1
5
  7
SLDTEXTSTYLE0
 73
     1
 44
1.0
  0
MTEXT
  5
A1
330
1F
100
AcDbEntity
  8
0
  6
Continuous
 62
     7
370
     0
100
AcDbMText
 10
240.3931876138
 20
275.2256559205
 30
0.0
 40
2.38125
 41
0.0
 71
     1
 72
     1
  1
4
  7
SLDTEXTSTYLE0
 73
     1
 44
1.0
  0
MTEXT
  5
A2
330
1F
100
AcDbEntity
  8
0
  6
Continuous
 62
     7
370
     0
100
AcDbMText
 10
290.3912938678
 20
275.0698655016
 30
0.0
 40
2.38125
 41
0.0
 71
     1
 72
     1
  1
3
  7
SLDTEXTSTYLE0
 73
     1
 44
1.0
  0
MTEXT
  5
A3
330
1F
100
AcDbEntity
  8
0
  6
Continuous
 62
     7
370
     0
100
AcDbMText
 10
340.3852725955
 20
275.2395343009
 30
0.0
 40
2.38125
 41
0.0
 71
     1
 72
     1
  1
2
  7
SLDTEXTSTYLE0
 73
     1
 44
1.0
  0
MTEXT
  5
A4
330
1F
100
AcDbEntity
  8
0
  6
Continuous
 62
     7
370
     0
100
AcDbMText
 10
391.8558838139
 20
275.083743882
 30
0.0
 40
2.38125
 41
0.0
 71
     1
 72
     1
  1
1
  7
SLDTEXTSTYLE0
 73
     1
 44
1.0
  0
INSERT
  5
AE
330
1F
100
AcDbEntity
  8
0
  6
Continuous
 62
     7
370
     0
100
AcDbBlockReference
  2
SW_NOTE_0
 10
177.0112160057
 20
26.1962720203
 30
0.0
  0
MTEXT
  5
AF
330
1F
100
AcDbEntity
  8
0
  6
Continuous
 62
     7
370
     0
100
AcDbMText
 10
180.7863682586
 20
31.7415486186
 30
0.0
 40
1.524
 41
0.0
 71
     1
 72
     1
  1
PROPRIETARY AND CONFIDENTIAL
  7
SLDTEXTSTYLE0
 73
     1
 44
1.0
  0
MTEXT
  5
B0
330
1F
100
AcDbEntity
  8
0
  6
Continuous
 62
     7
370
     0
100
AcDbMText
 10
224.7982945776
 20
19.02992075
 30
0.0
 40
1.5875
 41
0.0
 71
     1
 72
     1
  1
NEXT ASSY
  7
SLDTEXTSTYLE0
 73
     1
 44
1.0
  0
MTEXT
  5
B1
330
1F
100
AcDbEntity
  8
0
  6
Continuous
 62
     7
370
     0
100
AcDbMText
 10
250.1108886637
 20
19.0562338593
 30
0.0
 40
1.5875
 41
0.0
 71
     1
 72
     1
  1
USED ON
  7
SLDTEXTSTYLE0
 73
     1
 44
1.0
  0
MTEXT
  5
B2
330
1F
100
AcDbEntity
  8
0
  6
Continuous
 62
     7
370
     0
100
AcDbMText
 10
236.2064011763
 20
13.2082336729
 30
0.0
 40
1.5875
 41
0.0
 71
     1
 72
     1
  1
APPLICATION
  7
SLDTEXTSTYLE0
 73
     1
 44
1.0
  0
INSERT
  5
C9
330
1F
100
AcDbEntity
  8
0
  6
Continuous
 62
     7
370
     0
100
AcDbBlockReference
  2
SW_NOTE_1
 10
268.3180314064
 20
50.9248885581
 30
0.0
  0
INSERT
  5
CF
330
1F
100
AcDbEntity
  8
0
  6
Continuous
 62
     7
370
     0
100
AcDbBlockReference
  2
SW_NOTE_2
 10
269.1842077668
 20
31.6731758577
 30
0.0
  0
MTEXT
  5
D0
330
1F
100
AcDbEntity
  8
0
  6
Continuous
 62
     7
370
     0
100
AcDbMText
 10
268.9407580605
 20
26.9550894206
 30
0.0
 40
1.524
 41
0.0
 71
     1
 72
     1
  1
MATERIAL
  7
SLDTEXTSTYLE0
 73
     1
 44
1.0
  0
MTEXT
  5
D1
330
1F
100
AcDbEntity
  8
0
  6
Continuous
 62
     7
370
     0
100
AcDbMText
 10
269.0857235341
 20
20.1403069191
 30
0.0
 40
1.524
 41
0.0
 71
     1
 72
     1
  1
FINISH
  7
SLDTEXTSTYLE0
 73
     1
 44
1.0
  0
MTEXT
  5
D2
330
1F
100
AcDbEntity
  8
0
  6
Continuous
 62
     7
370
     0
100
AcDbMText
 10
304.5371424621
 20
52.7766553284
 30
0.0
 40
1.651
 41
0.0
 71
     1
 72
     1
  1
DRAWN BY
  7
SLDTEXTSTYLE0
 73
     1
 44
1.0
  0
MTEXT
  5
D3
330
1F
100
AcDbEntity
  8
0
  6
Continuous
 62
     7
370
     0
100
AcDbMText
 10
304.1679439732
 20
48.2535557626
 30
0.0
 40
1.651
 41
0.0
 71
     1
 72
     1
  1
CHECKED
  7
SLDTEXTSTYLE0
 73
     1
 44
1.0
  0
MTEXT
  5
D4
330
1F
100
AcDbEntity
  8
0
  6
Continuous
 62
     7
370
     0
100
AcDbMText
 10
304.5782549933
 20
43.7385045742
 30
0.0
 40
1.651
 41
0.0
 71
     1
 72
     1
  1
ENG APPR.
  7
SLDTEXTSTYLE0
 73
     1
 44
1.0
  0
MTEXT
  5
D5
330
1F
100
AcDbEntity
  8
0
  6
Continuous
 62
     7
370
     0
100
AcDbMText
 10
304.5225172915
 20
38.9831842358
 30
0.0
 40
1.651
 41
0.0
 71
     1
 72
     1
  1
MFG APPR.
  7
SLDTEXTSTYLE0
 73
     1
 44
1.0
  0
MTEXT
  5
D6
330
1F
100
AcDbEntity
  8
0
  6
Continuous
 62
     7
370
     0
100
AcDbMText
 10
304.78363485
 20
34.3212232857
 30
0.0
 40
1.651
 41
0.0
 71
     1
 72
     1
  1
Q.A.
  7
SLDTEXTSTYLE0
 73
     1
 44
1.0
  0
MTEXT
  5
D7
330
1F
100
AcDbEntity
  8
0
  6
Continuous
 62
     7
370
     0
100
AcDbMText
 10
304.563923272
 20
29.8045095058
 30
0.0
 40
1.651
 41
0.0
 71
     1
 72
     1
  1
COMMENTS:
  7
SLDTEXTSTYLE0
 73
     1
 44
1.0
  0
MTEXT
  5
D8
330
1F
100
AcDbEntity
  8
0
  6
Continuous
 62
     7
370
     0
100
AcDbMText
 10
324.8069706096
 20
58.0914331507
 30
0.0
 40
1.651
 41
0.0
 71
     1
 72
     1
  1
DATE
  7
SLDTEXTSTYLE0
 73
     1
 44
1.0
  0
MTEXT
  5
D9
330
1F
100
AcDbEntity
  8
0
  6
Continuous
 62
     7
370
     0
100
AcDbMText
 10
336.5812931132
 20
58.1133667719
 30
0.0
 40
1.651
 41
0.0
 71
     1
 72
     1
  1
NAME
  7
SLDTEXTSTYLE0
 73
     1
 44
1.0
  0
MTEXT
  5
DA
330
1F
100
AcDbEntity
  8
0
  6
Continuous
 62
     7
370
     0
100
AcDbMText
 10
350.4489919562
 20
57.491249735
 30
0.0
 40
3.175
 41
0.0
 71
     1
 72
     1
  1
LX150
  7
SLDTEXTSTYLE0
 73
     1
 44
1.0
  0
MTEXT
  5
DB
330
1F
100
AcDbEntity
  8
0
  6
Continuous
 62
     7
370
     0
100
AcDbMText
 10
348.1267419128
 20
27.3615841909
 30
0.0
 40
2.54
 41
0.0
 71
     1
 72
     1
  1
SIZE
  7
SLDTEXTSTYLE0
 73
     1
 44
1.0
  0
MTEXT
  5
DC
330
1F
100
AcDbEntity
  8
0
  6
Continuous
 62
     7
370
     0
100
AcDbMText
 10
348.1367908427
 20
23.983037668
 30
0.0
 40
6.35
 41
0.0
 71
     1
 72
     1
  1
B
  7
SLDTEXTSTYLE0
 73
     1
 44
1.0
  0
MTEXT
  5
DE
330
1F
100
AcDbEntity
  8
0
  6
Continuous
 62
     7
370
     0
100
AcDbMText
 10
357.3540714036
 20
27.1160540432
 30
0.0
 40
2.54
 41
0.0
 71
     1
 72
     1
  1
DWG.  Name
  7
SLDTEXTSTYLE1
 73
     1
 44
1.0
  0
MTEXT
  5
E0
330
1F
100
AcDbEntity
  8
0
  6
Continuous
 62
     7
370
     0
100
AcDbMText
 10
393.7505365094
 20
14.1730723899
 30
0.0
 40
2.54
 41
0.0
 71
     1
 72
     1
  1
SHEET 1 OF 1
  7
SLDTEXTSTYLE2
 73
     1
 44
1.0
  0
MTEXT
  5
E1
330
1F
100
AcDbEntity
  8
0
  6
Continuous
 62
     7
370
     0
100
AcDbMText
 10
281.1646646277
 20
8.7580655313
 30
0.0
 40
3.175
 41
0.0
 71
     1
 72
     1
  1
Path:   Z:\\2010\\SVL\\10321 linear extrusion\\LX150\\CUSTOMER CAD\\
  7
SLDTEXTSTYLE0
 73
     1
 44
1.0
  0
MTEXT
  5
E2
330
1F
100
AcDbEntity
  8
0
  6
Continuous
 62
     7
370
     0
100
AcDbMText
 10
346.5015865713
 20
14.1235500313
 30
0.0
 40
2.54
 41
0.0
 71
     1
 72
     1
  1
SCALE: 1:1
  7
SLDTEXTSTYLE0
 73
     1
 44
1.0
  0
MTEXT
  5
E3
330
1F
100
AcDbEntity
  8
0
  6
Continuous
 62
     7
370
     0
100
AcDbMText
 10
269.0147627163
 20
58.7577034974
 30
0.0
 40
1.778
 41
0.0
 71
     1
 72
     1
  1
UNLESS OTHERWISE SPECIFIED:
  7
SLDTEXTSTYLE0
 73
     1
 44
1.0
  0
MTEXT
  5
E4
330
1F
100
AcDbEntity
  8
0
  6
Continuous
 62
     7
370
     0
100
AcDbMText
 10
371.108789565
 20
22.8650427416
 30
0.0
 40
2.1166666667
 41
0.0
 71
     1
 72
     1
  1
LX150-
  7
SLDTEXTSTYLE0
 73
     1
 44
1.0
  0
MTEXT
  5
E5
330
1F
100
AcDbEntity
  8
0
  6
Continuous
 62
     7
370
     0
100
AcDbMText
 10
321.7195064836
 20
53.8210852827
 30
0.0
 40
1.5875
 41
0.0
 71
     1
 72
     1
  1
7/13/2011
  7
SLDTEXTSTYLE0
 73
     1
 44
1.0
  0
MTEXT
  5
E6
330
1F
100
AcDbEntity
  8
0
  6
Continuous
 62
     7
370
     0
100
AcDbMText
 10
406.2329904738
 20
27.6732674698
 30
0.0
 40
2.54
 41
0.0
 71
     1
 72
     1
  1
REV
  7
SLDTEXTSTYLE0
 73
     1
 44
1.0
  0
INSERT
  5
EC
330
1F
100
AcDbEntity
  8
FORMAT
100
AcDbBlockReference
  2
SW_NOTE_3
 10
350.1988299264
 20
42.9635617283
 30
0.0
  0
INSERT
  5
FF
330
1F
100
AcDbEntity
  8
FORMAT
100
AcDbBlockReference
  2
SW_TABLEANNOTATION_0
 10
298.0881818297
 20
270.3086585366
 30
0.0
  0
LINE
  5
100
330
1F
100
AcDbEntity
  8
0
  6
Continuous
 62
     7
370
    15
100
AcDbLine
 10
133.9169670323
 20
113.289085387
 30
0.0
 11
133.9169670323
 21
122.2961928534
 31
0.0
  0
LINE
  5
101
330
1F
100
AcDbEntity
  8
0
  6
Continuous
 62
     7
370
    15
100
AcDbLine
 10
136.7776286284
 20
88.4426396179
 30
0.0
 11
140.6596847305
 21
89.8592728728
 31
0.0
  0
LINE
  5
102
330
1F
100
AcDbEntity
  8
0
  6
Continuous
 62
     7
370
    15
100
AcDbLine
 10
136.7776286284
 20
88.4426396179
 30
0.0
 11
83.1563067118
 21
88.4426396179
 31
0.0
  0
LINE
  5
103
330
1F
100
AcDbEntity
  8
0
  6
Continuous
 62
     7
370
    15
100
AcDbLine
 10
81.3245535324
 20
126.9886094916
 30
0.0
 11
86.0169683079
 21
122.2961928534
 31
0.0
  0
LINE
  5
104
330
1F
100
AcDbEntity
  8
0
  6
Continuous
 62
     7
370
    15
100
AcDbLine
 10
138.6570655236
 20
131.917637943
 30
0.0
 11
81.2768698165
 21
131.917637943
 31
0.0
  0
LINE
  5
105
330
1F
100
AcDbEntity
  8
0
  6
Continuous
 62
     7
370
    15
100
AcDbLine
 10
133.9169670323
 20
122.2961928534
 30
0.0
 11
138.6093818078
 21
126.9886094916
 31
0.0
  0
LINE
  5
106
330
1F
100
AcDbEntity
  8
0
  6
Continuous
 62
     7
370
    15
100
AcDbLine
 10
81.1496511529
 20
96.1565512071
 30
0.0
 11
78.8419679234
 21
94.8242095138
 31
0.0
  0
LINE
  5
107
330
1F
100
AcDbEntity
  8
0
  6
Continuous
 62
     7
370
    15
100
AcDbLine
 10
81.1496511529
 20
108.4217700946
 30
0.0
 11
81.1496511529
 21
96.1565512071
 31
0.0
  0
LINE
  5
108
330
1F
100
AcDbEntity
  8
0
  6
Continuous
 62
     7
370
    15
100
AcDbLine
 10
141.0919674168
 20
94.8242095138
 30
0.0
 11
138.7842841873
 21
96.1565512071
 31
0.0
  0
LINE
  5
109
330
1F
100
AcDbEntity
  8
0
  6
Continuous
 62
     7
370
    15
100
AcDbLine
 10
98.1209673414
 20
99.2686396304
 30
0.0
 11
98.1209673414
 21
102.2976396444
 31
0.0
  0
LINE
  5
10A
330
1F
100
AcDbEntity
  8
0
  6
Continuous
 62
     7
370
    15
100
AcDbLine
 10
98.1209673414
 20
103.1576396736
 30
0.0
 11
98.1209673414
 21
106.1076402503
 31
0.0
  0
LINE
  5
10B
330
1F
100
AcDbEntity
  8
0
  6
Continuous
 62
     7
370
    15
100
AcDbLine
 10
98.1209673414
 20
106.9676402795
 30
0.0
 11
98.1209673414
 21
109.9176399249
 31
0.0
  0
LINE
  5
10C
330
1F
100
AcDbEntity
  8
0
  6
Continuous
 62
     7
370
    15
100
AcDbLine
 10
98.1209673414
 20
110.7776399541
 30
0.0
 11
98.1209673414
 21
113.7276395994
 31
0.0
  0
LINE
  5
10D
330
1F
100
AcDbEntity
  8
0
  6
Continuous
 62
     7
370
    15
100
AcDbLine
 10
98.1209673414
 20
114.5876396286
 30
0.0
 11
98.1209673414
 21
117.6166396427
 31
0.0
  0
LINE
  5
10E
330
1F
100
AcDbEntity
  8
0
  6
Continuous
 62
     7
370
    15
100
AcDbLine
 10
97.9724511931
 20
99.2686396304
 30
0.0
 11
98.1209673414
 21
99.2686396304
 31
0.0
  0
LINE
  5
10F
330
1F
100
AcDbEntity
  8
0
  6
Continuous
 62
     7
370
    15
100
AcDbLine
 10
138.7842841873
 20
96.1565512071
 30
0.0
 11
138.7842841873
 21
108.4217700946
 31
0.0
  0
LINE
  5
110
330
1F
100
AcDbEntity
  8
0
  6
Continuous
 62
     7
370
    15
100
AcDbLine
 10
79.2742506096
 20
89.8592728728
 30
0.0
 11
83.1563067118
 21
88.4426396179
 31
0.0
  0
LINE
  5
111
330
1F
100
AcDbEntity
  8
0
  6
Continuous
 62
     7
370
    15
100
AcDbLine
 10
86.0169683079
 20
113.289085387
 30
0.0
 11
81.1496511529
 21
108.4217700946
 31
0.0
  0
ARC
  5
112
330
1F
100
AcDbEntity
  8
0
  6
Continuous
 62
     7
370
    15
100
AcDbCircle
 10
80.2169676701
 20
92.4426396179
 30
0.0
 40
2.750000000000005
100
AcDbArc
 50
120.0
 51
249.9520552354
  0
ARC
  5
113
330
1F
100
AcDbEntity
  8
0
  6
Continuous
 62
     7
370
    15
100
AcDbCircle
 10
139.7169676701
 20
92.4426396179
 30
0.0
 40
2.750000000000018
100
AcDbArc
 50
290.0479447646
 51
60.0
  0
LINE
  5
114
330
1F
100
AcDbEntity
  8
0
  6
Continuous
 62
     7
370
    15
100
AcDbLine
 10
98.1209673414
 20
117.6166396427
 30
0.0
 11
97.9724511931
 21
117.6166396427
 31
0.0
  0
LINE
  5
115
330
1F
100
AcDbEntity
  8
0
  6
Continuous
 62
     7
370
    15
100
AcDbLine
 10
138.7842841873
 20
108.4217700946
 30
0.0
 11
133.9169670323
 21
113.289085387
 31
0.0
  0
LINE
  5
116
330
1F
100
AcDbEntity
  8
0
  6
Continuous
 62
     7
370
    15
100
AcDbLine
 10
86.0169683079
 20
122.2961928534
 30
0.0
 11
86.0169683079
 21
113.289085387
 31
0.0
  0
LINE
  5
117
330
1F
100
AcDbEntity
  8
0
  6
Continuous
 62
     7
370
    15
100
AcDbLine
 10
142.9669674913
 20
107.8926391739
 30
0.0
 11
142.9669674913
 21
89.7141396373
 31
0.0
  0
LINE
  5
118
330
1F
100
AcDbEntity
  8
0
  6
Continuous
 62
     7
370
    15
100
AcDbLine
 10
141.96696919
 20
88.7141396189
 30
0.0
 11
137.5216305683
 21
88.7141396189
 31
0.0
  0
LINE
  5
119
330
1F
100
AcDbEntity
  8
0
  6
Continuous
 62
     7
370
    15
100
AcDbLine
 10
82.4123047719
 20
88.7141396189
 30
0.0
 11
77.9669661502
 21
88.7141396189
 31
0.0
  0
LINE
  5
11A
330
1F
100
AcDbEntity
  8
0
  6
Continuous
 62
     7
370
    15
100
AcDbLine
 10
76.9669678489
 20
89.7141396373
 30
0.0
 11
76.9669678489
 21
107.8926391739
 31
0.0
  0
LWPOLYLINE
  5
11B
330
1F
100
AcDbEntity
  8
0
  6
Continuous
 62
     7
370
    15
100
AcDbPolyline
 90
        3
 70
   128
 43
0.0
 10
81.3541435132
 20
108.8926393378
 10
81.5109894106
 20
108.9003451008
 10
81.6200733612
 20
108.9148904967
  0
LWPOLYLINE
  5
11C
330
1F
100
AcDbEntity
  8
0
  6
Continuous
 62
     7
370
    15
100
AcDbPolyline
 90
        3
 70
   128
 43
0.0
 10
85.9947171489
 20
113.2895342845
 10
86.0092625449
 20
113.3986163723
 10
86.0169683079
 20
113.5554641324
  0
LWPOLYLINE
  5
11D
330
1F
100
AcDbEntity
  8
0
  6
Continuous
 62
     7
370
    15
100
AcDbPolyline
 90
        3
 70
   128
 43
0.0
 10
86.0169683079
 20
122.0298159707
 10
86.0092625449
 20
122.1866618681
 10
85.9947171489
 20
122.2957458186
  0
LWPOLYLINE
  5
11E
330
1F
100
AcDbEntity
  8
0
  6
Continuous
 62
     7
370
    15
100
AcDbPolyline
 90
        3
 70
   128
 43
0.0
 10
81.6200733612
 20
126.6703877437
 10
81.5109894106
 20
126.6849350023
 10
81.3541435132
 20
126.6926389027
  0
LINE
  5
11F
330
1F
100
AcDbEntity
  8
0
  6
Continuous
 62
     7
370
    15
100
AcDbLine
 10
76.9669678489
 20
127.6926409292
 30
0.0
 11
76.9669678489
 21
132.1641404021
 31
0.0
  0
LINE
  5
120
330
1F
100
AcDbEntity
  8
0
  6
Continuous
 62
     7
370
    15
100
AcDbLine
 10
78.800224183
 20
133.1641387033
 30
0.0
 11
81.7697685639
 21
133.1641387033
 31
0.0
  0
LINE
  5
121
330
1F
100
AcDbEntity
  8
0
  6
Continuous
 62
     7
370
    15
100
AcDbLine
 10
87.8002237955
 20
133.1641387033
 30
0.0
 11
132.1337115446
 21
133.1641387033
 31
0.0
  0
LINE
  5
122
330
1F
100
AcDbEntity
  8
0
  6
Continuous
 62
     7
370
    15
100
AcDbLine
 10
138.1641667763
 20
133.1641387033
 30
0.0
 11
141.1337111572
 21
133.1641387033
 31
0.0
  0
LINE
  5
123
330
1F
100
AcDbEntity
  8
0
  6
Continuous
 62
     7
370
    15
100
AcDbLine
 10
142.9669674913
 20
132.1641404021
 30
0.0
 11
142.9669674913
 21
127.6926409292
 31
0.0
  0
LINE
  5
124
330
1F
100
AcDbEntity
  8
0
  6
Continuous
 62
     7
370
    15
100
AcDbLine
 10
77.4669688622
 20
127.1926399159
 30
0.0
 11
76.9669678489
 21
127.6926409292
 31
0.0
  0
LINE
  5
125
330
1F
100
AcDbEntity
  8
0
  6
Continuous
 62
     7
370
    15
100
AcDbLine
 10
142.9669674913
 20
127.6926409292
 30
0.0
 11
142.466966478
 21
127.1926399159
 31
0.0
  0
LINE
  5
126
330
1F
100
AcDbEntity
  8
0
  6
Continuous
 62
     7
370
    15
100
AcDbLine
 10
142.3488896767
 20
108.5107169884
 30
0.0
 11
142.9669674913
 21
107.8926391739
 31
0.0
  0
LINE
  5
127
330
1F
100
AcDbEntity
  8
0
  6
Continuous
 62
     7
370
    15
100
AcDbLine
 10
142.466966478
 20
132.6641414154
 30
0.0
 11
142.9669674913
 21
132.1641404021
 31
0.0
  0
LINE
  5
128
330
1F
100
AcDbEntity
  8
0
  6
Continuous
 62
     7
370
    15
100
AcDbLine
 10
142.9669674913
 20
89.7141396373
 30
0.0
 11
141.96696919
 21
88.7141396189
 31
0.0
  0
LINE
  5
129
330
1F
100
AcDbEntity
  8
0
  6
Continuous
 62
     7
370
    15
100
AcDbLine
 10
76.9669678489
 20
132.1641404021
 30
0.0
 11
77.4669688622
 21
132.6641414154
 31
0.0
  0
LINE
  5
12A
330
1F
100
AcDbEntity
  8
0
  6
Continuous
 62
     7
370
    15
100
AcDbLine
 10
77.9669661502
 20
88.7141396189
 30
0.0
 11
76.9669678489
 21
89.7141396373
 31
0.0
  0
LINE
  5
12B
330
1F
100
AcDbEntity
  8
0
  6
Continuous
 62
     7
370
    15
100
AcDbLine
 10
76.9669678489
 20
107.8926391739
 30
0.0
 11
77.5850456635
 21
108.5107169884
 31
0.0
  0
CIRCLE
  5
12C
330
1F
100
AcDbEntity
  8
0
  6
Continuous
 62
     7
370
    15
100
AcDbCircle
 10
80.2169676701
 20
129.4426396179
 30
0.0
 40
2.6924
  0
ARC
  5
12D
330
1F
100
AcDbEntity
  8
0
  6
Continuous
 62
     7
370
    15
100
AcDbCircle
 10
80.0516831548
 20
130.4718999389
 30
0.0
 40
0.3657600000000024
100
AcDbArc
 50
237.3126809467
 51
320.9333107382
  0
ARC
  5
12E
330
1F
100
AcDbEntity
  8
0
  6
Continuous
 62
     7
370
    15
100
AcDbCircle
 10
79.755387895
 20
130.0101478748
 30
0.0
 40
0.1828800000000267
100
AcDbArc
 50
57.3126809467
 51
200.9333107382
  0
ARC
  5
12F
330
1F
100
AcDbEntity
  8
0
  6
Continuous
 62
     7
370
    15
100
AcDbCircle
 10
79.2429598274
 20
129.8141291893
 30
0.0
 40
0.365760000000004
100
AcDbArc
 50
297.3126809467
 51
20.9333107382
  0
ARC
  5
130
330
1F
100
AcDbEntity
  8
0
  6
Continuous
 62
     7
370
    15
100
AcDbCircle
 10
79.4947012152
 20
129.3266539353
 30
0.0
 40
0.1828799999999926
100
AcDbArc
 50
117.3126809467
 51
260.9333107382
  0
ARC
  5
131
330
1F
100
AcDbEntity
  8
0
  6
Continuous
 62
     7
370
    15
100
AcDbCircle
 10
79.4082443427
 20
128.7848688683
 30
0.0
 40
0.3657600000000368
100
AcDbArc
 50
357.3126809467
 51
80.9333107382
  0
ARC
  5
132
330
1F
100
AcDbEntity
  8
0
  6
Continuous
 62
     7
370
    15
100
AcDbCircle
 10
79.9562809903
 20
128.7591456784
 30
0.0
 40
0.1828800000000144
100
AcDbArc
 50
177.3126809467
 51
320.9333107382
  0
ARC
  5
133
330
1F
100
AcDbEntity
  8
0
  6
Continuous
 62
     7
370
    15
100
AcDbCircle
 10
80.3822521854
 20
128.413379297
 30
0.0
 40
0.3657599999999845
100
AcDbArc
 50
57.3126809467
 51
140.9333107382
  0
ARC
  5
134
330
1F
100
AcDbEntity
  8
0
  6
Continuous
 62
     7
370
    15
100
AcDbCircle
 10
80.6785474451
 20
128.875131361
 30
0.0
 40
0.1828800000000344
100
AcDbArc
 50
237.3126809467
 51
20.9333107382
  0
ARC
  5
135
330
1F
100
AcDbEntity
  8
0
  6
Continuous
 62
     7
370
    15
100
AcDbCircle
 10
81.1909755128
 20
129.0711500465
 30
0.0
 40
0.3657600000000292
100
AcDbArc
 50
117.3126809467
 51
200.9333107382
  0
ARC
  5
136
330
1F
100
AcDbEntity
  8
0
  6
Continuous
 62
     7
370
    15
100
AcDbCircle
 10
80.939234125
 20
129.5586253005
 30
0.0
 40
0.1828799999999881
100
AcDbArc
 50
297.3126809467
 51
80.9333107382
  0
ARC
  5
137
330
1F
100
AcDbEntity
  8
0
  6
Continuous
 62
     7
370
    15
100
AcDbCircle
 10
81.0256909975
 20
130.1004103675
 30
0.0
 40
0.3657600000000087
100
AcDbArc
 50
177.3126809467
 51
260.9333107382
  0
ARC
  5
138
330
1F
100
AcDbEntity
  8
0
  6
Continuous
 62
     7
370
    15
100
AcDbCircle
 10
80.4776543499
 20
130.1261335574
 30
0.0
 40
0.1828800000000191
100
AcDbArc
 50
357.3126809467
 51
140.9333107382
  0
CIRCLE
  5
139
330
1F
100
AcDbEntity
  8
0
  6
Continuous
 62
     7
370
    15
100
AcDbCircle
 10
139.7169676701
 20
129.4426396179
 30
0.0
 40
2.692399999999996
  0
ARC
  5
13A
330
1F
100
AcDbEntity
  8
0
  6
Continuous
 62
     7
370
    15
100
AcDbCircle
 10
139.5516831548
 20
130.4718999389
 30
0.0
 40
0.3657600000000024
100
AcDbArc
 50
237.3126809467
 51
320.9333107382
  0
ARC
  5
13B
330
1F
100
AcDbEntity
  8
0
  6
Continuous
 62
     7
370
    15
100
AcDbCircle
 10
139.255387895
 20
130.0101478748
 30
0.0
 40
0.1828800000000373
100
AcDbArc
 50
57.3126809467
 51
200.9333107382
  0
ARC
  5
13C
330
1F
100
AcDbEntity
  8
0
  6
Continuous
 62
     7
370
    15
100
AcDbCircle
 10
138.7429598274
 20
129.8141291893
 30
0.0
 40
0.3657599999999975
100
AcDbArc
 50
297.3126809467
 51
20.9333107382
  0
ARC
  5
13D
330
1F
100
AcDbEntity
  8
0
  6
Continuous
 62
     7
370
    15
100
AcDbCircle
 10
138.9947012152
 20
129.3266539353
 30
0.0
 40
0.1828799999999926
100
AcDbArc
 50
117.3126809467
 51
260.9333107382
  0
ARC
  5
13E
330
1F
100
AcDbEntity
  8
0
  6
Continuous
 62
     7
370
    15
100
AcDbCircle
 10
138.9082443427
 20
128.7848688683
 30
0.0
 40
0.3657600000000368
100
AcDbArc
 50
357.3126809467
 51
80.9333107382
  0
ARC
  5
13F
330
1F
100
AcDbEntity
  8
0
  6
Continuous
 62
     7
370
    15
100
AcDbCircle
 10
139.4562809903
 20
128.7591456784
 30
0.0
 40
0.1828800000000002
100
AcDbArc
 50
177.3126809467
 51
320.9333107382
  0
ARC
  5
140
330
1F
100
AcDbEntity
  8
0
  6
Continuous
 62
     7
370
    15
100
AcDbCircle
 10
140.6909755128
 20
129.0711500465
 30
0.0
 40
0.3657600000000357
100
AcDbArc
 50
117.3126809467
 51
200.9333107382
  0
ARC
  5
141
330
1F
100
AcDbEntity
  8
0
  6
Continuous
 62
     7
370
    15
100
AcDbCircle
 10
140.439234125
 20
129.5586253005
 30
0.0
 40
0.1828799999999881
100
AcDbArc
 50
297.3126809467
 51
80.9333107382
  0
ARC
  5
142
330
1F
100
AcDbEntity
  8
0
  6
Continuous
 62
     7
370
    15
100
AcDbCircle
 10
140.5256909975
 20
130.1004103675
 30
0.0
 40
0.3657600000000087
100
AcDbArc
 50
177.3126809467
 51
260.9333107382
  0
ARC
  5
143
330
1F
100
AcDbEntity
  8
0
  6
Continuous
 62
     7
370
    15
100
AcDbCircle
 10
139.9776543499
 20
130.1261335574
 30
0.0
 40
0.1828800000000081
100
AcDbArc
 50
357.3126809467
 51
140.9333107382
  0
ARC
  5
144
330
1F
100
AcDbEntity
  8
0
  6
Continuous
 62
     7
370
    15
100
AcDbCircle
 10
140.1785474451
 20
128.875131361
 30
0.0
 40
0.1828800000000344
100
AcDbArc
 50
237.3126809467
 51
20.9333107382
  0
ARC
  5
145
330
1F
100
AcDbEntity
  8
0
  6
Continuous
 62
     7
370
    15
100
AcDbCircle
 10
139.8822521854
 20
128.413379297
 30
0.0
 40
0.3657599999999845
100
AcDbArc
 50
57.3126809467
 51
140.9333107382
  0
ARC
  5
146
330
1F
100
AcDbEntity
  8
0
  6
Continuous
 62
     7
370
    15
100
AcDbCircle
 10
139.5516831548
 20
93.4718999389
 30
0.0
 40
0.3657600000000024
100
AcDbArc
 50
237.3126809467
 51
320.9333107382
  0
ARC
  5
147
330
1F
100
AcDbEntity
  8
0
  6
Continuous
 62
     7
370
    15
100
AcDbCircle
 10
138.9082443427
 20
91.7848688683
 30
0.0
 40
0.3657600000000227
100
AcDbArc
 50
357.3126809467
 51
80.9333107382
  0
ARC
  5
148
330
1F
100
AcDbEntity
  8
0
  6
Continuous
 62
     7
370
    15
100
AcDbCircle
 10
139.4562809903
 20
91.7591456784
 30
0.0
 40
0.1828799999999995
100
AcDbArc
 50
177.3126809467
 51
320.9333107382
  0
ARC
  5
149
330
1F
100
AcDbEntity
  8
0
  6
Continuous
 62
     7
370
    15
100
AcDbCircle
 10
139.8822521854
 20
91.413379297
 30
0.0
 40
0.3657600000000155
100
AcDbArc
 50
57.3126809467
 51
140.9333107382
  0
ARC
  5
14A
330
1F
100
AcDbEntity
  8
0
  6
Continuous
 62
     7
370
    15
100
AcDbCircle
 10
140.439234125
 20
92.5586253005
 30
0.0
 40
0.1828800000000048
100
AcDbArc
 50
297.3126809467
 51
80.9333107382
  0
ARC
  5
14B
330
1F
100
AcDbEntity
  8
0
  6
Continuous
 62
     7
370
    15
100
AcDbCircle
 10
139.9776543499
 20
93.1261335574
 30
0.0
 40
0.1828800000000002
100
AcDbArc
 50
357.3126809467
 51
140.9333107382
  0
ARC
  5
14C
330
1F
100
AcDbEntity
  8
0
  6
Continuous
 62
     7
370
    15
100
AcDbCircle
 10
139.255387895
 20
93.0101478748
 30
0.0
 40
0.1828800000000071
100
AcDbArc
 50
57.3126809467
 51
200.9333107382
  0
ARC
  5
14D
330
1F
100
AcDbEntity
  8
0
  6
Continuous
 62
     7
370
    15
100
AcDbCircle
 10
140.1785474451
 20
91.875131361
 30
0.0
 40
0.1828800000000344
100
AcDbArc
 50
237.3126809467
 51
20.9333107382
  0
ARC
  5
14E
330
1F
100
AcDbEntity
  8
0
  6
Continuous
 62
     7
370
    15
100
AcDbCircle
 10
140.6909755128
 20
92.0711500465
 30
0.0
 40
0.3657600000000105
100
AcDbArc
 50
117.3126809467
 51
200.9333107382
  0
ARC
  5
14F
330
1F
100
AcDbEntity
  8
0
  6
Continuous
 62
     7
370
    15
100
AcDbCircle
 10
140.5256909975
 20
93.1004103675
 30
0.0
 40
0.3657600000000227
100
AcDbArc
 50
177.3126809467
 51
260.9333107382
  0
ARC
  5
150
330
1F
100
AcDbEntity
  8
0
  6
Continuous
 62
     7
370
    15
100
AcDbCircle
 10
138.9947012152
 20
92.3266539353
 30
0.0
 40
0.1828800000000053
100
AcDbArc
 50
117.3126809467
 51
260.9333107382
  0
CIRCLE
  5
151
330
1F
100
AcDbEntity
  8
0
  6
Continuous
 62
     7
370
    15
100
AcDbCircle
 10
139.7169676701
 20
92.4426396179
 30
0.0
 40
2.692399999999996
  0
ARC
  5
152
330
1F
100
AcDbEntity
  8
0
  6
Continuous
 62
     7
370
    15
100
AcDbCircle
 10
138.7429598274
 20
92.8141291893
 30
0.0
 40
0.3657600000000062
100
AcDbArc
 50
297.3126809467
 51
20.9333107382
  0
CIRCLE
  5
153
330
1F
100
AcDbEntity
  8
0
  6
Continuous
 62
     7
370
    15
100
AcDbCircle
 10
80.2169676701
 20
92.4426396179
 30
0.0
 40
2.692400000000003
  0
ARC
  5
154
330
1F
100
AcDbEntity
  8
0
  6
Continuous
 62
     7
370
    15
100
AcDbCircle
 10
80.0516831548
 20
93.4718999389
 30
0.0
 40
0.3657599999999937
100
AcDbArc
 50
237.3126809467
 51
320.9333107382
  0
ARC
  5
155
330
1F
100
AcDbEntity
  8
0
  6
Continuous
 62
     7
370
    15
100
AcDbCircle
 10
79.755387895
 20
93.0101478748
 30
0.0
 40
0.1828800000000071
100
AcDbArc
 50
57.3126809467
 51
200.9333107382
  0
ARC
  5
156
330
1F
100
AcDbEntity
  8
0
  6
Continuous
 62
     7
370
    15
100
AcDbCircle
 10
79.2429598274
 20
92.8141291893
 30
0.0
 40
0.3657600000000195
100
AcDbArc
 50
297.3126809467
 51
20.9333107382
  0
ARC
  5
157
330
1F
100
AcDbEntity
  8
0
  6
Continuous
 62
     7
370
    15
100
AcDbCircle
 10
79.4947012152
 20
92.3266539353
 30
0.0
 40
0.1828800000000053
100
AcDbArc
 50
117.3126809467
 51
260.9333107382
  0
ARC
  5
158
330
1F
100
AcDbEntity
  8
0
  6
Continuous
 62
     7
370
    15
100
AcDbCircle
 10
79.4082443427
 20
91.7848688683
 30
0.0
 40
0.3657600000000227
100
AcDbArc
 50
357.3126809467
 51
80.9333107382
  0
ARC
  5
159
330
1F
100
AcDbEntity
  8
0
  6
Continuous
 62
     7
370
    15
100
AcDbCircle
 10
79.9562809903
 20
91.7591456784
 30
0.0
 40
0.1828800000000137
100
AcDbArc
 50
177.3126809467
 51
320.9333107382
  0
ARC
  5
15A
330
1F
100
AcDbEntity
  8
0
  6
Continuous
 62
     7
370
    15
100
AcDbCircle
 10
80.3822521854
 20
91.413379297
 30
0.0
 40
0.3657600000000045
100
AcDbArc
 50
57.3126809467
 51
140.9333107382
  0
ARC
  5
15B
330
1F
100
AcDbEntity
  8
0
  6
Continuous
 62
     7
370
    15
100
AcDbCircle
 10
80.6785474451
 20
91.875131361
 30
0.0
 40
0.1828800000000267
100
AcDbArc
 50
237.3126809467
 51
20.9333107382
  0
ARC
  5
15C
330
1F
100
AcDbEntity
  8
0
  6
Continuous
 62
     7
370
    15
100
AcDbCircle
 10
81.1909755128
 20
92.0711500465
 30
0.0
 40
0.365760000000004
100
AcDbArc
 50
117.3126809467
 51
200.9333107382
  0
ARC
  5
15D
330
1F
100
AcDbEntity
  8
0
  6
Continuous
 62
     7
370
    15
100
AcDbCircle
 10
80.939234125
 20
92.5586253005
 30
0.0
 40
0.1828800000000114
100
AcDbArc
 50
297.3126809467
 51
80.9333107382
  0
ARC
  5
15E
330
1F
100
AcDbEntity
  8
0
  6
Continuous
 62
     7
370
    15
100
AcDbCircle
 10
81.0256909975
 20
93.1004103675
 30
0.0
 40
0.3657600000000205
100
AcDbArc
 50
177.3126809467
 51
260.9333107382
  0
ARC
  5
15F
330
1F
100
AcDbEntity
  8
0
  6
Continuous
 62
     7
370
    15
100
AcDbCircle
 10
80.4776543499
 20
93.1261335574
 30
0.0
 40
0.1828800000000012
100
AcDbArc
 50
357.3126809467
 51
140.9333107382
  0
LINE
  5
160
330
1F
100
AcDbEntity
  8
0
  6
Continuous
 62
     7
370
    15
100
AcDbLine
 10
96.6169679964
 20
109.8426405179
 30
0.0
 11
92.516968442
 21
109.8426405179
 31
0.0
  0
LINE
  5
161
330
1F
100
AcDbEntity
  8
0
  6
Continuous
 62
     7
370
    15
100
AcDbLine
 10
92.516968442
 20
109.9176399249
 30
0.0
 11
96.6169679964
 21
109.9176399249
 31
0.0
  0
LINE
  5
162
330
1F
100
AcDbEntity
  8
0
  6
Continuous
 62
     7
370
    15
100
AcDbLine
 10
96.6169679964
 20
109.9176399249
 30
0.0
 11
96.6169679964
 21
109.8426405179
 31
0.0
  0
LINE
  5
163
330
1F
100
AcDbEntity
  8
0
  6
Continuous
 62
     7
370
    15
100
AcDbLine
 10
92.516968442
 20
109.9176399249
 30
0.0
 11
92.516968442
 21
109.8426405179
 31
0.0
  0
LINE
  5
164
330
1F
100
AcDbEntity
  8
0
  6
Continuous
 62
     7
370
    15
100
AcDbLine
 10
92.516968442
 20
113.2013231355
 30
0.0
 11
92.516968442
 21
113.6526401925
 31
0.0
  0
LINE
  5
165
330
1F
100
AcDbEntity
  8
0
  6
Continuous
 62
     7
370
    15
100
AcDbLine
 10
96.6169679964
 20
113.6526401925
 30
0.0
 11
92.516968442
 21
113.6526401925
 31
0.0
  0
LINE
  5
166
330
1F
100
AcDbEntity
  8
0
  6
Continuous
 62
     7
370
    15
100
AcDbLine
 10
96.6169679964
 20
110.852639361
 30
0.0
 11
96.6169679964
 21
113.6526401925
 31
0.0
  0
LINE
  5
167
330
1F
100
AcDbEntity
  8
0
  6
Continuous
 62
     7
370
    15
100
AcDbLine
 10
96.6169679964
 20
110.852639361
 30
0.0
 11
92.516968442
 21
110.852639361
 31
0.0
  0
LINE
  5
168
330
1F
100
AcDbEntity
  8
0
  6
Continuous
 62
     7
370
    15
100
AcDbLine
 10
92.516968442
 20
111.303956418
 30
0.0
 11
92.516968442
 21
110.852639361
 31
0.0
  0
ARC
  5
169
330
1F
100
AcDbEntity
  8
0
  6
Continuous
 62
     7
370
    15
100
AcDbCircle
 10
91.1669676701
 20
112.2526396179
 30
0.0
 40
1.649999999999994
100
AcDbArc
 50
324.9031987724
 51
0.0
  0
ARC
  5
16A
330
1F
100
AcDbEntity
  8
0
  6
Continuous
 62
     7
370
    15
100
AcDbCircle
 10
91.1669676701
 20
112.2526396179
 30
0.0
 40
1.65000000000001
100
AcDbArc
 50
0.0
 51
35.0968012276
  0
ARC
  5
16B
330
1F
100
AcDbEntity
  8
0
  6
Continuous
 62
     7
370
    15
100
AcDbCircle
 10
94.7169676701
 20
112.2526396179
 30
0.0
 40
0.8000000000000114
100
AcDbArc
 50
180.0
 51
0.0
  0
ARC
  5
16C
330
1F
100
AcDbEntity
  8
0
  6
Continuous
 62
     7
370
    15
100
AcDbCircle
 10
94.7169676701
 20
112.2526396179
 30
0.0
 40
0.8000000000000114
100
AcDbArc
 50
0.0
 51
180.0
  0
LINE
  5
16D
330
1F
100
AcDbEntity
  8
0
  6
Continuous
 62
     7
370
    15
100
AcDbLine
 10
96.6169679964
 20
114.6626390356
 30
0.0
 11
92.516968442
 21
114.6626390356
 31
0.0
  0
LINE
  5
16E
330
1F
100
AcDbEntity
  8
0
  6
Continuous
 62
     7
370
    15
100
AcDbLine
 10
92.516968442
 20
115.1139560926
 30
0.0
 11
92.516968442
 21
114.6626390356
 31
0.0
  0
ARC
  5
16F
330
1F
100
AcDbEntity
  8
0
  6
Continuous
 62
     7
370
    15
100
AcDbCircle
 10
91.1669676701
 20
116.0626396179
 30
0.0
 40
1.650000000000002
100
AcDbArc
 50
0.0
 51
35.0968012276
  0
LINE
  5
170
330
1F
100
AcDbEntity
  8
0
  6
Continuous
 62
     7
370
    15
100
AcDbLine
 10
92.516968442
 20
117.4626398671
 30
0.0
 11
92.516968442
 21
117.01132281
 31
0.0
  0
LINE
  5
171
330
1F
100
AcDbEntity
  8
0
  6
Continuous
 62
     7
370
    15
100
AcDbLine
 10
92.516968442
 20
117.4626398671
 30
0.0
 11
96.6169679964
 21
117.4626398671
 31
0.0
  0
LINE
  5
172
330
1F
100
AcDbEntity
  8
0
  6
Continuous
 62
     7
370
    15
100
AcDbLine
 10
96.6169679964
 20
117.4626398671
 30
0.0
 11
96.6169679964
 21
114.6626390356
 31
0.0
  0
ARC
  5
173
330
1F
100
AcDbEntity
  8
0
  6
Continuous
 62
     7
370
    15
100
AcDbCircle
 10
94.7169676701
 20
116.0626396179
 30
0.0
 40
0.8000000000000114
100
AcDbArc
 50
0.0
 51
180.0
  0
ARC
  5
174
330
1F
100
AcDbEntity
  8
0
  6
Continuous
 62
     7
370
    15
100
AcDbCircle
 10
94.7169676701
 20
116.0626396179
 30
0.0
 40
0.8000000000000114
100
AcDbArc
 50
180.0
 51
0.0
  0
ARC
  5
175
330
1F
100
AcDbEntity
  8
0
  6
Continuous
 62
     7
370
    15
100
AcDbCircle
 10
91.1669676701
 20
116.0626396179
 30
0.0
 40
1.650000000000002
100
AcDbArc
 50
324.9031987724
 51
0.0
  0
ARC
  5
176
330
1F
100
AcDbEntity
  8
0
  6
Continuous
 62
     7
370
    15
100
AcDbCircle
 10
94.7169676701
 20
108.4426396179
 30
0.0
 40
0.8000000000000114
100
AcDbArc
 50
360.0
 51
180.0
  0
LINE
  5
177
330
1F
100
AcDbEntity
  8
0
  6
Continuous
 62
     7
370
    15
100
AcDbLine
 10
96.6169679964
 20
107.0426396865
 30
0.0
 11
92.516968442
 21
107.0426396865
 31
0.0
  0
ARC
  5
178
330
1F
100
AcDbEntity
  8
0
  6
Continuous
 62
     7
370
    15
100
AcDbCircle
 10
91.1669676701
 20
108.4426396179
 30
0.0
 40
1.649999999999994
100
AcDbArc
 50
324.9031987724
 51
0.0
  0
ARC
  5
179
330
1F
100
AcDbEntity
  8
0
  6
Continuous
 62
     7
370
    15
100
AcDbCircle
 10
94.7169676701
 20
108.4426396179
 30
0.0
 40
0.8000000000000114
100
AcDbArc
 50
180.0
 51
360.0
  0
LINE
  5
17A
330
1F
100
AcDbEntity
  8
0
  6
Continuous
 62
     7
370
    15
100
AcDbLine
 10
96.6169679964
 20
109.8426405179
 30
0.0
 11
96.6169679964
 21
107.0426396865
 31
0.0
  0
ARC
  5
17B
330
1F
100
AcDbEntity
  8
0
  6
Continuous
 62
     7
370
    15
100
AcDbCircle
 10
91.1669676701
 20
108.4426396179
 30
0.0
 40
1.650000000000002
100
AcDbArc
 50
0.0
 51
35.0968012276
  0
LINE
  5
17C
330
1F
100
AcDbEntity
  8
0
  6
Continuous
 62
     7
370
    15
100
AcDbLine
 10
92.516968442
 20
109.3913234609
 30
0.0
 11
92.516968442
 21
109.8426405179
 31
0.0
  0
LINE
  5
17D
330
1F
100
AcDbEntity
  8
0
  6
Continuous
 62
     7
370
    15
100
AcDbLine
 10
92.516968442
 20
107.4939567435
 30
0.0
 11
92.516968442
 21
107.0426396865
 31
0.0
  0
LINE
  5
17E
330
1F
100
AcDbEntity
  8
0
  6
Continuous
 62
     7
370
    15
100
AcDbLine
 10
96.6169679964
 20
99.422639406
 30
0.0
 11
92.516968442
 21
99.422639406
 31
0.0
  0
LINE
  5
17F
330
1F
100
AcDbEntity
  8
0
  6
Continuous
 62
     7
370
    15
100
AcDbLine
 10
96.6169679964
 20
99.422639406
 30
0.0
 11
96.6169679964
 21
99.3476399991
 31
0.0
  0
LINE
  5
180
330
1F
100
AcDbEntity
  8
0
  6
Continuous
 62
     7
370
    15
100
AcDbLine
 10
96.6169679964
 20
99.3476399991
 30
0.0
 11
92.516968442
 21
99.3476399991
 31
0.0
  0
LINE
  5
181
330
1F
100
AcDbEntity
  8
0
  6
Continuous
 62
     7
370
    15
100
AcDbLine
 10
92.516968442
 20
99.422639406
 30
0.0
 11
92.516968442
 21
99.3476399991
 31
0.0
  0
LINE
  5
182
330
1F
100
AcDbEntity
  8
0
  6
Continuous
 62
     7
370
    15
100
AcDbLine
 10
94.5160057823
 20
99.4141168731
 30
0.0
 11
94.7169674987
 21
99.422639406
 31
0.0
  0
LINE
  5
183
330
1F
100
AcDbEntity
  8
0
  6
Continuous
 62
     7
370
    15
100
AcDbLine
 10
94.9179292152
 20
99.4141168731
 30
0.0
 11
94.5160057823
 21
99.4141168731
 31
0.0
  0
LINE
  5
184
330
1F
100
AcDbEntity
  8
0
  6
Continuous
 62
     7
370
    15
100
AcDbLine
 10
94.7169674987
 20
99.422639406
 30
0.0
 11
94.9179292152
 21
99.4141168731
 31
0.0
  0
LINE
  5
185
330
1F
100
AcDbEntity
  8
0
  6
Continuous
 62
     7
370
    15
100
AcDbLine
 10
96.6169679964
 20
102.2226393062
 30
0.0
 11
92.516968442
 21
102.2226393062
 31
0.0
  0
LINE
  5
186
330
1F
100
AcDbEntity
  8
0
  6
Continuous
 62
     7
370
    15
100
AcDbLine
 10
92.516968442
 20
102.2976396444
 30
0.0
 11
96.6169679964
 21
102.2976396444
 31
0.0
  0
LINE
  5
187
330
1F
100
AcDbEntity
  8
0
  6
Continuous
 62
     7
370
    15
100
AcDbLine
 10
96.6169679964
 20
102.2976396444
 30
0.0
 11
96.6169679964
 21
102.2226393062
 31
0.0
  0
LINE
  5
188
330
1F
100
AcDbEntity
  8
0
  6
Continuous
 62
     7
370
    15
100
AcDbLine
 10
92.516968442
 20
102.2976396444
 30
0.0
 11
92.516968442
 21
102.2226393062
 31
0.0
  0
LINE
  5
189
330
1F
100
AcDbEntity
  8
0
  6
Continuous
 62
     7
370
    15
100
AcDbLine
 10
96.6169679964
 20
103.2326400119
 30
0.0
 11
92.516968442
 21
103.2326400119
 31
0.0
  0
LINE
  5
18A
330
1F
100
AcDbEntity
  8
0
  6
Continuous
 62
     7
370
    15
100
AcDbLine
 10
96.6169679964
 20
103.1576396736
 30
0.0
 11
96.6169679964
 21
103.2326400119
 31
0.0
  0
LINE
  5
18B
330
1F
100
AcDbEntity
  8
0
  6
Continuous
 62
     7
370
    15
100
AcDbLine
 10
92.516968442
 20
103.1576396736
 30
0.0
 11
96.6169679964
 21
103.1576396736
 31
0.0
  0
LINE
  5
18C
330
1F
100
AcDbEntity
  8
0
  6
Continuous
 62
     7
370
    15
100
AcDbLine
 10
92.516968442
 20
103.1576396736
 30
0.0
 11
92.516968442
 21
103.2326400119
 31
0.0
  0
LINE
  5
18D
330
1F
100
AcDbEntity
  8
0
  6
Continuous
 62
     7
370
    15
100
AcDbLine
 10
94.092468215
 20
100.3226397398
 30
0.0
 11
95.3414677138
 21
100.3226397398
 31
0.0
  0
ARC
  5
18E
330
1F
100
AcDbEntity
  8
0
  6
Continuous
 62
     7
370
    15
100
AcDbCircle
 10
94.7169676701
 20
100.8226396179
 30
0.0
 40
0.8000000000000114
100
AcDbArc
 50
321.3178125465
 51
0.0
  0
ARC
  5
18F
330
1F
100
AcDbEntity
  8
0
  6
Continuous
 62
     7
370
    15
100
AcDbCircle
 10
94.7169676701
 20
100.8226396179
 30
0.0
 40
0.8000000000000114
100
AcDbArc
 50
0.0
 51
180.0
  0
ARC
  5
190
330
1F
100
AcDbEntity
  8
0
  6
Continuous
 62
     7
370
    15
100
AcDbCircle
 10
94.7169676701
 20
100.8226396179
 30
0.0
 40
0.7999999999999993
100
AcDbArc
 50
180.0
 51
218.6821874535
  0
LINE
  5
191
330
1F
100
AcDbEntity
  8
0
  6
Continuous
 62
     7
370
    15
100
AcDbLine
 10
92.516968442
 20
99.422639406
 30
0.0
 11
92.516968442
 21
99.873956463
 31
0.0
  0
ARC
  5
192
330
1F
100
AcDbEntity
  8
0
  6
Continuous
 62
     7
370
    15
100
AcDbCircle
 10
91.1669676701
 20
100.8226396179
 30
0.0
 40
1.649999999999994
100
AcDbArc
 50
324.9031987724
 51
0.0
  0
LINE
  5
193
330
1F
100
AcDbEntity
  8
0
  6
Continuous
 62
     7
370
    15
100
AcDbLine
 10
96.6169679964
 20
99.422639406
 30
0.0
 11
96.6169679964
 21
102.2226393062
 31
0.0
  0
ARC
  5
194
330
1F
100
AcDbEntity
  8
0
  6
Continuous
 62
     7
370
    15
100
AcDbCircle
 10
91.1669676701
 20
100.8226396179
 30
0.0
 40
1.649999999999994
100
AcDbArc
 50
0.0
 51
35.0968012276
  0
LINE
  5
195
330
1F
100
AcDbEntity
  8
0
  6
Continuous
 62
     7
370
    15
100
AcDbLine
 10
92.516968442
 20
101.7713231805
 30
0.0
 11
92.516968442
 21
102.2226393062
 31
0.0
  0
ARC
  5
196
330
1F
100
AcDbEntity
  8
0
  6
Continuous
 62
     7
370
    15
100
AcDbCircle
 10
91.1669676701
 20
104.6326396179
 30
0.0
 40
1.650000000000002
100
AcDbArc
 50
324.9031987724
 51
0.0
  0
LINE
  5
197
330
1F
100
AcDbEntity
  8
0
  6
Continuous
 62
     7
370
    15
100
AcDbLine
 10
92.516968442
 20
105.5813237864
 30
0.0
 11
92.516968442
 21
106.0326389807
 31
0.0
  0
LINE
  5
198
330
1F
100
AcDbEntity
  8
0
  6
Continuous
 62
     7
370
    15
100
AcDbLine
 10
96.6169679964
 20
106.0326389807
 30
0.0
 11
92.516968442
 21
106.0326389807
 31
0.0
  0
LINE
  5
199
330
1F
100
AcDbEntity
  8
0
  6
Continuous
 62
     7
370
    15
100
AcDbLine
 10
96.6169679964
 20
103.2326400119
 30
0.0
 11
96.6169679964
 21
106.0326389807
 31
0.0
  0
ARC
  5
19A
330
1F
100
AcDbEntity
  8
0
  6
Continuous
 62
     7
370
    15
100
AcDbCircle
 10
94.7169676701
 20
104.6326396179
 30
0.0
 40
0.8000000000000114
100
AcDbArc
 50
180.0
 51
0.0
  0
ARC
  5
19B
330
1F
100
AcDbEntity
  8
0
  6
Continuous
 62
     7
370
    15
100
AcDbCircle
 10
94.7169676701
 20
104.6326396179
 30
0.0
 40
0.8000000000000114
100
AcDbArc
 50
0.0
 51
180.0
  0
LINE
  5
19C
330
1F
100
AcDbEntity
  8
0
  6
Continuous
 62
     7
370
    15
100
AcDbLine
 10
92.516968442
 20
103.6839561376
 30
0.0
 11
92.516968442
 21
103.2326400119
 31
0.0
  0
ARC
  5
19D
330
1F
100
AcDbEntity
  8
0
  6
Continuous
 62
     7
370
    15
100
AcDbCircle
 10
91.1669676701
 20
104.6326396179
 30
0.0
 40
1.649999999999994
100
AcDbArc
 50
0.0
 51
35.0968012276
  0
LINE
  5
19E
330
1F
100
AcDbEntity
  8
0
  6
Continuous
 62
     7
370
    15
100
AcDbLine
 10
92.516968442
 20
113.7276395994
 30
0.0
 11
92.516968442
 21
113.6526401925
 31
0.0
  0
LINE
  5
19F
330
1F
100
AcDbEntity
  8
0
  6
Continuous
 62
     7
370
    15
100
AcDbLine
 10
92.516968442
 20
113.7276395994
 30
0.0
 11
96.6169679964
 21
113.7276395994
 31
0.0
  0
LINE
  5
1A0
330
1F
100
AcDbEntity
  8
0
  6
Continuous
 62
     7
370
    15
100
AcDbLine
 10
96.6169679964
 20
113.7276395994
 30
0.0
 11
96.6169679964
 21
113.6526401925
 31
0.0
  0
LINE
  5
1A1
330
1F
100
AcDbEntity
  8
0
  6
Continuous
 62
     7
370
    15
100
AcDbLine
 10
96.6169679964
 20
117.537639274
 30
0.0
 11
92.516968442
 21
117.537639274
 31
0.0
  0
LINE
  5
1A2
330
1F
100
AcDbEntity
  8
0
  6
Continuous
 62
     7
370
    15
100
AcDbLine
 10
96.6169679964
 20
117.537639274
 30
0.0
 11
96.6169679964
 21
117.4626398671
 31
0.0
  0
LINE
  5
1A3
330
1F
100
AcDbEntity
  8
0
  6
Continuous
 62
     7
370
    15
100
AcDbLine
 10
92.516968442
 20
117.537639274
 30
0.0
 11
92.516968442
 21
117.4626398671
 31
0.0
  0
LINE
  5
1A4
330
1F
100
AcDbEntity
  8
0
  6
Continuous
 62
     7
370
    15
100
AcDbLine
 10
96.6169679964
 20
114.5876396286
 30
0.0
 11
96.6169679964
 21
114.6626390356
 31
0.0
  0
LINE
  5
1A5
330
1F
100
AcDbEntity
  8
0
  6
Continuous
 62
     7
370
    15
100
AcDbLine
 10
92.516968442
 20
114.5876396286
 30
0.0
 11
96.6169679964
 21
114.5876396286
 31
0.0
  0
LINE
  5
1A6
330
1F
100
AcDbEntity
  8
0
  6
Continuous
 62
     7
370
    15
100
AcDbLine
 10
92.516968442
 20
114.5876396286
 30
0.0
 11
92.516968442
 21
114.6626390356
 31
0.0
  0
LINE
  5
1A7
330
1F
100
AcDbEntity
  8
0
  6
Continuous
 62
     7
370
    15
100
AcDbLine
 10
92.516968442
 20
106.1076402503
 30
0.0
 11
92.516968442
 21
106.0326389807
 31
0.0
  0
LINE
  5
1A8
330
1F
100
AcDbEntity
  8
0
  6
Continuous
 62
     7
370
    15
100
AcDbLine
 10
92.516968442
 20
106.1076402503
 30
0.0
 11
96.6169679964
 21
106.1076402503
 31
0.0
  0
LINE
  5
1A9
330
1F
100
AcDbEntity
  8
0
  6
Continuous
 62
     7
370
    15
100
AcDbLine
 10
96.6169679964
 20
106.1076402503
 30
0.0
 11
96.6169679964
 21
106.0326389807
 31
0.0
  0
LINE
  5
1AA
330
1F
100
AcDbEntity
  8
0
  6
Continuous
 62
     7
370
    15
100
AcDbLine
 10
92.516968442
 20
110.7776399541
 30
0.0
 11
96.6169679964
 21
110.7776399541
 31
0.0
  0
LINE
  5
1AB
330
1F
100
AcDbEntity
  8
0
  6
Continuous
 62
     7
370
    15
100
AcDbLine
 10
92.516968442
 20
110.7776399541
 30
0.0
 11
92.516968442
 21
110.852639361
 31
0.0
  0
LINE
  5
1AC
330
1F
100
AcDbEntity
  8
0
  6
Continuous
 62
     7
370
    15
100
AcDbLine
 10
96.6169679964
 20
110.7776399541
 30
0.0
 11
96.6169679964
 21
110.852639361
 31
0.0
  0
LINE
  5
1AD
330
1F
100
AcDbEntity
  8
0
  6
Continuous
 62
     7
370
    15
100
AcDbLine
 10
92.516968442
 20
106.9676402795
 30
0.0
 11
96.6169679964
 21
106.9676402795
 31
0.0
  0
LINE
  5
1AE
330
1F
100
AcDbEntity
  8
0
  6
Continuous
 62
     7
370
    15
100
AcDbLine
 10
96.6169679964
 20
106.9676402795
 30
0.0
 11
96.6169679964
 21
107.0426396865
 31
0.0
  0
LINE
  5
1AF
330
1F
100
AcDbEntity
  8
0
  6
Continuous
 62
     7
370
    15
100
AcDbLine
 10
92.516968442
 20
106.9676402795
 30
0.0
 11
92.516968442
 21
107.0426396865
 31
0.0
  0
LINE
  5
1B0
330
1F
100
AcDbEntity
  8
0
  6
Continuous
 62
     7
370
    15
100
AcDbLine
 10
96.6169679964
 20
116.4626397031
 30
0.0
 11
97.8169678206
 21
116.4626397031
 31
0.0
  0
ARC
  5
1B1
330
1F
100
AcDbEntity
  8
0
  6
Continuous
 62
     7
370
    15
100
AcDbCircle
 10
97.8169676701
 20
116.3626396179
 30
0.0
 40
0.0999999999999801
100
AcDbArc
 50
0.0
 51
90.0
  0
LINE
  5
1B2
330
1F
100
AcDbEntity
  8
0
  6
Continuous
 62
     7
370
    15
100
AcDbLine
 10
97.9169676507
 20
115.7626390296
 30
0.0
 11
97.9169676507
 21
116.362639873
 31
0.0
  0
ARC
  5
1B3
330
1F
100
AcDbEntity
  8
0
  6
Continuous
 62
     7
370
    15
100
AcDbCircle
 10
97.8169676701
 20
115.7626396179
 30
0.0
 40
0.1000000000000085
100
AcDbArc
 50
270.0
 51
0.0
  0
LINE
  5
1B4
330
1F
100
AcDbEntity
  8
0
  6
Continuous
 62
     7
370
    15
100
AcDbLine
 10
97.8169678206
 20
115.6626391995
 30
0.0
 11
96.6169679964
 21
115.6626391995
 31
0.0
  0
LINE
  5
1B5
330
1F
100
AcDbEntity
  8
0
  6
Continuous
 62
     7
370
    15
100
AcDbLine
 10
97.9169676507
 20
108.1426396805
 30
0.0
 11
97.9169676507
 21
108.7426405239
 31
0.0
  0
ARC
  5
1B6
330
1F
100
AcDbEntity
  8
0
  6
Continuous
 62
     7
370
    15
100
AcDbCircle
 10
97.8169676701
 20
108.1426396179
 30
0.0
 40
0.0999999999999943
100
AcDbArc
 50
270.0
 51
0.0
  0
LINE
  5
1B7
330
1F
100
AcDbEntity
  8
0
  6
Continuous
 62
     7
370
    15
100
AcDbLine
 10
97.8169678206
 20
108.0426398504
 30
0.0
 11
96.6169679964
 21
108.0426398504
 31
0.0
  0
ARC
  5
1B8
330
1F
100
AcDbEntity
  8
0
  6
Continuous
 62
     7
370
    15
100
AcDbCircle
 10
97.8169676701
 20
108.7426396179
 30
0.0
 40
0.0999999999999943
100
AcDbArc
 50
0.0
 51
90.0
  0
LINE
  5
1B9
330
1F
100
AcDbEntity
  8
0
  6
Continuous
 62
     7
370
    15
100
AcDbLine
 10
96.6169679964
 20
108.842640354
 30
0.0
 11
97.8169678206
 21
108.842640354
 31
0.0
  0
LINE
  5
1BA
330
1F
100
AcDbEntity
  8
0
  6
Continuous
 62
     7
370
    15
100
AcDbLine
 10
96.6169679964
 20
112.6526400286
 30
0.0
 11
97.8169678206
 21
112.6526400286
 31
0.0
  0
LINE
  5
1BB
330
1F
100
AcDbEntity
  8
0
  6
Continuous
 62
     7
370
    15
100
AcDbLine
 10
97.9169676507
 20
111.9526393551
 30
0.0
 11
97.9169676507
 21
112.5526401985
 31
0.0
  0
LINE
  5
1BC
330
1F
100
AcDbEntity
  8
0
  6
Continuous
 62
     7
370
    15
100
AcDbLine
 10
97.8169678206
 20
111.8526395249
 30
0.0
 11
96.6169679964
 21
111.8526395249
 31
0.0
  0
ARC
  5
1BD
330
1F
100
AcDbEntity
  8
0
  6
Continuous
 62
     7
370
    15
100
AcDbCircle
 10
97.8169676701
 20
112.5526396179
 30
0.0
 40
0.1000000000000085
100
AcDbArc
 50
0.0
 51
90.0
  0
ARC
  5
1BE
330
1F
100
AcDbEntity
  8
0
  6
Continuous
 62
     7
370
    15
100
AcDbCircle
 10
97.8169676701
 20
111.9526396179
 30
0.0
 40
0.1000000000000227
100
AcDbArc
 50
270.0
 51
0.0
  0
ARC
  5
1BF
330
1F
100
AcDbEntity
  8
0
  6
Continuous
 62
     7
370
    15
100
AcDbCircle
 10
97.8169676701
 20
101.1226396179
 30
0.0
 40
0.0999999999999943
100
AcDbArc
 50
0.0
 51
90.0
  0
LINE
  5
1C0
330
1F
100
AcDbEntity
  8
0
  6
Continuous
 62
     7
370
    15
100
AcDbLine
 10
97.8169678206
 20
100.4226395699
 30
0.0
 11
96.6169679964
 21
100.4226395699
 31
0.0
  0
LINE
  5
1C1
330
1F
100
AcDbEntity
  8
0
  6
Continuous
 62
     7
370
    15
100
AcDbLine
 10
96.6169679964
 20
101.2226400736
 30
0.0
 11
97.8169678206
 21
101.2226400736
 31
0.0
  0
ARC
  5
1C2
330
1F
100
AcDbEntity
  8
0
  6
Continuous
 62
     7
370
    15
100
AcDbCircle
 10
97.8169676701
 20
100.5226396179
 30
0.0
 40
0.0999999999999801
100
AcDbArc
 50
270.0
 51
0.0
  0
LINE
  5
1C3
330
1F
100
AcDbEntity
  8
0
  6
Continuous
 62
     7
370
    15
100
AcDbLine
 10
97.9169676507
 20
100.5226394001
 30
0.0
 11
97.9169676507
 21
101.1226393121
 31
0.0
  0
ARC
  5
1C4
330
1F
100
AcDbEntity
  8
0
  6
Continuous
 62
     7
370
    15
100
AcDbCircle
 10
97.8169676701
 20
104.9326396179
 30
0.0
 40
0.0999999999999943
100
AcDbArc
 50
0.0
 51
90.0
  0
ARC
  5
1C5
330
1F
100
AcDbEntity
  8
0
  6
Continuous
 62
     7
370
    15
100
AcDbCircle
 10
97.8169676701
 20
104.3326396179
 30
0.0
 40
0.0999999999999943
100
AcDbArc
 50
270.0
 51
0.0
  0
LINE
  5
1C6
330
1F
100
AcDbEntity
  8
0
  6
Continuous
 62
     7
370
    15
100
AcDbLine
 10
97.8169678206
 20
104.2326401758
 30
0.0
 11
96.6169679964
 21
104.2326401758
 31
0.0
  0
LINE
  5
1C7
330
1F
100
AcDbEntity
  8
0
  6
Continuous
 62
     7
370
    15
100
AcDbLine
 10
97.9169676507
 20
104.3326400059
 30
0.0
 11
97.9169676507
 21
104.9326389867
 31
0.0
  0
LINE
  5
1C8
330
1F
100
AcDbEntity
  8
0
  6
Continuous
 62
     7
370
    15
100
AcDbLine
 10
96.6169679964
 20
105.0326388168
 30
0.0
 11
97.8169678206
 21
105.0326388168
 31
0.0
  0
LINE
  5
1C9
330
1F
100
AcDbEntity
  8
0
  6
Continuous
 62
     7
370
    15
100
AcDbLine
 10
97.9724511931
 20
118.3626402008
 30
0.0
 11
97.7169679905
 21
118.3626402008
 31
0.0
  0
LINE
  5
1CA
330
1F
100
AcDbEntity
  8
0
  6
Continuous
 62
     7
370
    15
100
AcDbLine
 10
97.9724511931
 20
98.5226400036
 30
0.0
 11
97.7169679905
 21
98.5226400036
 31
0.0
  0
LINE
  5
1CB
330
1F
100
AcDbEntity
  8
0
  6
Continuous
 62
     7
370
    15
100
AcDbLine
 10
98.2169680724
 20
114.5876396286
 30
0.0
 11
97.7169679905
 21
114.5876396286
 31
0.0
  0
LINE
  5
1CC
330
1F
100
AcDbEntity
  8
0
  6
Continuous
 62
     7
370
    15
100
AcDbLine
 10
98.2169680724
 20
113.7276395994
 30
0.0
 11
97.7169679905
 21
113.7276395994
 31
0.0
  0
LINE
  5
1CD
330
1F
100
AcDbEntity
  8
0
  6
Continuous
 62
     7
370
    15
100
AcDbLine
 10
98.2169680724
 20
109.9176399249
 30
0.0
 11
97.7169679905
 21
109.9176399249
 31
0.0
  0
LINE
  5
1CE
330
1F
100
AcDbEntity
  8
0
  6
Continuous
 62
     7
370
    15
100
AcDbLine
 10
98.2169680724
 20
106.1076402503
 30
0.0
 11
97.7169679905
 21
106.1076402503
 31
0.0
  0
LINE
  5
1CF
330
1F
100
AcDbEntity
  8
0
  6
Continuous
 62
     7
370
    15
100
AcDbLine
 10
91.6169681082
 20
98.5226400036
 30
0.0
 11
97.7169679905
 21
98.5226400036
 31
0.0
  0
LINE
  5
1D0
330
1F
100
AcDbEntity
  8
0
  6
Continuous
 62
     7
370
    15
100
AcDbLine
 10
91.6169681082
 20
98.5226400036
 30
0.0
 11
91.6169681082
 21
118.3626402008
 31
0.0
  0
LINE
  5
1D1
330
1F
100
AcDbEntity
  8
0
  6
Continuous
 62
     7
370
    15
100
AcDbLine
 10
95.4669680873
 20
114.3586013305
 30
0.0
 11
94.7169674987
 21
114.1576405454
 31
0.0
  0
LINE
  5
1D2
330
1F
100
AcDbEntity
  8
0
  6
Continuous
 62
     7
370
    15
100
AcDbLine
 10
95.4669680873
 20
106.3366785484
 30
0.0
 11
95.4669680873
 21
106.7386019814
 31
0.0
  0
LINE
  5
1D3
330
1F
100
AcDbEntity
  8
0
  6
Continuous
 62
     7
370
    15
100
AcDbLine
 10
95.4669680873
 20
106.7386019814
 30
0.0
 11
94.7169674987
 21
106.5376393336
 31
0.0
  0
LINE
  5
1D4
330
1F
100
AcDbEntity
  8
0
  6
Continuous
 62
     7
370
    15
100
AcDbLine
 10
94.7169674987
 20
114.1576405454
 30
0.0
 11
95.4669680873
 21
113.9566778976
 31
0.0
  0
LINE
  5
1D5
330
1F
100
AcDbEntity
  8
0
  6
Continuous
 62
     7
370
    15
100
AcDbLine
 10
94.7169674987
 20
106.5376393336
 30
0.0
 11
95.4669680873
 21
106.3366785484
 31
0.0
  0
LINE
  5
1D6
330
1F
100
AcDbEntity
  8
0
  6
Continuous
 62
     7
370
    15
100
AcDbLine
 10
95.4669680873
 20
110.548601656
 30
0.0
 11
94.7169674987
 21
110.3476390082
 31
0.0
  0
LINE
  5
1D7
330
1F
100
AcDbEntity
  8
0
  6
Continuous
 62
     7
370
    15
100
AcDbLine
 10
95.4669680873
 20
102.5266779426
 30
0.0
 11
95.4669680873
 21
102.9286013755
 31
0.0
  0
LINE
  5
1D8
330
1F
100
AcDbEntity
  8
0
  6
Continuous
 62
     7
370
    15
100
AcDbLine
 10
98.2169680724
 20
103.1576396736
 30
0.0
 11
97.7169679905
 21
103.1576396736
 31
0.0
  0
LINE
  5
1D9
330
1F
100
AcDbEntity
  8
0
  6
Continuous
 62
     7
370
    15
100
AcDbLine
 10
95.4669680873
 20
110.146678223
 30
0.0
 11
95.4669680873
 21
110.548601656
 31
0.0
  0
LINE
  5
1DA
330
1F
100
AcDbEntity
  8
0
  6
Continuous
 62
     7
370
    15
100
AcDbLine
 10
98.2169680724
 20
110.7776399541
 30
0.0
 11
97.7169679905
 21
110.7776399541
 31
0.0
  0
LINE
  5
1DB
330
1F
100
AcDbEntity
  8
0
  6
Continuous
 62
     7
370
    15
100
AcDbLine
 10
95.4669680873
 20
113.9566778976
 30
0.0
 11
95.4669680873
 21
114.3586013305
 31
0.0
  0
LINE
  5
1DC
330
1F
100
AcDbEntity
  8
0
  6
Continuous
 62
     7
370
    15
100
AcDbLine
 10
98.2169680724
 20
102.2976396444
 30
0.0
 11
97.7169679905
 21
102.2976396444
 31
0.0
  0
LINE
  5
1DD
330
1F
100
AcDbEntity
  8
0
  6
Continuous
 62
     7
370
    15
100
AcDbLine
 10
94.7169674987
 20
102.727639659
 30
0.0
 11
95.4669680873
 21
102.5266779426
 31
0.0
  0
LINE
  5
1DE
330
1F
100
AcDbEntity
  8
0
  6
Continuous
 62
     7
370
    15
100
AcDbLine
 10
98.2169680724
 20
106.9676402795
 30
0.0
 11
97.7169679905
 21
106.9676402795
 31
0.0
  0
LINE
  5
1DF
330
1F
100
AcDbEntity
  8
0
  6
Continuous
 62
     7
370
    15
100
AcDbLine
 10
91.6169681082
 20
118.3626402008
 30
0.0
 11
97.7169679905
 21
118.3626402008
 31
0.0
  0
LINE
  5
1E0
330
1F
100
AcDbEntity
  8
0
  6
Continuous
 62
     7
370
    15
100
AcDbLine
 10
94.7169674987
 20
110.3476390082
 30
0.0
 11
95.4669680873
 21
110.146678223
 31
0.0
  0
LINE
  5
1E1
330
1F
100
AcDbEntity
  8
0
  6
Continuous
 62
     7
370
    15
100
AcDbLine
 10
98.2169680724
 20
106.5376393336
 30
0.0
 11
98.2169680724
 21
106.9676402795
 31
0.0
  0
LINE
  5
1E2
330
1F
100
AcDbEntity
  8
0
  6
Continuous
 62
     7
370
    15
100
AcDbLine
 10
98.2169680724
 20
109.9176399249
 30
0.0
 11
98.2169680724
 21
110.3476390082
 31
0.0
  0
LINE
  5
1E3
330
1F
100
AcDbEntity
  8
0
  6
Continuous
 62
     7
370
    15
100
AcDbLine
 10
98.2169680724
 20
110.3476390082
 30
0.0
 11
98.2169680724
 21
110.7776399541
 31
0.0
  0
LINE
  5
1E4
330
1F
100
AcDbEntity
  8
0
  6
Continuous
 62
     7
370
    15
100
AcDbLine
 10
98.2169680724
 20
113.7276395994
 30
0.0
 11
98.2169680724
 21
114.1576405454
 31
0.0
  0
LINE
  5
1E5
330
1F
100
AcDbEntity
  8
0
  6
Continuous
 62
     7
370
    15
100
AcDbLine
 10
98.2169680724
 20
114.1576405454
 30
0.0
 11
98.2169680724
 21
114.5876396286
 31
0.0
  0
LINE
  5
1E6
330
1F
100
AcDbEntity
  8
0
  6
Continuous
 62
     7
370
    15
100
AcDbLine
 10
98.2169680724
 20
102.2976396444
 30
0.0
 11
98.2169680724
 21
102.727639659
 31
0.0
  0
LINE
  5
1E7
330
1F
100
AcDbEntity
  8
0
  6
Continuous
 62
     7
370
    15
100
AcDbLine
 10
98.2169680724
 20
102.727639659
 30
0.0
 11
98.2169680724
 21
103.1576396736
 31
0.0
  0
LINE
  5
1E8
330
1F
100
AcDbEntity
  8
0
  6
Continuous
 62
     7
370
    15
100
AcDbLine
 10
98.2169680724
 20
106.1076402503
 30
0.0
 11
98.2169680724
 21
106.5376393336
 31
0.0
  0
LINE
  5
1E9
330
1F
100
AcDbEntity
  8
0
  6
Continuous
 62
     7
370
    15
100
AcDbLine
 10
95.4669680873
 20
102.9286013755
 30
0.0
 11
94.7169674987
 21
102.727639659
 31
0.0
  0
ARC
  5
1EA
330
1F
100
AcDbEntity
  8
0
  6
Continuous
 62
     7
370
    15
100
AcDbCircle
 10
137.2169676701
 20
131.6926396179
 30
0.0
 40
0.2499999999999175
100
AcDbArc
 50
64.1580672368
 51
95.0998358896
  0
LINE
  5
1EB
330
1F
100
AcDbEntity
  8
0
  6
Continuous
 62
     7
370
    15
100
AcDbLine
 10
137.1947456578
 20
131.9416511643
 30
0.0
 11
136.9072072635
 21
131.917637943
 31
0.0
  0
LINE
  5
1EC
330
1F
100
AcDbEntity
  8
0
  6
Continuous
 62
     7
370
    15
100
AcDbLine
 10
132.9817496667
 20
131.917637943
 30
0.0
 11
132.6489583085
 21
131.9457303572
 31
0.0
  0
ARC
  5
1ED
330
1F
100
AcDbEntity
  8
0
  6
Continuous
 62
     7
370
    15
100
AcDbCircle
 10
132.7169676701
 20
132.6926396179
 30
0.0
 40
0.7500000000000145
100
AcDbArc
 50
84.7973257463
 51
264.7973257463
  0
ARC
  5
1EE
330
1F
100
AcDbEntity
  8
0
  6
Continuous
 62
     7
370
    15
100
AcDbCircle
 10
134.9444781698
 20
157.1562089038
 30
0.0
 40
23.81477203700241
100
AcDbArc
 50
264.7973257463
 51
275.0998358894
  0
LINE
  5
1EF
330
1F
100
AcDbEntity
  8
0
  6
Continuous
 62
     7
370
    15
100
AcDbLine
 10
140.9669671634
 20
131.8272810268
 30
0.0
 11
140.9669671634
 21
132.6926398861
 31
0.0
  0
LINE
  5
1F0
330
1F
100
AcDbEntity
  8
0
  6
Continuous
 62
     7
370
    15
100
AcDbLine
 10
142.466966478
 20
132.6926398861
 30
0.0
 11
142.466966478
 21
122.692638247
 31
0.0
  0
ARC
  5
1F1
330
1F
100
AcDbEntity
  8
0
  6
Continuous
 62
     7
370
    15
100
AcDbCircle
 10
134.1669676519
 20
122.1926396179
 30
0.0
 40
0.250000000000012
100
AcDbArc
 50
135.0
 51
180.0
  0
ARC
  5
1F2
330
1F
100
AcDbEntity
  8
0
  6
Continuous
 62
     7
370
    15
100
AcDbCircle
 10
134.1669676519
 20
113.3926395997
 30
0.0
 40
0.250000000000002
100
AcDbArc
 50
180.0
 51
225.0
  0
ARC
  5
1F3
330
1F
100
AcDbEntity
  8
0
  6
Continuous
 62
     7
370
    15
100
AcDbCircle
 10
138.4169676519
 20
109.1426395997
 30
0.0
 40
0.250000000000012
100
AcDbArc
 50
225.0
 51
270.0
  0
LINE
  5
1F4
330
1F
100
AcDbEntity
  8
0
  6
Continuous
 62
     7
370
    15
100
AcDbLine
 10
140.7169685195
 20
108.8926393378
 30
0.0
 11
138.4169668386
 21
108.8926393378
 31
0.0
  0
ARC
  5
1F5
330
1F
100
AcDbEntity
  8
0
  6
Continuous
 62
     7
370
    15
100
AcDbCircle
 10
140.7169676701
 20
109.1426395997
 30
0.0
 40
0.25
100
AcDbArc
 50
270.0
 51
0.0
  0
LINE
  5
1F6
330
1F
100
AcDbEntity
  8
0
  6
Continuous
 62
     7
370
    15
100
AcDbLine
 10
140.9669671634
 20
112.8926399934
 30
0.0
 11
140.9669671634
 21
109.1426398444
 31
0.0
  0
ARC
  5
1F7
330
1F
100
AcDbEntity
  8
0
  6
Continuous
 62
     7
370
    15
100
AcDbCircle
 10
141.7169676701
 20
112.8926396088
 30
0.0
 40
0.75
100
AcDbArc
 50
0.0
 51
180.0
  0
ARC
  5
1F8
330
1F
100
AcDbEntity
  8
0
  6
Continuous
 62
     7
370
    15
100
AcDbCircle
 10
140.7169676701
 20
109.1426395997
 30
0.0
 40
1.75
100
AcDbArc
 50
270.0
 51
0.0
  0
LINE
  5
1F9
330
1F
100
AcDbEntity
  8
0
  6
Continuous
 62
     7
370
    15
100
AcDbLine
 10
140.7169685195
 20
107.3926400232
 30
0.0
 11
138.7842841873
 21
107.3926400232
 31
0.0
  0
LINE
  5
1FA
330
1F
100
AcDbEntity
  8
0
  6
Continuous
 62
     7
370
    15
100
AcDbLine
 10
138.7842841873
 20
105.3926396954
 30
0.0
 11
141.7169686834
 21
105.3926396954
 31
0.0
  0
ARC
  5
1FB
330
1F
100
AcDbEntity
  8
0
  6
Continuous
 62
     7
370
    15
100
AcDbCircle
 10
141.7169676701
 20
104.6426395997
 30
0.0
 40
0.75
100
AcDbArc
 50
270.0
 51
90.0
  0
LINE
  5
1FC
330
1F
100
AcDbEntity
  8
0
  6
Continuous
 62
     7
370
    15
100
AcDbLine
 10
138.7842841873
 20
103.8926394495
 30
0.0
 11
141.7169686834
 21
103.8926394495
 31
0.0
  0
LINE
  5
1FD
330
1F
100
AcDbEntity
  8
0
  6
Continuous
 62
     7
370
    15
100
AcDbLine
 10
138.7842841873
 20
102.1426396283
 30
0.0
 11
141.7169686834
 21
102.1426396283
 31
0.0
  0
ARC
  5
1FE
330
1F
100
AcDbEntity
  8
0
  6
Continuous
 62
     7
370
    15
100
AcDbCircle
 10
141.7169676701
 20
101.3926395997
 30
0.0
 40
0.7500000000000002
100
AcDbArc
 50
270.0000013899
 51
89.9999986101
  0
LINE
  5
1FF
330
1F
100
AcDbEntity
  8
0
  6
Continuous
 62
     7
370
    15
100
AcDbLine
 10
138.7842841873
 20
100.6426393825
 30
0.0
 11
141.7169686834
 21
100.6426393825
 31
0.0
  0
LINE
  5
200
330
1F
100
AcDbEntity
  8
0
  6
Continuous
 62
     7
370
    15
100
AcDbLine
 10
138.7842841873
 20
98.8926395613
 30
0.0
 11
141.7169686834
 21
98.8926395613
 31
0.0
  0
ARC
  5
201
330
1F
100
AcDbEntity
  8
0
  6
Continuous
 62
     7
370
    15
100
AcDbCircle
 10
139.0342842195
 20
96.300888707
 30
0.0
 40
0.25
100
AcDbArc
 50
180.0
 51
240.0
  0
ARC
  5
202
330
1F
100
AcDbEntity
  8
0
  6
Continuous
 62
     7
370
    15
100
AcDbCircle
 10
80.8996511206
 20
96.300888707
 30
0.0
 40
0.25
100
AcDbArc
 50
300.0
 51
0.0
  0
LINE
  5
203
330
1F
100
AcDbEntity
  8
0
  6
Continuous
 62
     7
370
    15
100
AcDbLine
 10
81.1496511529
 20
97.3926393154
 30
0.0
 11
78.2169666568
 21
97.3926393154
 31
0.0
  0
ARC
  5
204
330
1F
100
AcDbEntity
  8
0
  6
Continuous
 62
     7
370
    15
100
AcDbCircle
 10
78.2169676701
 20
98.1426395997
 30
0.0
 40
0.7500000000000144
100
AcDbArc
 50
90.0000013899
 51
269.9999986101
  0
LINE
  5
205
330
1F
100
AcDbEntity
  8
0
  6
Continuous
 62
     7
370
    15
100
AcDbLine
 10
81.1496511529
 20
98.8926395613
 30
0.0
 11
78.2169666568
 21
98.8926395613
 31
0.0
  0
LINE
  5
206
330
1F
100
AcDbEntity
  8
0
  6
Continuous
 62
     7
370
    15
100
AcDbLine
 10
81.1496511529
 20
100.6426393825
 30
0.0
 11
78.2169666568
 21
100.6426393825
 31
0.0
  0
ARC
  5
207
330
1F
100
AcDbEntity
  8
0
  6
Continuous
 62
     7
370
    15
100
AcDbCircle
 10
78.2169676701
 20
101.3926395997
 30
0.0
 40
0.7500000000000002
100
AcDbArc
 50
90.0000013899
 51
269.9999986101
  0
LINE
  5
208
330
1F
100
AcDbEntity
  8
0
  6
Continuous
 62
     7
370
    15
100
AcDbLine
 10
81.1496511529
 20
102.1426396283
 30
0.0
 11
78.2169666568
 21
102.1426396283
 31
0.0
  0
LINE
  5
209
330
1F
100
AcDbEntity
  8
0
  6
Continuous
 62
     7
370
    15
100
AcDbLine
 10
81.1496511529
 20
103.8926394495
 30
0.0
 11
78.2169666568
 21
103.8926394495
 31
0.0
  0
ARC
  5
20A
330
1F
100
AcDbEntity
  8
0
  6
Continuous
 62
     7
370
    15
100
AcDbCircle
 10
78.2169676701
 20
104.6426395997
 30
0.0
 40
0.75
100
AcDbArc
 50
90.0
 51
270.0
  0
ARC
  5
20B
330
1F
100
AcDbEntity
  8
0
  6
Continuous
 62
     7
370
    15
100
AcDbCircle
 10
79.2169676701
 20
109.1426395997
 30
0.0
 40
1.75
100
AcDbArc
 50
180.0
 51
270.0
  0
LINE
  5
20C
330
1F
100
AcDbEntity
  8
0
  6
Continuous
 62
     7
370
    15
100
AcDbLine
 10
77.4669688622
 20
112.8926399934
 30
0.0
 11
77.4669688622
 21
109.1426398444
 31
0.0
  0
ARC
  5
20D
330
1F
100
AcDbEntity
  8
0
  6
Continuous
 62
     7
370
    15
100
AcDbCircle
 10
78.2169676701
 20
112.8926396088
 30
0.0
 40
0.75
100
AcDbArc
 50
0.0
 51
180.0
  0
ARC
  5
20E
330
1F
100
AcDbEntity
  8
0
  6
Continuous
 62
     7
370
    15
100
AcDbCircle
 10
85.7669676883
 20
113.3926395997
 30
0.0
 40
0.250000000000002
100
AcDbArc
 50
315.0
 51
0.0
  0
ARC
  5
20F
330
1F
100
AcDbEntity
  8
0
  6
Continuous
 62
     7
370
    15
100
AcDbCircle
 10
85.7669676883
 20
122.1926396179
 30
0.0
 40
0.250000000000012
100
AcDbArc
 50
0.0
 51
45.0
  0
ARC
  5
210
330
1F
100
AcDbEntity
  8
0
  6
Continuous
 62
     7
370
    15
100
AcDbCircle
 10
81.5169676883
 20
126.4426396179
 30
0.0
 40
0.250000000000002
100
AcDbArc
 50
45.0
 51
90.0
  0
LINE
  5
211
330
1F
100
AcDbEntity
  8
0
  6
Continuous
 62
     7
370
    15
100
AcDbLine
 10
79.2169668207
 20
126.6926389027
 30
0.0
 11
81.5169685016
 21
126.6926389027
 31
0.0
  0
ARC
  5
212
330
1F
100
AcDbEntity
  8
0
  6
Continuous
 62
     7
370
    15
100
AcDbCircle
 10
79.2169676701
 20
126.4426396179
 30
0.0
 40
0.25
100
AcDbArc
 50
90.0
 51
180.0
  0
LINE
  5
213
330
1F
100
AcDbEntity
  8
0
  6
Continuous
 62
     7
370
    15
100
AcDbLine
 10
78.9669681767
 20
122.692638247
 30
0.0
 11
78.9669681767
 21
126.442638396
 31
0.0
  0
LINE
  5
214
330
1F
100
AcDbEntity
  8
0
  6
Continuous
 62
     7
370
    15
100
AcDbLine
 10
77.4669688622
 20
132.6926398861
 30
0.0
 11
77.4669688622
 21
122.692638247
 31
0.0
  0
LINE
  5
215
330
1F
100
AcDbEntity
  8
0
  6
Continuous
 62
     7
370
    15
100
AcDbLine
 10
78.9669681767
 20
131.8272810268
 30
0.0
 11
78.9669681767
 21
132.6926398861
 31
0.0
  0
ARC
  5
216
330
1F
100
AcDbEntity
  8
0
  6
Continuous
 62
     7
370
    15
100
AcDbCircle
 10
82.7169676701
 20
131.6926396179
 30
0.0
 40
1.74999999999991
100
AcDbArc
 50
84.9001641106
 51
169.2403261018
  0
ARC
  5
217
330
1F
100
AcDbEntity
  8
0
  6
Continuous
 62
     7
370
    15
100
AcDbCircle
 10
84.9894571703
 20
157.1562089038
 30
0.0
 40
23.81477203700241
100
AcDbArc
 50
264.9001641106
 51
275.2026742537
  0
ARC
  5
218
330
1F
100
AcDbEntity
  8
0
  6
Continuous
 62
     7
370
    15
100
AcDbCircle
 10
87.2169676701
 20
132.6926396179
 30
0.0
 40
0.7500000000000159
100
AcDbArc
 50
275.2026742537
 51
95.2026742537
  0
LINE
  5
219
330
1F
100
AcDbEntity
  8
0
  6
Continuous
 62
     7
370
    15
100
AcDbLine
 10
82.7391896824
 20
131.9416511643
 30
0.0
 11
83.0267280767
 21
131.917637943
 31
0.0
  0
LINE
  5
21A
330
1F
100
AcDbEntity
  8
0
  6
Continuous
 62
     7
370
    15
100
AcDbLine
 10
86.9521856735
 20
131.917637943
 30
0.0
 11
87.2849770317
 21
131.9457303572
 31
0.0
  0
ARC
  5
21B
330
1F
100
AcDbEntity
  8
0
  6
Continuous
 62
     7
370
    15
100
AcDbCircle
 10
82.7169676701
 20
131.6926396179
 30
0.0
 40
0.2499999999999175
100
AcDbArc
 50
84.9001641104
 51
115.8419327632
  0
LINE
  5
21C
330
1F
100
AcDbEntity
  8
0
  6
Continuous
 62
     7
370
    15
100
AcDbLine
 10
140.7169685195
 20
126.6926389027
 30
0.0
 11
138.4169668386
 21
126.6926389027
 31
0.0
  0
ARC
  5
21D
330
1F
100
AcDbEntity
  8
0
  6
Continuous
 62
     7
370
    15
100
AcDbCircle
 10
138.4169676519
 20
126.4426396179
 30
0.0
 40
0.25
100
AcDbArc
 50
90.0
 51
135.0
  0
ARC
  5
21E
330
1F
100
AcDbEntity
  8
0
  6
Continuous
 62
     7
370
    15
100
AcDbCircle
 10
79.2169676701
 20
109.1426395997
 30
0.0
 40
0.25
100
AcDbArc
 50
180.0
 51
270.0
  0
LINE
  5
21F
330
1F
100
AcDbEntity
  8
0
  6
Continuous
 62
     7
370
    15
100
AcDbLine
 10
78.9669681767
 20
112.8926399934
 30
0.0
 11
78.9669681767
 21
109.1426398444
 31
0.0
  0
ARC
  5
220
330
1F
100
AcDbEntity
  8
0
  6
Continuous
 62
     7
370
    15
100
AcDbCircle
 10
137.2169676701
 20
131.6926396179
 30
0.0
 40
1.7499999999999
100
AcDbArc
 50
10.7596738984
 51
95.0998358894
  0
LINE
  5
221
330
1F
100
AcDbEntity
  8
0
  6
Continuous
 62
     7
370
    15
100
AcDbLine
 10
81.1496511529
 20
105.3926396954
 30
0.0
 11
78.2169666568
 21
105.3926396954
 31
0.0
  0
ARC
  5
222
330
1F
100
AcDbEntity
  8
0
  6
Continuous
 62
     7
370
    15
100
AcDbCircle
 10
78.2169676701
 20
122.6926396088
 30
0.0
 40
0.75
100
AcDbArc
 50
180.0
 51
0.0
  0
LINE
  5
223
330
1F
100
AcDbEntity
  8
0
  6
Continuous
 62
     7
370
    15
100
AcDbLine
 10
140.9669671634
 20
122.692638247
 30
0.0
 11
140.9669671634
 21
126.442638396
 31
0.0
  0
ARC
  5
224
330
1F
100
AcDbEntity
  8
0
  6
Continuous
 62
     7
370
    15
100
AcDbCircle
 10
141.7169676701
 20
122.6926396088
 30
0.0
 40
0.75
100
AcDbArc
 50
180.0
 51
0.0
  0
ARC
  5
225
330
1F
100
AcDbEntity
  8
0
  6
Continuous
 62
     7
370
    15
100
AcDbCircle
 10
81.5169676883
 20
109.1426395997
 30
0.0
 40
0.2500000000000221
100
AcDbArc
 50
270.0
 51
315.0
  0
LINE
  5
226
330
1F
100
AcDbEntity
  8
0
  6
Continuous
 62
     7
370
    15
100
AcDbLine
 10
79.2169668207
 20
108.8926393378
 30
0.0
 11
81.5169685016
 21
108.8926393378
 31
0.0
  0
LINE
  5
227
330
1F
100
AcDbEntity
  8
0
  6
Continuous
 62
     7
370
    15
100
AcDbLine
 10
138.7842841873
 20
97.3926393154
 30
0.0
 11
141.7169686834
 21
97.3926393154
 31
0.0
  0
ARC
  5
228
330
1F
100
AcDbEntity
  8
0
  6
Continuous
 62
     7
370
    15
100
AcDbCircle
 10
141.7169676701
 20
98.1426395997
 30
0.0
 40
0.7500000000000144
100
AcDbArc
 50
270.0000013899
 51
89.9999986101
  0
LINE
  5
229
330
1F
100
AcDbEntity
  8
0
  6
Continuous
 62
     7
370
    15
100
AcDbLine
 10
79.2169668207
 20
107.3926400232
 30
0.0
 11
81.1496511529
 21
107.3926400232
 31
0.0
  0
LINE
  5
22A
330
1F
100
AcDbEntity
  8
0
  6
Continuous
 62
     7
370
    15
100
AcDbLine
 10
142.466966478
 20
112.8926399934
 30
0.0
 11
142.466966478
 21
109.1426398444
 31
0.0
  0
ARC
  5
22B
330
1F
100
AcDbEntity
  8
0
  6
Continuous
 62
     7
370
    15
100
AcDbCircle
 10
140.7169676701
 20
126.4426396179
 30
0.0
 40
0.25
100
AcDbArc
 50
0.0
 51
90.0
  0
ARC
  5
22C
330
1F
100
AcDbEntity
  8
0
  6
Continuous
 62
     7
370
    15
100
AcDbCircle
 10
78.2169676701
 20
132.6926396179
 30
0.0
 40
0.75
100
AcDbArc
 50
0.0
 51
180.0
  0
ARC
  5
22D
330
1F
100
AcDbEntity
  8
0
  6
Continuous
 62
     7
370
    15
100
AcDbCircle
 10
141.7169676701
 20
132.6926396179
 30
0.0
 40
0.75
100
AcDbArc
 50
0.0
 51
180.0
  0
LINE
  5
22E
330
1F
100
AcDbEntity
  8
0
  6
Continuous
 62
   216
370
    15
100
AcDbLine
 10
97.7169679905
 20
106.1076402503
 30
0.0
 11
97.7169679905
 21
105.0326388168
 31
0.0
  0
LINE
  5
22F
330
1F
100
AcDbEntity
  8
0
  6
Continuous
 62
   216
370
    15
100
AcDbLine
 10
97.7169679905
 20
104.2326401758
 30
0.0
 11
97.7169679905
 21
103.1576396736
 31
0.0
  0
LINE
  5
230
330
1F
100
AcDbEntity
  8
0
  6
Continuous
 62
   216
370
    15
100
AcDbLine
 10
97.7169679905
 20
118.3626402008
 30
0.0
 11
97.7169679905
 21
116.4626397031
 31
0.0
  0
LINE
  5
231
330
1F
100
AcDbEntity
  8
0
  6
Continuous
 62
   216
370
    15
100
AcDbLine
 10
97.7169679905
 20
115.6626391995
 30
0.0
 11
97.7169679905
 21
114.5876396286
 31
0.0
  0
LINE
  5
232
330
1F
100
AcDbEntity
  8
0
  6
Continuous
 62
   216
370
    15
100
AcDbLine
 10
97.7169679905
 20
109.9176399249
 30
0.0
 11
97.7169679905
 21
108.842640354
 31
0.0
  0
LINE
  5
233
330
1F
100
AcDbEntity
  8
0
  6
Continuous
 62
   216
370
    15
100
AcDbLine
 10
97.7169679905
 20
108.0426398504
 30
0.0
 11
97.7169679905
 21
106.9676402795
 31
0.0
  0
LINE
  5
234
330
1F
100
AcDbEntity
  8
0
  6
Continuous
 62
   216
370
    15
100
AcDbLine
 10
97.7169679905
 20
102.2976396444
 30
0.0
 11
97.7169679905
 21
101.2226400736
 31
0.0
  0
LINE
  5
235
330
1F
100
AcDbEntity
  8
0
  6
Continuous
 62
   216
370
    15
100
AcDbLine
 10
97.7169679905
 20
100.4226395699
 30
0.0
 11
97.7169679905
 21
98.5226400036
 31
0.0
  0
LINE
  5
236
330
1F
100
AcDbEntity
  8
0
  6
Continuous
 62
   216
370
    15
100
AcDbLine
 10
97.7169679905
 20
113.7276395994
 30
0.0
 11
97.7169679905
 21
112.6526400286
 31
0.0
  0
LINE
  5
237
330
1F
100
AcDbEntity
  8
0
  6
Continuous
 62
   216
370
    15
100
AcDbLine
 10
97.7169679905
 20
111.8526395249
 30
0.0
 11
97.7169679905
 21
110.7776399541
 31
0.0
  0
DIMENSION
  5
238
330
1F
100
AcDbEntity
  8
FORMAT
100
AcDbDimension
  2
*D6
 10
57.6493418596
 20
88.7141396179
 30
0.0
 11
57.6493418596
 21
105.0635408849
 31
0.0
 70
   160
 71
     2
 42
-1.0
  3
SLDDIMSTYLE0
100
AcDbAlignedDimension
 13
68.0799448196
 23
117.7926396088
 33
0.0
 14
77.9669676701
 24
88.7141396179
 34
0.0
 50
90.0
100
AcDbRotatedDimension
  0
DIMENSION
  5
243
330
1F
100
AcDbEntity
  8
FORMAT
100
AcDbDimension
  2
*D7
 10
142.9669676701
 20
76.4426396179
 30
0.0
 11
109.9669676701
 21
76.4426396179
 31
0.0
 70
   160
 71
     2
 42
-1.0
  3
SLDDIMSTYLE1
100
AcDbAlignedDimension
 13
76.9669676701
 23
89.7141396179
 33
0.0
 14
142.9669676701
 24
89.7141396179
 34
0.0
 50
0.0
100
AcDbRotatedDimension
  0
DIMENSION
  5
24E
330
1F
100
AcDbEntity
  8
FORMAT
100
AcDbDimension
  2
*D8
 10
154.9669676701
 20
108.8926395997
 30
0.0
 11
154.9669676701
 21
117.7926396088
 31
0.0
 70
   160
 71
     2
 42
-1.0
  3
SLDDIMSTYLE2
100
AcDbAlignedDimension
 13
140.7169676701
 23
126.6926396179
 33
0.0
 14
140.7169676701
 24
108.8926395997
 34
0.0
 50
90.0
100
AcDbRotatedDimension
  0
DIMENSION
  5
25B
330
1F
100
AcDbEntity
  8
FORMAT
100
AcDbDimension
  2
*D9
 10
133.9169676519
 20
145.4426396179
 30
0.0
 11
151.8426622005
 21
145.4426396179
 31
0.0
 70
   160
 71
     2
 42
-1.0
  3
SLDDIMSTYLE2
100
AcDbAlignedDimension
 13
140.9669676701
 23
112.8926396088
 33
0.0
 14
133.9169676519
 24
122.2961930085
 34
0.0
 50
0.0
100
AcDbRotatedDimension
  0
DIMENSION
  5
267
330
1F
100
AcDbEntity
  8
FORMAT
100
AcDbDimension
  2
*D10
 10
44.9669676701
 20
133.1641396179
 30
0.0
 11
44.9669676701
 21
110.9391396179
 31
0.0
 70
   160
 71
     2
 42
-1.0
  3
SLDDIMSTYLE0
100
AcDbAlignedDimension
 13
77.9669676701
 23
88.7141396179
 33
0.0
 14
77.9669676701
 24
133.1641396179
 34
0.0
 50
90.0
100
AcDbRotatedDimension
  0
LINE
  5
271
330
1F
100
AcDbEntity
  8
FORMAT
  6
CENTERX2
370
     0
100
AcDbLine
 10
68.0799448196
 20
117.7926396088
 30
0.0
 11
104.3387074898
 21
117.7926396088
 31
0.0
  0
LINE
  5
272
330
1F
100
AcDbEntity
  8
0
  6
Continuous
 62
     7
370
    15
100
AcDbLine
 10
219.9279277374
 20
126.7502393413
 30
0.0
 11
219.9993192007
 21
126.8123101282
 31
0.0
  0
LINE
  5
273
330
1F
100
AcDbEntity
  8
0
  6
Continuous
 62
     7
370
    15
100
AcDbLine
 10
221.338188534
 20
127.9761690485
 30
0.0
 11
221.6297148516
 21
128.229593097
 31
0.0
  0
LINE
  5
274
330
1F
100
AcDbEntity
  8
0
  6
Continuous
 62
     7
370
    15
100
AcDbLine
 10
221.6297148516
 20
130.6556884038
 30
0.0
 11
221.338188534
 21
130.909108727
 31
0.0
  0
SPLINE
  5
275
330
1F
100
AcDbEntity
  8
0
  6
Continuous
 62
     7
370
    15
100
AcDbSpline
210
0.0
220
0.0
230
1.0
 70
     8
 71
     3
 72
     9
 73
     5
 74
     0
 42
0.00000001
 43
0.00000001
 40
0.0
 40
0.0
 40
0.0
 40
0.0
 40
0.6108976496757664
 40
1.0
 40
1.0
 40
1.0
 40
1.0
 10
222.2183703233703
 20
128.653929738991
 30
0.0
 10
222.2900062216631
 20
128.5379299601184
 30
0.0
 10
222.4072695608343
 20
128.3480458135118
 30
0.0
 10
222.5222884673054
 20
128.1547314139363
 30
0.0
 10
222.5670425941451
 20
128.0795123267099
 30
0.0
  0
SPLINE
  5
276
330
1F
100
AcDbEntity
  8
0
  6
Continuous
 62
     7
370
    15
100
AcDbSpline
210
0.0
220
0.0
230
1.0
 70
     8
 71
     3
 72
     9
 73
     5
 74
     0
 42
0.00000001
 43
0.00000001
 40
0.0
 40
0.0
 40
0.0
 40
0.0
 40
0.628828872539037
 40
0.9999999999999999
 40
0.9999999999999999
 40
0.9999999999999999
 40
0.9999999999999999
 10
222.6944177200301
 20
130.2252944397852
 30
0.0
 10
222.6229304747287
 20
130.3417780441566
 30
0.0
 10
222.5092473274954
 20
130.5270170009829
 30
0.0
 10
222.3979489444191
 20
130.7154968777359
 30
0.0
 10
222.356638198088
 20
130.785455166094
 30
0.0
  0
SPLINE
  5
277
330
1F
100
AcDbEntity
  8
0
  6
Continuous
 62
     7
370
    15
100
AcDbSpline
210
0.0
220
0.0
230
1.0
 70
     8
 71
     3
 72
     9
 73
     5
 74
     0
 42
0.00000001
 43
0.00000001
 40
0.0
 40
0.0
 40
0.0
 40
0.0
 40
0.7501538083495118
 40
1.0
 40
1.0
 40
1.0
 40
1.0
 10
221.6295509387954
 20
127.9444258499071
 30
0.0
 10
221.7006989700116
 20
128.0653300111873
 30
0.0
 10
221.7955435611131
 20
128.2265025066602
 30
0.0
 10
221.8924538468543
 20
128.3853851958523
 30
0.0
 10
221.9166665126784
 20
128.4250814306662
 30
0.0
  0
LINE
  5
278
330
1F
100
AcDbEntity
  8
0
  6
Continuous
 62
     7
370
    15
100
AcDbLine
 10
222.6968913128
 20
127.967641859
 30
0.0
 11
222.8381990244
 21
127.967641859
 31
0.0
  0
LINE
  5
279
330
1F
100
AcDbEntity
  8
0
  6
Continuous
 62
     7
370
    15
100
AcDbLine
 10
222.2614197781
 20
130.8657686996
 30
0.0
 11
221.9831554939
 21
130.8657686996
 31
0.0
  0
SPLINE
  5
27A
330
1F
100
AcDbEntity
  8
0
  6
Continuous
 62
     7
370
    15
100
AcDbSpline
210
0.0
220
0.0
230
1.0
 70
     8
 71
     3
 72
     9
 73
     5
 74
     0
 42
0.00000001
 43
0.00000001
 40
0.0
 40
0.0
 40
0.0
 40
0.0
 40
0.7560978031596247
 40
1.0
 40
1.0
 40
1.0
 40
1.0
 10
221.9552009155257
 20
130.8442663240358
 30
0.0
 10
221.9139478228508
 20
130.7745518996017
 30
0.0
 10
221.8593872984022
 20
130.6823489806899
 30
0.0
 10
221.803610681842
 20
130.5909115365983
 30
0.0
 10
221.7900066425307
 20
130.5686097431108
 30
0.0
  0
ARC
  5
27B
330
1F
100
AcDbEntity
  8
0
  6
Continuous
 62
     7
370
    15
100
AcDbCircle
 10
222.6026296599
 20
127.1103888602
 30
0.0
 40
1.482958421974358
100
AcDbArc
 50
101.1203202147
 51
119.1826264207
  0
ARC
  5
27C
330
1F
100
AcDbEntity
  8
0
  6
Continuous
 62
     7
370
    15
100
AcDbCircle
 10
222.6026296599
 20
131.7748903756
 30
0.0
 40
1.482958421974371
100
AcDbArc
 50
229.0
 51
237.4337164214
  0
LINE
  5
27D
330
1F
100
AcDbEntity
  8
0
  6
Continuous
 62
     7
370
    15
100
AcDbLine
 10
222.8381990244
 20
130.2919324326
 30
0.0
 11
222.6538567593
 21
130.2919324326
 31
0.0
  0
LINE
  5
27E
330
1F
100
AcDbEntity
  8
0
  6
Continuous
 62
     7
370
    15
100
AcDbLine
 10
221.6297148516
 20
127.967641859
 30
0.0
 11
221.6377465775
 21
127.967641859
 31
0.0
  0
LINE
  5
27F
330
1F
100
AcDbEntity
  8
0
  6
Continuous
 62
     7
370
    15
100
AcDbLine
 10
372.6981936743
 20
113.6426396507
 30
0.0
 11
222.8381990244
 21
113.6426396507
 31
0.0
  0
LINE
  5
280
330
1F
100
AcDbEntity
  8
0
  6
Continuous
 62
     7
370
    15
100
AcDbLine
 10
222.8381990244
 20
89.69263959
 30
0.0
 11
372.6981936743
 21
89.69263959
 31
0.0
  0
LINE
  5
281
330
1F
100
AcDbEntity
  8
0
  6
Continuous
 62
     7
370
    15
100
AcDbLine
 10
222.8381990244
 20
121.9426404524
 30
0.0
 11
372.6981936743
 21
121.9426404524
 31
0.0
  0
LINE
  5
282
330
1F
100
AcDbEntity
  8
0
  6
Continuous
 62
     7
370
    15
100
AcDbLine
 10
372.6981936743
 20
133.4426414061
 30
0.0
 11
222.8381990244
 21
133.4426414061
 31
0.0
  0
LINE
  5
283
330
1F
100
AcDbEntity
  8
0
  6
Continuous
 62
     7
370
    15
100
AcDbLine
 10
372.6981936743
 20
89.8592728728
 30
0.0
 11
372.6981936743
 21
94.8242095138
 31
0.0
  0
LINE
  5
284
330
1F
100
AcDbEntity
  8
0
  6
Continuous
 62
     7
370
    15
100
AcDbLine
 10
374.1981936873
 20
96.1565512071
 30
0.0
 11
372.6981936743
 21
96.1565512071
 31
0.0
  0
LINE
  5
285
330
1F
100
AcDbEntity
  8
0
  6
Continuous
 62
     7
370
    15
100
AcDbLine
 10
372.6981936743
 20
94.8242095138
 30
0.0
 11
372.6981936743
 21
96.0843825552
 31
0.0
  0
LINE
  5
286
330
1F
100
AcDbEntity
  8
0
  6
Continuous
 62
     7
370
    15
100
AcDbLine
 10
374.2221936372
 20
88.4426396179
 30
0.0
 11
372.6981936743
 21
88.4426396179
 31
0.0
  0
LINE
  5
287
330
1F
100
AcDbEntity
  8
0
  6
Continuous
 62
     7
370
    15
100
AcDbLine
 10
372.6981936743
 20
88.4426396179
 30
0.0
 11
372.6981936743
 21
89.8592728728
 31
0.0
  0
LINE
  5
288
330
1F
100
AcDbEntity
  8
0
  6
Continuous
 62
     7
370
    15
100
AcDbLine
 10
374.2221936372
 20
88.4426396179
 30
0.0
 11
374.2221936372
 21
88.7141396189
 31
0.0
  0
LINE
  5
289
330
1F
100
AcDbEntity
  8
0
  6
Continuous
 62
     7
370
    15
100
AcDbLine
 10
374.1981936873
 20
127.1635081458
 30
0.0
 11
372.6981936743
 21
127.1635081458
 31
0.0
  0
LINE
  5
28A
330
1F
100
AcDbEntity
  8
0
  6
Continuous
 62
     7
370
    15
100
AcDbLine
 10
374.1981936873
 20
128.4131865787
 30
0.0
 11
372.6981936743
 21
128.4131865787
 31
0.0
  0
LINE
  5
28B
330
1F
100
AcDbEntity
  8
0
  6
Continuous
 62
     7
370
    15
100
AcDbLine
 10
372.6981936743
 20
130.4720911968
 30
0.0
 11
374.1981936873
 21
130.4720911968
 31
0.0
  0
LINE
  5
28C
330
1F
100
AcDbEntity
  8
0
  6
Continuous
 62
     7
370
    15
100
AcDbLine
 10
374.2221936372
 20
113.289085387
 30
0.0
 11
372.6981936743
 21
113.289085387
 31
0.0
  0
LINE
  5
28D
330
1F
100
AcDbEntity
  8
0
  6
Continuous
 62
     7
370
    15
100
AcDbLine
 10
374.1981936873
 20
108.4217700946
 30
0.0
 11
372.6981936743
 21
108.4217700946
 31
0.0
  0
LINE
  5
28E
330
1F
100
AcDbEntity
  8
0
  6
Continuous
 62
     7
370
    15
100
AcDbLine
 10
374.2221936372
 20
108.8926393378
 30
0.0
 11
374.2221936372
 21
113.289085387
 31
0.0
  0
LINE
  5
28F
330
1F
100
AcDbEntity
  8
0
  6
Continuous
 62
     7
370
    15
100
AcDbLine
 10
372.6981936743
 20
96.3008889767
 30
0.0
 11
372.6981936743
 21
97.3926393154
 31
0.0
  0
LINE
  5
290
330
1F
100
AcDbEntity
  8
0
  6
Continuous
 62
     7
370
    15
100
AcDbLine
 10
372.6981936743
 20
98.8926395613
 30
0.0
 11
372.6981936743
 21
100.6426393825
 31
0.0
  0
LINE
  5
291
330
1F
100
AcDbEntity
  8
0
  6
Continuous
 62
     7
370
    15
100
AcDbLine
 10
372.6981936743
 20
102.1426396283
 30
0.0
 11
372.6981936743
 21
103.8926394495
 31
0.0
  0
LINE
  5
292
330
1F
100
AcDbEntity
  8
0
  6
Continuous
 62
     7
370
    15
100
AcDbLine
 10
372.6981936743
 20
105.3926396954
 30
0.0
 11
372.6981936743
 21
107.3926400232
 31
0.0
  0
LINE
  5
293
330
1F
100
AcDbEntity
  8
0
  6
Continuous
 62
     7
370
    15
100
AcDbLine
 10
374.2221936372
 20
122.2961928534
 30
0.0
 11
372.6981936743
 21
122.2961928534
 31
0.0
  0
LINE
  5
294
330
1F
100
AcDbEntity
  8
0
  6
Continuous
 62
     7
370
    15
100
AcDbLine
 10
374.2221936372
 20
122.2961928534
 30
0.0
 11
374.2221936372
 21
126.6926389027
 31
0.0
  0
LINE
  5
295
330
1F
100
AcDbEntity
  8
0
  6
Continuous
 62
     7
370
    15
100
AcDbLine
 10
374.1981936873
 20
131.917637943
 30
0.0
 11
372.6981936743
 21
131.917637943
 31
0.0
  0
LINE
  5
296
330
1F
100
AcDbEntity
  8
0
  6
Continuous
 62
     7
370
    15
100
AcDbLine
 10
372.6981936743
 20
113.6426396507
 30
0.0
 11
372.6981936743
 21
121.9426404524
 31
0.0
  0
LINE
  5
297
330
1F
100
AcDbEntity
  8
0
  6
Continuous
 62
     7
370
    15
100
AcDbLine
 10
374.2221936372
 20
113.289085387
 30
0.0
 11
374.2221936372
 21
122.2961928534
 31
0.0
  0
LINE
  5
298
330
1F
100
AcDbEntity
  8
0
  6
Continuous
 62
     7
370
    15
100
AcDbLine
 10
222.8381990244
 20
94.8242095138
 30
0.0
 11
221.338188534
 21
94.8242095138
 31
0.0
  0
LINE
  5
299
330
1F
100
AcDbEntity
  8
0
  6
Continuous
 62
     7
370
    15
100
AcDbLine
 10
222.8381990244
 20
89.8592728728
 30
0.0
 11
221.338188534
 21
89.8592728728
 31
0.0
  0
LINE
  5
29A
330
1F
100
AcDbEntity
  8
0
  6
Continuous
 62
     7
370
    15
100
AcDbLine
 10
222.8381990244
 20
89.8592728728
 30
0.0
 11
222.8381990244
 21
94.8242095138
 31
0.0
  0
LINE
  5
29B
330
1F
100
AcDbEntity
  8
0
  6
Continuous
 62
     7
370
    15
100
AcDbLine
 10
222.8381990244
 20
96.1565512071
 30
0.0
 11
221.338188534
 21
96.1565512071
 31
0.0
  0
LINE
  5
29C
330
1F
100
AcDbEntity
  8
0
  6
Continuous
 62
     7
370
    15
100
AcDbLine
 10
222.8381990244
 20
94.8242095138
 30
0.0
 11
222.8381990244
 21
96.0843825552
 31
0.0
  0
LINE
  5
29D
330
1F
100
AcDbEntity
  8
0
  6
Continuous
 62
     7
370
    15
100
AcDbLine
 10
222.8381990244
 20
88.4426396179
 30
0.0
 11
221.338188534
 21
88.4426396179
 31
0.0
  0
LINE
  5
29E
330
1F
100
AcDbEntity
  8
0
  6
Continuous
 62
     7
370
    15
100
AcDbLine
 10
221.338188534
 20
88.4426396179
 30
0.0
 11
221.338188534
 21
88.7141396189
 31
0.0
  0
LINE
  5
29F
330
1F
100
AcDbEntity
  8
0
  6
Continuous
 62
     7
370
    15
100
AcDbLine
 10
222.8381990244
 20
88.4426396179
 30
0.0
 11
222.8381990244
 21
89.8592728728
 31
0.0
  0
LINE
  5
2A0
330
1F
100
AcDbEntity
  8
0
  6
Continuous
 62
     7
370
    15
100
AcDbLine
 10
222.8381990244
 20
108.4217700946
 30
0.0
 11
221.338188534
 21
108.4217700946
 31
0.0
  0
LINE
  5
2A1
330
1F
100
AcDbEntity
  8
0
  6
Continuous
 62
     7
370
    15
100
AcDbLine
 10
222.8381990244
 20
96.3008889767
 30
0.0
 11
222.8381990244
 21
97.3926393154
 31
0.0
  0
LINE
  5
2A2
330
1F
100
AcDbEntity
  8
0
  6
Continuous
 62
     7
370
    15
100
AcDbLine
 10
222.8381990244
 20
98.8926395613
 30
0.0
 11
222.8381990244
 21
100.6426393825
 31
0.0
  0
LINE
  5
2A3
330
1F
100
AcDbEntity
  8
0
  6
Continuous
 62
     7
370
    15
100
AcDbLine
 10
222.8381990244
 20
102.1426396283
 30
0.0
 11
222.8381990244
 21
103.8926394495
 31
0.0
  0
LINE
  5
2A4
330
1F
100
AcDbEntity
  8
0
  6
Continuous
 62
     7
370
    15
100
AcDbLine
 10
222.8381990244
 20
105.3926396954
 30
0.0
 11
222.8381990244
 21
107.3926400232
 31
0.0
  0
LINE
  5
2A5
330
1F
100
AcDbEntity
  8
0
  6
Continuous
 62
     7
370
    15
100
AcDbLine
 10
222.8381990244
 20
113.289085387
 30
0.0
 11
221.338188534
 21
113.289085387
 31
0.0
  0
LINE
  5
2A6
330
1F
100
AcDbEntity
  8
0
  6
Continuous
 62
     7
370
    15
100
AcDbLine
 10
221.338188534
 20
108.8926393378
 30
0.0
 11
221.338188534
 21
113.289085387
 31
0.0
  0
LINE
  5
2A7
330
1F
100
AcDbEntity
  8
0
  6
Continuous
 62
     7
370
    15
100
AcDbLine
 10
222.8381990244
 20
127.1635081458
 30
0.0
 11
221.338188534
 21
127.1635081458
 31
0.0
  0
LINE
  5
2A8
330
1F
100
AcDbEntity
  8
0
  6
Continuous
 62
     7
370
    15
100
AcDbLine
 10
222.3659216215
 20
128.4131865787
 30
0.0
 11
221.9094394495
 21
128.4131865787
 31
0.0
  0
LINE
  5
2A9
330
1F
100
AcDbEntity
  8
0
  6
Continuous
 62
     7
370
    15
100
AcDbLine
 10
222.5441693117
 20
130.4720911968
 30
0.0
 11
222.8381990244
 21
130.4720911968
 31
0.0
  0
LINE
  5
2AA
330
1F
100
AcDbEntity
  8
0
  6
Continuous
 62
     7
370
    15
100
AcDbLine
 10
222.8381990244
 20
122.2961928534
 30
0.0
 11
221.338188534
 21
122.2961928534
 31
0.0
  0
LINE
  5
2AB
330
1F
100
AcDbEntity
  8
0
  6
Continuous
 62
     7
370
    15
100
AcDbLine
 10
221.338188534
 20
122.2961928534
 30
0.0
 11
221.338188534
 21
126.6926389027
 31
0.0
  0
LINE
  5
2AC
330
1F
100
AcDbEntity
  8
0
  6
Continuous
 62
     7
370
    15
100
AcDbLine
 10
222.8381990244
 20
131.917637943
 30
0.0
 11
221.338188534
 21
131.917637943
 31
0.0
  0
LINE
  5
2AD
330
1F
100
AcDbEntity
  8
0
  6
Continuous
 62
     7
370
    15
100
AcDbLine
 10
221.338188534
 20
113.289085387
 30
0.0
 11
221.338188534
 21
122.2961928534
 31
0.0
  0
LINE
  5
2AE
330
1F
100
AcDbEntity
  8
0
  6
Continuous
 62
     7
370
    15
100
AcDbLine
 10
222.8381990244
 20
113.6426396507
 30
0.0
 11
222.8381990244
 21
121.9426404524
 31
0.0
  0
LINE
  5
2AF
330
1F
100
AcDbEntity
  8
0
  6
Continuous
 62
     7
370
    15
100
AcDbLine
 10
375.4173936577
 20
133.1641387033
 30
0.0
 11
375.4173936577
 21
132.1641404021
 31
0.0
  0
LINE
  5
2B0
330
1F
100
AcDbEntity
  8
0
  6
Continuous
 62
     7
370
    15
100
AcDbLine
 10
374.1981936873
 20
132.1641404021
 30
0.0
 11
375.4173936577
 21
132.1641404021
 31
0.0
  0
LINE
  5
2B1
330
1F
100
AcDbEntity
  8
0
  6
Continuous
 62
     7
370
    15
100
AcDbLine
 10
374.1981936873
 20
133.1641387033
 30
0.0
 11
374.1981936873
 21
132.1641404021
 31
0.0
  0
LINE
  5
2B2
330
1F
100
AcDbEntity
  8
0
  6
Continuous
 62
     7
370
    15
100
AcDbLine
 10
375.4173936577
 20
133.1641387033
 30
0.0
 11
374.1981936873
 21
133.1641387033
 31
0.0
  0
LINE
  5
2B3
330
1F
100
AcDbEntity
  8
0
  6
Continuous
 62
     7
370
    15
100
AcDbLine
 10
375.4173936577
 20
108.8926393378
 30
0.0
 11
375.4173936577
 21
107.8926391739
 31
0.0
  0
LINE
  5
2B4
330
1F
100
AcDbEntity
  8
0
  6
Continuous
 62
     7
370
    15
100
AcDbLine
 10
374.1981936873
 20
107.8926391739
 30
0.0
 11
375.4173936577
 21
107.8926391739
 31
0.0
  0
LINE
  5
2B5
330
1F
100
AcDbEntity
  8
0
  6
Continuous
 62
     7
370
    15
100
AcDbLine
 10
374.1981936873
 20
108.8926393378
 30
0.0
 11
374.1981936873
 21
107.8926391739
 31
0.0
  0
LINE
  5
2B6
330
1F
100
AcDbEntity
  8
0
  6
Continuous
 62
     7
370
    15
100
AcDbLine
 10
375.4173936577
 20
108.8926393378
 30
0.0
 11
374.1981936873
 21
108.8926393378
 31
0.0
  0
LINE
  5
2B7
330
1F
100
AcDbEntity
  8
0
  6
Continuous
 62
     7
370
    15
100
AcDbLine
 10
375.7983937648
 20
132.0063259292
 30
0.0
 11
375.7983937648
 21
132.7831383634
 31
0.0
  0
LINE
  5
2B8
330
1F
100
AcDbEntity
  8
0
  6
Continuous
 62
     7
370
    15
100
AcDbLine
 10
375.4173936577
 20
132.1641404021
 30
0.0
 11
375.7983937648
 21
132.0063259292
 31
0.0
  0
LINE
  5
2B9
330
1F
100
AcDbEntity
  8
0
  6
Continuous
 62
     7
370
    15
100
AcDbLine
 10
375.4173936577
 20
133.1641387033
 30
0.0
 11
375.7983937648
 21
132.7831383634
 31
0.0
  0
LINE
  5
2BA
330
1F
100
AcDbEntity
  8
0
  6
Continuous
 62
     7
370
    15
100
AcDbLine
 10
375.7983937648
 20
127.8504554021
 30
0.0
 11
375.7983937648
 21
132.0063259292
 31
0.0
  0
LINE
  5
2BB
330
1F
100
AcDbEntity
  8
0
  6
Continuous
 62
     7
370
    15
100
AcDbLine
 10
375.4173936577
 20
127.6926409292
 30
0.0
 11
375.7983937648
 21
127.8504554021
 31
0.0
  0
LINE
  5
2BC
330
1F
100
AcDbEntity
  8
0
  6
Continuous
 62
     7
370
    15
100
AcDbLine
 10
375.4173936577
 20
132.1641404021
 30
0.0
 11
375.4173936577
 21
127.6926409292
 31
0.0
  0
LINE
  5
2BD
330
1F
100
AcDbEntity
  8
0
  6
Continuous
 62
     7
370
    15
100
AcDbLine
 10
375.4173936577
 20
89.7141396373
 30
0.0
 11
375.4173936577
 21
88.7141396189
 31
0.0
  0
LINE
  5
2BE
330
1F
100
AcDbEntity
  8
0
  6
Continuous
 62
     7
370
    15
100
AcDbLine
 10
375.4173936577
 20
89.7141396373
 30
0.0
 11
375.7983937648
 21
89.8719550415
 31
0.0
  0
LINE
  5
2BF
330
1F
100
AcDbEntity
  8
0
  6
Continuous
 62
     7
370
    15
100
AcDbLine
 10
375.7983937648
 20
89.0951396387
 30
0.0
 11
375.7983937648
 21
89.8719550415
 31
0.0
  0
LINE
  5
2C0
330
1F
100
AcDbEntity
  8
0
  6
Continuous
 62
     7
370
    15
100
AcDbLine
 10
375.7983937648
 20
89.0951396387
 30
0.0
 11
375.4173936577
 21
88.7141396189
 31
0.0
  0
LINE
  5
2C1
330
1F
100
AcDbEntity
  8
0
  6
Continuous
 62
     7
370
    15
100
AcDbLine
 10
375.7983937648
 20
127.0736392426
 30
0.0
 11
375.7983937648
 21
127.8504554021
 31
0.0
  0
LINE
  5
2C2
330
1F
100
AcDbEntity
  8
0
  6
Continuous
 62
     7
370
    15
100
AcDbLine
 10
375.4173936577
 20
126.6926389027
 30
0.0
 11
375.7983937648
 21
127.0736392426
 31
0.0
  0
LINE
  5
2C3
330
1F
100
AcDbEntity
  8
0
  6
Continuous
 62
     7
370
    15
100
AcDbLine
 10
375.4173936577
 20
127.6926409292
 30
0.0
 11
375.4173936577
 21
126.6926389027
 31
0.0
  0
LINE
  5
2C4
330
1F
100
AcDbEntity
  8
0
  6
Continuous
 62
     7
370
    15
100
AcDbLine
 10
375.4173936577
 20
107.8926391739
 30
0.0
 11
375.4173936577
 21
89.7141396373
 31
0.0
  0
LINE
  5
2C5
330
1F
100
AcDbEntity
  8
0
  6
Continuous
 62
     7
370
    15
100
AcDbLine
 10
375.4173936577
 20
89.7141396373
 30
0.0
 11
374.1981936873
 21
89.7141396373
 31
0.0
  0
LINE
  5
2C6
330
1F
100
AcDbEntity
  8
0
  6
Continuous
 62
     7
370
    15
100
AcDbLine
 10
374.1981936873
 20
107.8926391739
 30
0.0
 11
374.1981936873
 21
89.7141396373
 31
0.0
  0
LINE
  5
2C7
330
1F
100
AcDbEntity
  8
0
  6
Continuous
 62
     7
370
    15
100
AcDbLine
 10
375.7983937648
 20
107.7348247009
 30
0.0
 11
375.7983937648
 21
108.5116389978
 31
0.0
  0
LINE
  5
2C8
330
1F
100
AcDbEntity
  8
0
  6
Continuous
 62
     7
370
    15
100
AcDbLine
 10
375.4173936577
 20
107.8926391739
 30
0.0
 11
375.7983937648
 21
107.7348247009
 31
0.0
  0
LINE
  5
2C9
330
1F
100
AcDbEntity
  8
0
  6
Continuous
 62
     7
370
    15
100
AcDbLine
 10
375.4173936577
 20
108.8926393378
 30
0.0
 11
375.7983937648
 21
108.5116389978
 31
0.0
  0
LINE
  5
2CA
330
1F
100
AcDbEntity
  8
0
  6
Continuous
 62
     7
370
    15
100
AcDbLine
 10
375.4173936577
 20
127.6926409292
 30
0.0
 11
374.1981936873
 21
127.6926409292
 31
0.0
  0
LINE
  5
2CB
330
1F
100
AcDbEntity
  8
0
  6
Continuous
 62
     7
370
    15
100
AcDbLine
 10
374.1981936873
 20
132.1641404021
 30
0.0
 11
374.1981936873
 21
127.6926409292
 31
0.0
  0
LINE
  5
2CC
330
1F
100
AcDbEntity
  8
0
  6
Continuous
 62
     7
370
    15
100
AcDbLine
 10
375.7983937648
 20
89.8719550415
 30
0.0
 11
375.7983937648
 21
107.7348247009
 31
0.0
  0
LINE
  5
2CD
330
1F
100
AcDbEntity
  8
0
  6
Continuous
 62
     7
370
    15
100
AcDbLine
 10
374.1981936873
 20
88.7141396189
 30
0.0
 11
375.4173936577
 21
88.7141396189
 31
0.0
  0
LINE
  5
2CE
330
1F
100
AcDbEntity
  8
0
  6
Continuous
 62
     7
370
    15
100
AcDbLine
 10
374.1981936873
 20
89.7141396373
 30
0.0
 11
374.1981936873
 21
88.7141396189
 31
0.0
  0
LINE
  5
2CF
330
1F
100
AcDbEntity
  8
0
  6
Continuous
 62
     7
370
    15
100
AcDbLine
 10
374.1981936873
 20
126.6926389027
 30
0.0
 11
375.4173936577
 21
126.6926389027
 31
0.0
  0
LINE
  5
2D0
330
1F
100
AcDbEntity
  8
0
  6
Continuous
 62
     7
370
    15
100
AcDbLine
 10
374.1981936873
 20
127.6926409292
 30
0.0
 11
374.1981936873
 21
126.6926389027
 31
0.0
  0
LINE
  5
2D1
330
1F
100
AcDbEntity
  8
0
  6
Continuous
 62
     7
370
    15
100
AcDbLine
 10
375.4173936577
 20
112.8926399934
 30
0.0
 11
375.4173936577
 21
108.8926393378
 31
0.0
  0
LINE
  5
2D2
330
1F
100
AcDbEntity
  8
0
  6
Continuous
 62
     7
370
    15
100
AcDbLine
 10
374.2221936372
 20
112.8926399934
 30
0.0
 11
375.4173936577
 21
112.8926399934
 31
0.0
  0
LINE
  5
2D3
330
1F
100
AcDbEntity
  8
0
  6
Continuous
 62
     7
370
    15
100
AcDbLine
 10
375.4173936577
 20
112.8926399934
 30
0.0
 11
375.7983937648
 21
112.7348236579
 31
0.0
  0
LINE
  5
2D4
330
1F
100
AcDbEntity
  8
0
  6
Continuous
 62
     7
370
    15
100
AcDbLine
 10
375.7983937648
 20
108.5116389978
 30
0.0
 11
375.7983937648
 21
112.7348236579
 31
0.0
  0
LINE
  5
2D5
330
1F
100
AcDbEntity
  8
0
  6
Continuous
 62
     7
370
    15
100
AcDbLine
 10
375.4173936577
 20
122.692638247
 30
0.0
 11
375.7983937648
 21
122.8504564452
 31
0.0
  0
LINE
  5
2D6
330
1F
100
AcDbEntity
  8
0
  6
Continuous
 62
     7
370
    15
100
AcDbLine
 10
375.4173936577
 20
126.6926389027
 30
0.0
 11
375.4173936577
 21
122.692638247
 31
0.0
  0
LINE
  5
2D7
330
1F
100
AcDbEntity
  8
0
  6
Continuous
 62
     7
370
    15
100
AcDbLine
 10
375.7983937648
 20
122.8504564452
 30
0.0
 11
375.7983937648
 21
127.0736392426
 31
0.0
  0
LINE
  5
2D8
330
1F
100
AcDbEntity
  8
0
  6
Continuous
 62
     7
370
    15
100
AcDbLine
 10
374.2221936372
 20
122.692638247
 30
0.0
 11
375.4173936577
 21
122.692638247
 31
0.0
  0
LINE
  5
2D9
330
1F
100
AcDbEntity
  8
0
  6
Continuous
 62
     7
370
    15
100
AcDbLine
 10
375.4173936577
 20
122.692638247
 30
0.0
 11
375.4173936577
 21
112.8926399934
 31
0.0
  0
LINE
  5
2DA
330
1F
100
AcDbEntity
  8
0
  6
Continuous
 62
     7
370
    15
100
AcDbLine
 10
375.7983937648
 20
112.7348236579
 30
0.0
 11
375.7983937648
 21
122.8504564452
 31
0.0
  0
LINE
  5
2DB
330
1F
100
AcDbEntity
  8
0
  6
Continuous
 62
     7
370
    15
100
AcDbLine
 10
374.1981936873
 20
122.2961928534
 30
0.0
 11
374.1981936873
 21
113.289085387
 31
0.0
  0
LINE
  5
2DC
330
1F
100
AcDbEntity
  8
0
  6
Continuous
 62
     7
370
    15
100
AcDbLine
 10
219.9279277374
 20
126.8837127674
 30
0.0
 11
219.9279277374
 21
126.7502393413
 31
0.0
  0
SPLINE
  5
2DD
330
1F
100
AcDbEntity
  8
0
  6
Continuous
 62
     7
370
    15
100
AcDbSpline
210
0.0
220
0.0
230
1.0
 70
     8
 71
     3
 72
    11
 73
     7
 74
     0
 42
0.00000001
 43
0.00000001
 40
0.0
 40
0.0
 40
0.0
 40
0.0
 40
0.3266335138345814
 40
0.6531362023793247
 40
0.9741959993691788
 40
1.0
 40
1.0
 40
1.0
 40
1.0
 10
222.5131152917846
 20
129.6248297977373
 30
0.0
 10
222.5561887802344
 20
129.4261026164828
 30
0.0
 10
222.6423185050718
 20
129.0287278494223
 30
0.0
 10
222.7578262198648
 20
128.5325342709394
 30
0.0
 10
222.8153219909544
 20
128.2300663121231
 30
0.0
 10
222.8366149889887
 20
128.1641242225825
 30
0.0
 10
222.8381990243896
 20
128.1592186379358
 30
0.0
  0
LINE
  5
2DE
330
1F
100
AcDbEntity
  8
0
  6
Continuous
 62
     7
370
    15
100
AcDbLine
 10
222.5028483917
 20
129.6862896371
 30
0.0
 11
222.5131152918
 21
129.6248297977
 31
0.0
  0
SPLINE
  5
2DF
330
1F
100
AcDbEntity
  8
0
  6
Continuous
 62
     7
370
    15
100
AcDbSpline
210
0.0
220
0.0
230
1.0
 70
     8
 71
     3
 72
    12
 73
     8
 74
     0
 42
0.00000001
 43
0.00000001
 40
0.0
 40
0.0
 40
0.0
 40
0.0
 40
0.1611051158944037
 40
0.4062653876770687
 40
0.6602200666333048
 40
0.9195712248041911
 40
1.0
 40
1.0
 40
1.0
 40
1.0
 10
222.2463845064147
 20
128.6219816493914
 30
0.0
 10
222.2327064251964
 20
128.6429223105338
 30
0.0
 10
222.1982138460008
 20
128.6957292358136
 30
0.0
 10
222.1509009598707
 20
128.8920873191159
 30
0.0
 10
222.0888043708669
 20
129.1680457194329
 30
0.0
 10
222.0442346580837
 20
129.4195956530973
 30
0.0
 10
222.0220890674222
 20
129.562576064868
 30
0.0
 10
222.0168470193847
 20
129.5964207339212
 30
0.0
  0
LINE
  5
2E0
330
1F
100
AcDbEntity
  8
0
  6
Continuous
 62
     7
370
    15
100
AcDbLine
 10
222.3440914204
 20
129.6862896371
 30
0.0
 11
222.0168470194
 21
129.5964207339
 31
0.0
  0
LINE
  5
2E1
330
1F
100
AcDbEntity
  8
0
  6
Continuous
 62
     7
370
    15
100
AcDbLine
 10
222.3486660768
 20
129.6248297977
 30
0.0
 11
222.3440914204
 21
129.6862896371
 31
0.0
  0
LINE
  5
2E2
330
1F
100
AcDbEntity
  8
0
  6
Continuous
 62
     7
370
    15
100
AcDbLine
 10
222.6968913128
 20
127.9932383287
 30
0.0
 11
222.6301192095
 21
127.9959801423
 31
0.0
  0
SPLINE
  5
2E3
330
1F
100
AcDbEntity
  8
0
  6
Continuous
 62
     7
370
    15
100
AcDbSpline
210
0.0
220
0.0
230
1.0
 70
     8
 71
     3
 72
    11
 73
     7
 74
     0
 42
0.00000001
 43
0.00000001
 40
0.0
 40
0.0
 40
0.0
 40
0.0
 40
0.1635296232747766
 40
0.4515859259811284
 40
0.7347801354985061
 40
1.0
 40
1.0
 40
1.0
 40
1.0
 10
222.5802748252852
 20
128.0874211180136
 30
0.0
 10
222.5582647208487
 20
128.1204377340649
 30
0.0
 10
222.4974839693623
 20
128.2116128914077
 30
0.0
 10
222.4361612042179
 20
128.5646671622393
 30
0.0
 10
222.3728331710562
 20
129.0626290985277
 30
0.0
 10
222.3565438129508
 20
129.4415695055988
 30
0.0
 10
222.3486660768493
 20
129.6248297977373
 30
0.0
  0
SPLINE
  5
2E4
330
1F
100
AcDbEntity
  8
0
  6
Continuous
 62
     7
370
    15
100
AcDbSpline
210
0.0
220
0.0
230
1.0
 70
     8
 71
     3
 72
     9
 73
     5
 74
     0
 42
0.00000001
 43
0.00000001
 40
0.0
 40
0.0
 40
0.0
 40
0.0
 40
0.6091225497691583
 40
1.0
 40
1.0
 40
1.0
 40
1.0
 10
221.6297148515685
 20
128.5084832298681
 30
0.0
 10
221.6786971205736
 20
128.449067574086
 30
0.0
 10
221.7591115938575
 20
128.3515245496082
 30
0.0
 10
221.8379022025626
 20
128.4015332108788
 30
0.0
 10
221.8686996747954
 20
128.4210804688856
 30
0.0
  0
SPLINE
  5
2E5
330
1F
100
AcDbEntity
  8
0
  6
Continuous
 62
     7
370
    15
100
AcDbSpline
210
0.0
220
0.0
230
1.0
 70
     8
 71
     3
 72
    10
 73
     6
 74
     0
 42
0.00000001
 43
0.00000001
 40
0.0
 40
0.0
 40
0.0
 40
0.0
 40
0.3380933756950197
 40
0.8890968852871703
 40
1.0
 40
1.0
 40
1.0
 40
1.0
 10
222.6906477262481
 20
130.224068819277
 30
0.0
 10
222.7061214435207
 20
130.1968430540174
 30
0.0
 10
222.7468132606928
 20
130.1252464335803
 30
0.0
 10
222.8011263088453
 20
129.9721949558512
 30
0.0
 10
222.8328788538261
 20
129.8435109431883
 30
0.0
 10
222.8381990243896
 20
129.8219498085901
 30
0.0
  0
LINE
  5
2E6
330
1F
100
AcDbEntity
  8
0
  6
Continuous
 62
     7
370
    15
100
AcDbLine
 10
222.4982886364
 20
129.745793699
 30
0.0
 11
222.5028483917
 21
129.6862896371
 31
0.0
  0
SPLINE
  5
2E7
330
1F
100
AcDbEntity
  8
0
  6
Continuous
 62
     7
370
    15
100
AcDbSpline
210
0.0
220
0.0
230
1.0
 70
     8
 71
     3
 72
    11
 73
     7
 74
     0
 42
0.00000001
 43
0.00000001
 40
0.0
 40
0.0
 40
0.0
 40
0.0
 40
0.1747823696240505
 40
0.4589626379299624
 40
0.7383475230587375
 40
1.0
 40
1.0
 40
1.0
 40
1.0
 10
222.2614197780593
 20
130.8410215961859
 30
0.0
 10
222.2853151234538
 20
130.8435333597664
 30
0.0
 10
222.3480621315191
 20
130.8501290229401
 30
0.0
 10
222.4108600404382
 20
130.632641613237
 30
0.0
 10
222.4740839404565
 20
130.2559734945112
 30
0.0
 10
222.4903986416085
 20
129.9120967972869
 30
0.0
 10
222.4982886363967
 20
129.7457936990187
 30
0.0
  0
LINE
  5
2E8
330
1F
100
AcDbEntity
  8
0
  6
Continuous
 62
     7
370
    15
100
AcDbLine
 10
221.6297148516
 20
127.9754165399
 30
0.0
 11
221.6377465775
 21
127.981038003
 31
0.0
  0
SPLINE
  5
2E9
330
1F
100
AcDbEntity
  8
0
  6
Continuous
 62
     7
370
    15
100
AcDbSpline
210
0.0
220
0.0
230
1.0
 70
    24
 71
     3
 72
    10
 73
     6
 74
     0
 42
0.00000001
 43
0.00000001
 40
0.0
 40
0.0
 40
0.0
 40
0.0
 40
0.1499809046834694
 40
0.6155373155495366
 40
1.0
 40
1.0
 40
1.0
 40
1.0
 10
221.6297148515685
 20
127.9754165399
 30
0.0
 10
221.6297148515685
 20
127.9875224521697
 30
0.0
 10
221.6297148515685
 20
128.0372063819772
 30
0.0
 10
221.6297148515685
 20
128.1961135858272
 30
0.0
 10
221.6297148515685
 20
128.4111999213113
 30
0.0
 10
221.6297148515685
 20
128.5084832298681
 30
0.0
  0
LINE
  5
2EA
330
1F
100
AcDbEntity
  8
0
  6
Continuous
 62
     7
370
    15
100
AcDbLine
 10
222.3486660768
 20
129.6248297977
 30
0.0
 11
222.5131152918
 21
129.6248297977
 31
0.0
  0
LINE
  5
2EB
330
1F
100
AcDbEntity
  8
0
  6
Continuous
 62
     7
370
    15
100
AcDbLine
 10
222.3338245203
 20
129.745793699
 30
0.0
 11
222.4982886364
 21
129.745793699
 31
0.0
  0
LINE
  5
2EC
330
1F
100
AcDbEntity
  8
0
  6
Continuous
 62
     7
370
    15
100
AcDbLine
 10
222.3440914204
 20
129.6862896371
 30
0.0
 11
222.3338245203
 21
129.745793699
 31
0.0
  0
SPLINE
  5
2ED
330
1F
100
AcDbEntity
  8
0
  6
Continuous
 62
     7
370
    15
100
AcDbSpline
210
0.0
220
0.0
230
1.0
 70
     8
 71
     3
 72
    11
 73
     7
 74
     0
 42
0.00000001
 43
0.00000001
 40
0.0
 40
0.0
 40
0.0
 40
0.0
 40
0.2871011411118485
 40
0.5740884567775967
 40
0.8562936718304966
 40
1.0
 40
1.0
 40
1.0
 40
1.0
 10
222.3338245203002
 20
129.7457936990187
 30
0.0
 10
222.2908072025793
 20
129.9252510146483
 30
0.0
 10
222.2047896219821
 20
130.2840944974303
 30
0.0
 10
222.0885327522325
 20
130.6583678273084
 30
0.0
 10
222.021610916826
 20
130.8585344522334
 30
0.0
 10
221.9928572394302
 20
130.8454203376145
 30
0.0
 10
221.9831554939254
 20
130.8409955191538
 30
0.0
  0
SPLINE
  5
2EE
330
1F
100
AcDbEntity
  8
0
  6
Continuous
 62
     7
370
    15
100
AcDbSpline
210
0.0
220
0.0
230
1.0
 70
     8
 71
     3
 72
    12
 73
     8
 74
     0
 42
0.00000001
 43
0.00000001
 40
0.0
 40
0.0
 40
0.0
 40
0.0
 40
0.2420074418186436
 40
0.4836894610443133
 40
0.7259578405429675
 40
0.965209480017183
 40
1.0
 40
1.0
 40
1.0
 40
1.0
 10
222.0168470193847
 20
129.5964207339212
 30
0.0
 10
221.9984264523401
 20
129.711283054018
 30
0.0
 10
221.9616100880209
 20
129.9408532411345
 30
0.0
 10
221.9033649070748
 20
130.2342550722108
 30
0.0
 10
221.8540462534256
 20
130.4315914618669
 30
0.0
 10
221.8208676977995
 20
130.5277491371401
 30
0.0
 10
221.8025670637218
 20
130.5212450963814
 30
0.0
 10
221.8002437402709
 20
130.5204193878099
 30
0.0
  0
LINE
  5
2EF
330
1F
100
AcDbEntity
  8
0
  6
Continuous
 62
     7
370
    15
100
AcDbLine
 10
221.6297148516
 20
127.9754165399
 30
0.0
 11
221.6297148516
 21
127.967641859
 31
0.0
  0
LINE
  5
2F0
330
1F
100
AcDbEntity
  8
0
  6
Continuous
 62
     7
370
    15
100
AcDbLine
 10
221.338188534
 20
133.1641387033
 30
0.0
 11
221.338188534
 21
132.1641404021
 31
0.0
  0
LINE
  5
2F1
330
1F
100
AcDbEntity
  8
0
  6
Continuous
 62
     7
370
    15
100
AcDbLine
 10
221.338188534
 20
132.1641404021
 30
0.0
 11
220.1189904263
 21
132.1641404021
 31
0.0
  0
LINE
  5
2F2
330
1F
100
AcDbEntity
  8
0
  6
Continuous
 62
     7
370
    15
100
AcDbLine
 10
220.1189904263
 20
133.1641387033
 30
0.0
 11
220.1189904263
 21
132.1641404021
 31
0.0
  0
LINE
  5
2F3
330
1F
100
AcDbEntity
  8
0
  6
Continuous
 62
     7
370
    15
100
AcDbLine
 10
220.1189904263
 20
133.1641387033
 30
0.0
 11
221.338188534
 21
133.1641387033
 31
0.0
  0
LINE
  5
2F4
330
1F
100
AcDbEntity
  8
0
  6
Continuous
 62
     7
370
    15
100
AcDbLine
 10
221.338188534
 20
107.8926391739
 30
0.0
 11
221.338188534
 21
89.7141396373
 31
0.0
  0
LINE
  5
2F5
330
1F
100
AcDbEntity
  8
0
  6
Continuous
 62
     7
370
    15
100
AcDbLine
 10
220.1189904263
 20
89.7141396373
 30
0.0
 11
221.338188534
 21
89.7141396373
 31
0.0
  0
LINE
  5
2F6
330
1F
100
AcDbEntity
  8
0
  6
Continuous
 62
     7
370
    15
100
AcDbLine
 10
220.1189904263
 20
107.8926391739
 30
0.0
 11
220.1189904263
 21
89.7141396373
 31
0.0
  0
LINE
  5
2F7
330
1F
100
AcDbEntity
  8
0
  6
Continuous
 62
     7
370
    15
100
AcDbLine
 10
221.338188534
 20
107.8926391739
 30
0.0
 11
220.1189904263
 21
107.8926391739
 31
0.0
  0
LINE
  5
2F8
330
1F
100
AcDbEntity
  8
0
  6
Continuous
 62
     7
370
    15
100
AcDbLine
 10
221.338188534
 20
132.1641404021
 30
0.0
 11
221.338188534
 21
127.6926409292
 31
0.0
  0
LINE
  5
2F9
330
1F
100
AcDbEntity
  8
0
  6
Continuous
 62
     7
370
    15
100
AcDbLine
 10
220.1189904263
 20
127.6926409292
 30
0.0
 11
221.338188534
 21
127.6926409292
 31
0.0
  0
LINE
  5
2FA
330
1F
100
AcDbEntity
  8
0
  6
Continuous
 62
     7
370
    15
100
AcDbLine
 10
220.1189904263
 20
132.1641404021
 30
0.0
 11
220.1189904263
 21
127.6926409292
 31
0.0
  0
LINE
  5
2FB
330
1F
100
AcDbEntity
  8
0
  6
Continuous
 62
     7
370
    15
100
AcDbLine
 10
220.1189904263
 20
108.8926393378
 30
0.0
 11
220.1189904263
 21
107.8926391739
 31
0.0
  0
LINE
  5
2FC
330
1F
100
AcDbEntity
  8
0
  6
Continuous
 62
     7
370
    15
100
AcDbLine
 10
220.1189904263
 20
108.8926393378
 30
0.0
 11
221.338188534
 21
108.8926393378
 31
0.0
  0
LINE
  5
2FD
330
1F
100
AcDbEntity
  8
0
  6
Continuous
 62
     7
370
    15
100
AcDbLine
 10
221.338188534
 20
108.8926393378
 30
0.0
 11
221.338188534
 21
107.8926391739
 31
0.0
  0
LINE
  5
2FE
330
1F
100
AcDbEntity
  8
0
  6
Continuous
 62
     7
370
    15
100
AcDbLine
 10
221.338188534
 20
88.7141396189
 30
0.0
 11
220.1189904263
 21
88.7141396189
 31
0.0
  0
LINE
  5
2FF
330
1F
100
AcDbEntity
  8
0
  6
Continuous
 62
     7
370
    15
100
AcDbLine
 10
220.1189904263
 20
89.7141396373
 30
0.0
 11
220.1189904263
 21
88.7141396189
 31
0.0
  0
LINE
  5
300
330
1F
100
AcDbEntity
  8
0
  6
Continuous
 62
     7
370
    15
100
AcDbLine
 10
221.338188534
 20
89.7141396373
 30
0.0
 11
221.338188534
 21
88.7141396189
 31
0.0
  0
LINE
  5
301
330
1F
100
AcDbEntity
  8
0
  6
Continuous
 62
     7
370
    15
100
AcDbLine
 10
221.338188534
 20
126.6926389027
 30
0.0
 11
220.1189904263
 21
126.6926389027
 31
0.0
  0
LINE
  5
302
330
1F
100
AcDbEntity
  8
0
  6
Continuous
 62
     7
370
    15
100
AcDbLine
 10
220.1189904263
 20
127.6926409292
 30
0.0
 11
220.1189904263
 21
126.6926389027
 31
0.0
  0
LINE
  5
303
330
1F
100
AcDbEntity
  8
0
  6
Continuous
 62
     7
370
    15
100
AcDbLine
 10
221.338188534
 20
127.6926409292
 30
0.0
 11
221.338188534
 21
126.6926389027
 31
0.0
  0
LINE
  5
304
330
1F
100
AcDbEntity
  8
0
  6
Continuous
 62
     7
370
    15
100
AcDbLine
 10
219.7379975368
 20
89.0951396387
 30
0.0
 11
219.7379975368
 21
89.8719550415
 31
0.0
  0
LINE
  5
305
330
1F
100
AcDbEntity
  8
0
  6
Continuous
 62
     7
370
    15
100
AcDbLine
 10
220.1189904263
 20
89.7141396373
 30
0.0
 11
219.7379975368
 21
89.8719550415
 31
0.0
  0
LINE
  5
306
330
1F
100
AcDbEntity
  8
0
  6
Continuous
 62
     7
370
    15
100
AcDbLine
 10
219.7379975368
 20
89.0951396387
 30
0.0
 11
220.1189904263
 21
88.7141396189
 31
0.0
  0
LINE
  5
307
330
1F
100
AcDbEntity
  8
0
  6
Continuous
 62
     7
370
    15
100
AcDbLine
 10
220.1189904263
 20
132.1641404021
 30
0.0
 11
219.7379975368
 21
132.0063259292
 31
0.0
  0
LINE
  5
308
330
1F
100
AcDbEntity
  8
0
  6
Continuous
 62
     7
370
    15
100
AcDbLine
 10
219.7379975368
 20
132.0063259292
 30
0.0
 11
219.7379975368
 21
132.7831383634
 31
0.0
  0
LINE
  5
309
330
1F
100
AcDbEntity
  8
0
  6
Continuous
 62
     7
370
    15
100
AcDbLine
 10
220.1189904263
 20
133.1641387033
 30
0.0
 11
219.7379975368
 21
132.7831383634
 31
0.0
  0
LINE
  5
30A
330
1F
100
AcDbEntity
  8
0
  6
Continuous
 62
     7
370
    15
100
AcDbLine
 10
219.7379975368
 20
89.8719550415
 30
0.0
 11
219.7379975368
 21
107.7348247009
 31
0.0
  0
LINE
  5
30B
330
1F
100
AcDbEntity
  8
0
  6
Continuous
 62
     7
370
    15
100
AcDbLine
 10
220.1189904263
 20
107.8926391739
 30
0.0
 11
219.7379975368
 21
107.7348247009
 31
0.0
  0
LINE
  5
30C
330
1F
100
AcDbEntity
  8
0
  6
Continuous
 62
     7
370
    15
100
AcDbLine
 10
220.1189904263
 20
127.6926409292
 30
0.0
 11
219.7379975368
 21
127.8504554021
 31
0.0
  0
LINE
  5
30D
330
1F
100
AcDbEntity
  8
0
  6
Continuous
 62
     7
370
    15
100
AcDbLine
 10
219.7379975368
 20
127.8504554021
 30
0.0
 11
219.7379975368
 21
132.0063259292
 31
0.0
  0
LINE
  5
30E
330
1F
100
AcDbEntity
  8
0
  6
Continuous
 62
     7
370
    15
100
AcDbLine
 10
219.7379975368
 20
107.7348247009
 30
0.0
 11
219.7379975368
 21
108.5116389978
 31
0.0
  0
LINE
  5
30F
330
1F
100
AcDbEntity
  8
0
  6
Continuous
 62
     7
370
    15
100
AcDbLine
 10
220.1189904263
 20
108.8926393378
 30
0.0
 11
219.7379975368
 21
108.5116389978
 31
0.0
  0
LINE
  5
310
330
1F
100
AcDbEntity
  8
0
  6
Continuous
 62
     7
370
    15
100
AcDbLine
 10
220.1189904263
 20
126.6926389027
 30
0.0
 11
219.7379975368
 21
127.0736392426
 31
0.0
  0
LINE
  5
311
330
1F
100
AcDbEntity
  8
0
  6
Continuous
 62
     7
370
    15
100
AcDbLine
 10
219.7379975368
 20
127.0736392426
 30
0.0
 11
219.7379975368
 21
127.8504554021
 31
0.0
  0
LINE
  5
312
330
1F
100
AcDbEntity
  8
0
  6
Continuous
 62
     7
370
    15
100
AcDbLine
 10
220.1189904263
 20
112.8926399934
 30
0.0
 11
220.1189904263
 21
108.8926393378
 31
0.0
  0
LINE
  5
313
330
1F
100
AcDbEntity
  8
0
  6
Continuous
 62
     7
370
    15
100
AcDbLine
 10
221.338188534
 20
112.8926399934
 30
0.0
 11
220.1189904263
 21
112.8926399934
 31
0.0
  0
LINE
  5
314
330
1F
100
AcDbEntity
  8
0
  6
Continuous
 62
     7
370
    15
100
AcDbLine
 10
220.1189904263
 20
112.8926399934
 30
0.0
 11
219.7379975368
 21
112.7348236579
 31
0.0
  0
LINE
  5
315
330
1F
100
AcDbEntity
  8
0
  6
Continuous
 62
     7
370
    15
100
AcDbLine
 10
219.7379975368
 20
108.5116389978
 30
0.0
 11
219.7379975368
 21
112.7348236579
 31
0.0
  0
LINE
  5
316
330
1F
100
AcDbEntity
  8
0
  6
Continuous
 62
     7
370
    15
100
AcDbLine
 10
221.338188534
 20
122.692638247
 30
0.0
 11
220.1189904263
 21
122.692638247
 31
0.0
  0
LINE
  5
317
330
1F
100
AcDbEntity
  8
0
  6
Continuous
 62
     7
370
    15
100
AcDbLine
 10
220.1189904263
 20
126.6926389027
 30
0.0
 11
220.1189904263
 21
122.692638247
 31
0.0
  0
LINE
  5
318
330
1F
100
AcDbEntity
  8
0
  6
Continuous
 62
     7
370
    15
100
AcDbLine
 10
220.1189904263
 20
122.692638247
 30
0.0
 11
219.7379975368
 21
122.8504564452
 31
0.0
  0
LINE
  5
319
330
1F
100
AcDbEntity
  8
0
  6
Continuous
 62
     7
370
    15
100
AcDbLine
 10
219.7379975368
 20
122.8504564452
 30
0.0
 11
219.7379975368
 21
127.0736392426
 31
0.0
  0
LINE
  5
31A
330
1F
100
AcDbEntity
  8
0
  6
Continuous
 62
     7
370
    15
100
AcDbLine
 10
220.1189904263
 20
122.692638247
 30
0.0
 11
220.1189904263
 21
112.8926399934
 31
0.0
  0
LINE
  5
31B
330
1F
100
AcDbEntity
  8
0
  6
Continuous
 62
     7
370
    15
100
AcDbLine
 10
219.7379975368
 20
112.7348236579
 30
0.0
 11
219.7379975368
 21
122.8504564452
 31
0.0
  0
LINE
  5
31C
330
1F
100
AcDbEntity
  8
0
  6
Continuous
 62
     7
370
    15
100
AcDbLine
 10
214.9179934313
 20
104.9326389867
 30
0.0
 11
214.9179934313
 21
105.0326388168
 31
0.0
  0
LINE
  5
31D
330
1F
100
AcDbEntity
  8
0
  6
Continuous
 62
     7
370
    15
100
AcDbLine
 10
217.2679959585
 20
105.0326388168
 30
0.0
 11
214.9179934313
 21
105.0326388168
 31
0.0
  0
LINE
  5
31E
330
1F
100
AcDbEntity
  8
0
  6
Continuous
 62
     7
370
    15
100
AcDbLine
 10
217.2679959585
 20
104.9326389867
 30
0.0
 11
217.2679959585
 21
105.0326388168
 31
0.0
  0
LINE
  5
31F
330
1F
100
AcDbEntity
  8
0
  6
Continuous
 62
     7
370
    15
100
AcDbLine
 10
217.2679959585
 20
104.9326389867
 30
0.0
 11
214.9179934313
 21
104.9326389867
 31
0.0
  0
LINE
  5
320
330
1F
100
AcDbEntity
  8
0
  6
Continuous
 62
     7
370
    15
100
AcDbLine
 10
217.2679959585
 20
111.9526393551
 30
0.0
 11
217.2679959585
 21
111.8526395249
 31
0.0
  0
LINE
  5
321
330
1F
100
AcDbEntity
  8
0
  6
Continuous
 62
     7
370
    15
100
AcDbLine
 10
214.9179934313
 20
111.8526395249
 30
0.0
 11
217.2679959585
 21
111.8526395249
 31
0.0
  0
LINE
  5
322
330
1F
100
AcDbEntity
  8
0
  6
Continuous
 62
     7
370
    15
100
AcDbLine
 10
214.9179934313
 20
111.9526393551
 30
0.0
 11
214.9179934313
 21
111.8526395249
 31
0.0
  0
LINE
  5
323
330
1F
100
AcDbEntity
  8
0
  6
Continuous
 62
     7
370
    15
100
AcDbLine
 10
214.9179934313
 20
111.9526393551
 30
0.0
 11
217.2679959585
 21
111.9526393551
 31
0.0
  0
LINE
  5
324
330
1F
100
AcDbEntity
  8
0
  6
Continuous
 62
     7
370
    15
100
AcDbLine
 10
214.9179934313
 20
112.5526401985
 30
0.0
 11
214.9179934313
 21
112.6526400286
 31
0.0
  0
LINE
  5
325
330
1F
100
AcDbEntity
  8
0
  6
Continuous
 62
     7
370
    15
100
AcDbLine
 10
217.2679959585
 20
112.6526400286
 30
0.0
 11
214.9179934313
 21
112.6526400286
 31
0.0
  0
LINE
  5
326
330
1F
100
AcDbEntity
  8
0
  6
Continuous
 62
     7
370
    15
100
AcDbLine
 10
217.2679959585
 20
112.5526401985
 30
0.0
 11
217.2679959585
 21
112.6526400286
 31
0.0
  0
LINE
  5
327
330
1F
100
AcDbEntity
  8
0
  6
Continuous
 62
     7
370
    15
100
AcDbLine
 10
217.2679959585
 20
112.5526401985
 30
0.0
 11
214.9179934313
 21
112.5526401985
 31
0.0
  0
LINE
  5
328
330
1F
100
AcDbEntity
  8
0
  6
Continuous
 62
     7
370
    15
100
AcDbLine
 10
217.2679959585
 20
115.7626390296
 30
0.0
 11
217.2679959585
 21
115.6626391995
 31
0.0
  0
LINE
  5
329
330
1F
100
AcDbEntity
  8
0
  6
Continuous
 62
     7
370
    15
100
AcDbLine
 10
214.9179934313
 20
115.6626391995
 30
0.0
 11
217.2679959585
 21
115.6626391995
 31
0.0
  0
LINE
  5
32A
330
1F
100
AcDbEntity
  8
0
  6
Continuous
 62
     7
370
    15
100
AcDbLine
 10
214.9179934313
 20
115.7626390296
 30
0.0
 11
214.9179934313
 21
115.6626391995
 31
0.0
  0
LINE
  5
32B
330
1F
100
AcDbEntity
  8
0
  6
Continuous
 62
     7
370
    15
100
AcDbLine
 10
214.9179934313
 20
115.7626390296
 30
0.0
 11
217.2679959585
 21
115.7626390296
 31
0.0
  0
LINE
  5
32C
330
1F
100
AcDbEntity
  8
0
  6
Continuous
 62
     7
370
    15
100
AcDbLine
 10
214.9179934313
 20
101.1226393121
 30
0.0
 11
214.9179934313
 21
101.2226400736
 31
0.0
  0
LINE
  5
32D
330
1F
100
AcDbEntity
  8
0
  6
Continuous
 62
     7
370
    15
100
AcDbLine
 10
217.2679959585
 20
101.2226400736
 30
0.0
 11
214.9179934313
 21
101.2226400736
 31
0.0
  0
LINE
  5
32E
330
1F
100
AcDbEntity
  8
0
  6
Continuous
 62
     7
370
    15
100
AcDbLine
 10
217.2679959585
 20
101.1226393121
 30
0.0
 11
214.9179934313
 21
101.1226393121
 31
0.0
  0
LINE
  5
32F
330
1F
100
AcDbEntity
  8
0
  6
Continuous
 62
     7
370
    15
100
AcDbLine
 10
217.2679959585
 20
101.1226393121
 30
0.0
 11
217.2679959585
 21
101.2226400736
 31
0.0
  0
LINE
  5
330
330
1F
100
AcDbEntity
  8
0
  6
Continuous
 62
     7
370
    15
100
AcDbLine
 10
214.9179934313
 20
104.2326401758
 30
0.0
 11
217.2679959585
 21
104.2326401758
 31
0.0
  0
LINE
  5
331
330
1F
100
AcDbEntity
  8
0
  6
Continuous
 62
     7
370
    15
100
AcDbLine
 10
214.9179934313
 20
104.3326400059
 30
0.0
 11
214.9179934313
 21
104.2326401758
 31
0.0
  0
LINE
  5
332
330
1F
100
AcDbEntity
  8
0
  6
Continuous
 62
     7
370
    15
100
AcDbLine
 10
214.9179934313
 20
104.3326400059
 30
0.0
 11
217.2679959585
 21
104.3326400059
 31
0.0
  0
LINE
  5
333
330
1F
100
AcDbEntity
  8
0
  6
Continuous
 62
     7
370
    15
100
AcDbLine
 10
217.2679959585
 20
104.3326400059
 30
0.0
 11
217.2679959585
 21
104.2326401758
 31
0.0
  0
LINE
  5
334
330
1F
100
AcDbEntity
  8
0
  6
Continuous
 62
     7
370
    15
100
AcDbLine
 10
214.9179934313
 20
116.362639873
 30
0.0
 11
214.9179934313
 21
116.4626397031
 31
0.0
  0
LINE
  5
335
330
1F
100
AcDbEntity
  8
0
  6
Continuous
 62
     7
370
    15
100
AcDbLine
 10
217.2679959585
 20
116.4626397031
 30
0.0
 11
214.9179934313
 21
116.4626397031
 31
0.0
  0
LINE
  5
336
330
1F
100
AcDbEntity
  8
0
  6
Continuous
 62
     7
370
    15
100
AcDbLine
 10
217.2679959585
 20
116.362639873
 30
0.0
 11
217.2679959585
 21
116.4626397031
 31
0.0
  0
LINE
  5
337
330
1F
100
AcDbEntity
  8
0
  6
Continuous
 62
     7
370
    15
100
AcDbLine
 10
217.2679959585
 20
116.362639873
 30
0.0
 11
214.9179934313
 21
116.362639873
 31
0.0
  0
LINE
  5
338
330
1F
100
AcDbEntity
  8
0
  6
Continuous
 62
     7
370
    15
100
AcDbLine
 10
214.9179934313
 20
108.0426398504
 30
0.0
 11
217.2679959585
 21
108.0426398504
 31
0.0
  0
LINE
  5
339
330
1F
100
AcDbEntity
  8
0
  6
Continuous
 62
     7
370
    15
100
AcDbLine
 10
214.9179934313
 20
108.1426396805
 30
0.0
 11
214.9179934313
 21
108.0426398504
 31
0.0
  0
LINE
  5
33A
330
1F
100
AcDbEntity
  8
0
  6
Continuous
 62
     7
370
    15
100
AcDbLine
 10
214.9179934313
 20
108.1426396805
 30
0.0
 11
217.2679959585
 21
108.1426396805
 31
0.0
  0
LINE
  5
33B
330
1F
100
AcDbEntity
  8
0
  6
Continuous
 62
     7
370
    15
100
AcDbLine
 10
217.2679959585
 20
108.1426396805
 30
0.0
 11
217.2679959585
 21
108.0426398504
 31
0.0
  0
LINE
  5
33C
330
1F
100
AcDbEntity
  8
0
  6
Continuous
 62
     7
370
    15
100
AcDbLine
 10
214.9179934313
 20
100.4226395699
 30
0.0
 11
217.2679959585
 21
100.4226395699
 31
0.0
  0
LINE
  5
33D
330
1F
100
AcDbEntity
  8
0
  6
Continuous
 62
     7
370
    15
100
AcDbLine
 10
214.9179934313
 20
100.5226394001
 30
0.0
 11
214.9179934313
 21
100.4226395699
 31
0.0
  0
LINE
  5
33E
330
1F
100
AcDbEntity
  8
0
  6
Continuous
 62
     7
370
    15
100
AcDbLine
 10
214.9179934313
 20
100.5226394001
 30
0.0
 11
217.2679959585
 21
100.5226394001
 31
0.0
  0
LINE
  5
33F
330
1F
100
AcDbEntity
  8
0
  6
Continuous
 62
     7
370
    15
100
AcDbLine
 10
217.2679959585
 20
100.5226394001
 30
0.0
 11
217.2679959585
 21
100.4226395699
 31
0.0
  0
LINE
  5
340
330
1F
100
AcDbEntity
  8
0
  6
Continuous
 62
     7
370
    15
100
AcDbLine
 10
214.9179934313
 20
108.7426405239
 30
0.0
 11
214.9179934313
 21
108.842640354
 31
0.0
  0
LINE
  5
341
330
1F
100
AcDbEntity
  8
0
  6
Continuous
 62
     7
370
    15
100
AcDbLine
 10
217.2679959585
 20
108.842640354
 30
0.0
 11
214.9179934313
 21
108.842640354
 31
0.0
  0
LINE
  5
342
330
1F
100
AcDbEntity
  8
0
  6
Continuous
 62
     7
370
    15
100
AcDbLine
 10
217.2679959585
 20
108.7426405239
 30
0.0
 11
214.9179934313
 21
108.7426405239
 31
0.0
  0
LINE
  5
343
330
1F
100
AcDbEntity
  8
0
  6
Continuous
 62
     7
370
    15
100
AcDbLine
 10
217.2679959585
 20
108.7426405239
 30
0.0
 11
217.2679959585
 21
108.842640354
 31
0.0
  0
LINE
  5
344
330
1F
100
AcDbEntity
  8
0
  6
Continuous
 62
     7
370
    15
100
AcDbLine
 10
214.9179934313
 20
115.7626390296
 30
0.0
 11
214.9179934313
 21
116.362639873
 31
0.0
  0
LINE
  5
345
330
1F
100
AcDbEntity
  8
0
  6
Continuous
 62
     7
370
    15
100
AcDbLine
 10
217.2679959585
 20
116.362639873
 30
0.0
 11
217.2679959585
 21
115.7626390296
 31
0.0
  0
LINE
  5
346
330
1F
100
AcDbEntity
  8
0
  6
Continuous
 62
     7
370
    15
100
AcDbLine
 10
214.9179934313
 20
104.3326400059
 30
0.0
 11
214.9179934313
 21
104.9326389867
 31
0.0
  0
LINE
  5
347
330
1F
100
AcDbEntity
  8
0
  6
Continuous
 62
     7
370
    15
100
AcDbLine
 10
217.2679959585
 20
104.9326389867
 30
0.0
 11
217.2679959585
 21
104.3326400059
 31
0.0
  0
LINE
  5
348
330
1F
100
AcDbEntity
  8
0
  6
Continuous
 62
     7
370
    15
100
AcDbLine
 10
214.9179934313
 20
111.9526393551
 30
0.0
 11
214.9179934313
 21
112.5526401985
 31
0.0
  0
LINE
  5
349
330
1F
100
AcDbEntity
  8
0
  6
Continuous
 62
     7
370
    15
100
AcDbLine
 10
217.2679959585
 20
112.5526401985
 30
0.0
 11
217.2679959585
 21
111.9526393551
 31
0.0
  0
LINE
  5
34A
330
1F
100
AcDbEntity
  8
0
  6
Continuous
 62
     7
370
    15
100
AcDbLine
 10
214.9179934313
 20
100.5226394001
 30
0.0
 11
214.9179934313
 21
101.1226393121
 31
0.0
  0
LINE
  5
34B
330
1F
100
AcDbEntity
  8
0
  6
Continuous
 62
     7
370
    15
100
AcDbLine
 10
217.2679959585
 20
101.1226393121
 30
0.0
 11
217.2679959585
 21
100.5226394001
 31
0.0
  0
LINE
  5
34C
330
1F
100
AcDbEntity
  8
0
  6
Continuous
 62
     7
370
    15
100
AcDbLine
 10
214.9179934313
 20
108.1426396805
 30
0.0
 11
214.9179934313
 21
108.7426405239
 31
0.0
  0
LINE
  5
34D
330
1F
100
AcDbEntity
  8
0
  6
Continuous
 62
     7
370
    15
100
AcDbLine
 10
217.2679959585
 20
108.7426405239
 30
0.0
 11
217.2679959585
 21
108.1426396805
 31
0.0
  0
LINE
  5
34E
330
1F
100
AcDbEntity
  8
0
  6
Continuous
 62
     7
370
    15
100
AcDbLine
 10
214.6679966499
 20
117.4626398671
 30
0.0
 11
214.6679966499
 21
114.6626390356
 31
0.0
  0
LINE
  5
34F
330
1F
100
AcDbEntity
  8
0
  6
Continuous
 62
     7
370
    15
100
AcDbLine
 10
219.7379975368
 20
114.6050255585
 30
0.0
 11
214.6679966499
 21
114.6626390356
 31
0.0
  0
LINE
  5
350
330
1F
100
AcDbEntity
  8
0
  6
Continuous
 62
     7
370
    15
100
AcDbLine
 10
219.7379975368
 20
117.5202533442
 30
0.0
 11
214.6679966499
 21
117.4626398671
 31
0.0
  0
LINE
  5
351
330
1F
100
AcDbEntity
  8
0
  6
Continuous
 62
     7
370
    15
100
AcDbLine
 10
214.6679966499
 20
109.8426405179
 30
0.0
 11
214.6679966499
 21
107.0426396865
 31
0.0
  0
LINE
  5
352
330
1F
100
AcDbEntity
  8
0
  6
Continuous
 62
     7
370
    15
100
AcDbLine
 10
219.7379975368
 20
109.9002539951
 30
0.0
 11
214.6679966499
 21
109.8426405179
 31
0.0
  0
LINE
  5
353
330
1F
100
AcDbEntity
  8
0
  6
Continuous
 62
     7
370
    15
100
AcDbLine
 10
219.7379975368
 20
106.9850262093
 30
0.0
 11
214.6679966499
 21
107.0426396865
 31
0.0
  0
LINE
  5
354
330
1F
100
AcDbEntity
  8
0
  6
Continuous
 62
     7
370
    15
100
AcDbLine
 10
214.6679966499
 20
99.422639406
 30
0.0
 11
214.6679966499
 21
102.2226393062
 31
0.0
  0
LINE
  5
355
330
1F
100
AcDbEntity
  8
0
  6
Continuous
 62
     7
370
    15
100
AcDbLine
 10
214.6679966499
 20
99.422639406
 30
0.0
 11
219.7379975368
 21
99.3650259289
 31
0.0
  0
LINE
  5
356
330
1F
100
AcDbEntity
  8
0
  6
Continuous
 62
     7
370
    15
100
AcDbLine
 10
219.7379975368
 20
102.2802537146
 30
0.0
 11
214.6679966499
 21
102.2226393062
 31
0.0
  0
LINE
  5
357
330
1F
100
AcDbEntity
  8
0
  6
Continuous
 62
     7
370
    15
100
AcDbLine
 10
214.6679966499
 20
110.852639361
 30
0.0
 11
214.6679966499
 21
113.6526401925
 31
0.0
  0
LINE
  5
358
330
1F
100
AcDbEntity
  8
0
  6
Continuous
 62
     7
370
    15
100
AcDbLine
 10
219.7379975368
 20
113.7102536696
 30
0.0
 11
214.6679966499
 21
113.6526401925
 31
0.0
  0
LINE
  5
359
330
1F
100
AcDbEntity
  8
0
  6
Continuous
 62
     7
370
    15
100
AcDbLine
 10
219.7379975368
 20
110.7950258839
 30
0.0
 11
214.6679966499
 21
110.852639361
 31
0.0
  0
LINE
  5
35A
330
1F
100
AcDbEntity
  8
0
  6
Continuous
 62
     7
370
    15
100
AcDbLine
 10
214.6679966499
 20
103.2326400119
 30
0.0
 11
214.6679966499
 21
106.0326389807
 31
0.0
  0
LINE
  5
35B
330
1F
100
AcDbEntity
  8
0
  6
Continuous
 62
     7
370
    15
100
AcDbLine
 10
219.7379975368
 20
106.0902524578
 30
0.0
 11
214.6679966499
 21
106.0326389807
 31
0.0
  0
LINE
  5
35C
330
1F
100
AcDbEntity
  8
0
  6
Continuous
 62
     7
370
    15
100
AcDbLine
 10
219.7379975368
 20
103.1750256035
 30
0.0
 11
214.6679966499
 21
103.2326400119
 31
0.0
  0
LINE
  5
35D
330
1F
100
AcDbEntity
  8
0
  6
Continuous
 62
     7
370
    15
100
AcDbLine
 10
222.8381990244
 20
112.8926399934
 30
0.0
 11
372.6981936743
 21
112.8926399934
 31
0.0
  0
LINE
  5
35E
330
1F
100
AcDbEntity
  8
0
  6
Continuous
 62
     7
370
    15
100
AcDbLine
 10
222.8381990244
 20
112.8926399934
 30
0.0
 11
222.8381990244
 21
113.6426396507
 31
0.0
  0
LINE
  5
35F
330
1F
100
AcDbEntity
  8
0
  6
Continuous
 62
     7
370
    15
100
AcDbLine
 10
372.6981936743
 20
112.8926399934
 30
0.0
 11
372.6981936743
 21
113.6426396507
 31
0.0
  0
LINE
  5
360
330
1F
100
AcDbEntity
  8
0
  6
Continuous
 62
     7
370
    15
100
AcDbLine
 10
222.8381990244
 20
94.8242095138
 30
0.0
 11
372.6981936743
 21
94.8242095138
 31
0.0
  0
LINE
  5
361
330
1F
100
AcDbEntity
  8
0
  6
Continuous
 62
     7
370
    15
100
AcDbLine
 10
222.8381990244
 20
122.692638247
 30
0.0
 11
222.8381990244
 21
121.9426404524
 31
0.0
  0
LINE
  5
362
330
1F
100
AcDbEntity
  8
0
  6
Continuous
 62
     7
370
    15
100
AcDbLine
 10
222.8381990244
 20
122.692638247
 30
0.0
 11
372.6981936743
 21
122.692638247
 31
0.0
  0
LINE
  5
363
330
1F
100
AcDbEntity
  8
0
  6
Continuous
 62
     7
370
    15
100
AcDbLine
 10
372.6981936743
 20
122.692638247
 30
0.0
 11
372.6981936743
 21
121.9426404524
 31
0.0
  0
LINE
  5
364
330
1F
100
AcDbEntity
  8
0
  6
Continuous
 62
     7
370
    15
100
AcDbLine
 10
222.8381990244
 20
107.3926400232
 30
0.0
 11
372.6981936743
 21
107.3926400232
 31
0.0
  0
LINE
  5
365
330
1F
100
AcDbEntity
  8
0
  6
Continuous
 62
     7
370
    15
100
AcDbLine
 10
222.8381990244
 20
109.1426398444
 30
0.0
 11
222.8381990244
 21
107.3926400232
 31
0.0
  0
LINE
  5
366
330
1F
100
AcDbEntity
  8
0
  6
Continuous
 62
     7
370
    15
100
AcDbLine
 10
222.8381990244
 20
109.1426398444
 30
0.0
 11
372.6981936743
 21
109.1426398444
 31
0.0
  0
LINE
  5
367
330
1F
100
AcDbEntity
  8
0
  6
Continuous
 62
     7
370
    15
100
AcDbLine
 10
372.6981936743
 20
109.1426398444
 30
0.0
 11
372.6981936743
 21
107.3926400232
 31
0.0
  0
LINE
  5
368
330
1F
100
AcDbEntity
  8
0
  6
Continuous
 62
     7
370
    15
100
AcDbLine
 10
222.8381990244
 20
112.8926399934
 30
0.0
 11
222.8381990244
 21
109.1426398444
 31
0.0
  0
LINE
  5
369
330
1F
100
AcDbEntity
  8
0
  6
Continuous
 62
     7
370
    15
100
AcDbLine
 10
372.6981936743
 20
112.8926399934
 30
0.0
 11
372.6981936743
 21
109.1426398444
 31
0.0
  0
LINE
  5
36A
330
1F
100
AcDbEntity
  8
0
  6
Continuous
 62
     7
370
    15
100
AcDbLine
 10
222.8381990244
 20
103.8926394495
 30
0.0
 11
372.6981936743
 21
103.8926394495
 31
0.0
  0
LINE
  5
36B
330
1F
100
AcDbEntity
  8
0
  6
Continuous
 62
     7
370
    15
100
AcDbLine
 10
222.8381990244
 20
103.8926394495
 30
0.0
 11
222.8381990244
 21
105.3926396954
 31
0.0
  0
LINE
  5
36C
330
1F
100
AcDbEntity
  8
0
  6
Continuous
 62
     7
370
    15
100
AcDbLine
 10
222.8381990244
 20
105.3926396954
 30
0.0
 11
372.6981936743
 21
105.3926396954
 31
0.0
  0
LINE
  5
36D
330
1F
100
AcDbEntity
  8
0
  6
Continuous
 62
     7
370
    15
100
AcDbLine
 10
372.6981936743
 20
103.8926394495
 30
0.0
 11
372.6981936743
 21
105.3926396954
 31
0.0
  0
LINE
  5
36E
330
1F
100
AcDbEntity
  8
0
  6
Continuous
 62
     7
370
    15
100
AcDbLine
 10
222.8381990244
 20
132.6926398861
 30
0.0
 11
372.6981936743
 21
132.6926398861
 31
0.0
  0
LINE
  5
36F
330
1F
100
AcDbEntity
  8
0
  6
Continuous
 62
     7
370
    15
100
AcDbLine
 10
222.8381990244
 20
133.4426414061
 30
0.0
 11
222.8381990244
 21
132.6926398861
 31
0.0
  0
LINE
  5
370
330
1F
100
AcDbEntity
  8
0
  6
Continuous
 62
     7
370
    15
100
AcDbLine
 10
372.6981936743
 20
133.4426414061
 30
0.0
 11
372.6981936743
 21
132.6926398861
 31
0.0
  0
LINE
  5
371
330
1F
100
AcDbEntity
  8
0
  6
Continuous
 62
     7
370
    15
100
AcDbLine
 10
222.8381990244
 20
132.6926398861
 30
0.0
 11
222.8381990244
 21
122.692638247
 31
0.0
  0
LINE
  5
372
330
1F
100
AcDbEntity
  8
0
  6
Continuous
 62
     7
370
    15
100
AcDbLine
 10
372.6981936743
 20
132.6926398861
 30
0.0
 11
372.6981936743
 21
122.692638247
 31
0.0
  0
LINE
  5
373
330
1F
100
AcDbEntity
  8
0
  6
Continuous
 62
     7
370
    15
100
AcDbLine
 10
222.8381990244
 20
100.6426393825
 30
0.0
 11
372.6981936743
 21
100.6426393825
 31
0.0
  0
LINE
  5
374
330
1F
100
AcDbEntity
  8
0
  6
Continuous
 62
     7
370
    15
100
AcDbLine
 10
222.8381990244
 20
100.6426393825
 30
0.0
 11
222.8381990244
 21
102.1426396283
 31
0.0
  0
LINE
  5
375
330
1F
100
AcDbEntity
  8
0
  6
Continuous
 62
     7
370
    15
100
AcDbLine
 10
222.8381990244
 20
102.1426396283
 30
0.0
 11
372.6981936743
 21
102.1426396283
 31
0.0
  0
LINE
  5
376
330
1F
100
AcDbEntity
  8
0
  6
Continuous
 62
     7
370
    15
100
AcDbLine
 10
372.6981936743
 20
100.6426393825
 30
0.0
 11
372.6981936743
 21
102.1426396283
 31
0.0
  0
LINE
  5
377
330
1F
100
AcDbEntity
  8
0
  6
Continuous
 62
     7
370
    15
100
AcDbLine
 10
222.8381990244
 20
97.3926393154
 30
0.0
 11
372.6981936743
 21
97.3926393154
 31
0.0
  0
LINE
  5
378
330
1F
100
AcDbEntity
  8
0
  6
Continuous
 62
     7
370
    15
100
AcDbLine
 10
222.8381990244
 20
97.3926393154
 30
0.0
 11
222.8381990244
 21
98.8926395613
 31
0.0
  0
LINE
  5
379
330
1F
100
AcDbEntity
  8
0
  6
Continuous
 62
     7
370
    15
100
AcDbLine
 10
222.8381990244
 20
98.8926395613
 30
0.0
 11
372.6981936743
 21
98.8926395613
 31
0.0
  0
LINE
  5
37A
330
1F
100
AcDbEntity
  8
0
  6
Continuous
 62
     7
370
    15
100
AcDbLine
 10
372.6981936743
 20
97.3926393154
 30
0.0
 11
372.6981936743
 21
98.8926395613
 31
0.0
  0
LINE
  5
37B
330
1F
100
AcDbEntity
  8
0
  6
Continuous
 62
     7
370
    15
100
AcDbLine
 10
222.8381990244
 20
96.0843825552
 30
0.0
 11
372.6981936743
 21
96.0843825552
 31
0.0
  0
LINE
  5
37C
330
1F
100
AcDbEntity
  8
0
  6
Continuous
 62
     7
370
    15
100
AcDbLine
 10
222.8381990244
 20
96.3008889767
 30
0.0
 11
372.6981936743
 21
96.3008889767
 31
0.0
  0
LINE
  5
37D
330
1F
100
AcDbEntity
  8
0
  6
Continuous
 62
     7
370
    15
100
AcDbLine
 10
222.8381990244
 20
96.0843825552
 30
0.0
 11
222.8381990244
 21
96.3008889767
 31
0.0
  0
LINE
  5
37E
330
1F
100
AcDbEntity
  8
0
  6
Continuous
 62
     7
370
    15
100
AcDbLine
 10
372.6981936743
 20
96.0843825552
 30
0.0
 11
372.6981936743
 21
96.3008889767
 31
0.0
  0
LINE
  5
37F
330
1F
100
AcDbEntity
  8
0
  6
Continuous
 62
     7
370
    15
100
AcDbLine
 10
222.8381990244
 20
88.4426396179
 30
0.0
 11
372.6981936743
 21
88.4426396179
 31
0.0
  0
LINE
  5
380
330
1F
100
AcDbEntity
  8
0
  6
Continuous
 62
   216
370
    15
100
AcDbLine
 10
374.1981936873
 20
94.8242095138
 30
0.0
 11
372.6981936743
 21
94.8242095138
 31
0.0
  0
LINE
  5
381
330
1F
100
AcDbEntity
  8
0
  6
Continuous
 62
   216
370
    15
100
AcDbLine
 10
374.1981936873
 20
89.8592728728
 30
0.0
 11
372.6981936743
 21
89.8592728728
 31
0.0
  0
LINE
  5
382
330
1F
100
AcDbEntity
  8
0
  6
Continuous
 62
   216
370
    15
100
AcDbLine
 10
221.6297148516
 20
130.6556884038
 30
0.0
 11
221.6297148516
 21
128.5084832299
 31
0.0
  0
LINE
  5
383
330
1F
100
AcDbEntity
  8
0
  6
Continuous
 62
   216
370
    15
100
AcDbLine
 10
222.8381990244
 20
129.5941967356
 30
0.0
 11
222.5028483917
 21
129.6862896371
 31
0.0
  0
DIMENSION
  5
384
330
1F
100
AcDbEntity
  8
FORMAT
100
AcDbDimension
  2
*D11
 10
222.8381936743
 20
145.4426396179
 30
0.0
 11
297.7681936743
 21
145.4426396179
 31
0.0
 70
   160
  1
<> ACTIVE LENGTH
 71
     2
 42
-1.0
  3
SLDDIMSTYLE0
100
AcDbAlignedDimension
 13
372.6981936743
 23
133.4426396179
 33
0.0
 14
222.8381936743
 24
133.4426396179
 34
0.0
100
AcDbRotatedDimension
  0
DIMENSION
  5
38F
330
1F
100
AcDbEntity
  8
FORMAT
100
AcDbDimension
  2
*D12
 10
375.7983936743
 20
155.4426396179
 30
0.0
 11
297.7681936743
 21
155.4426396179
 31
0.0
 70
   160
 71
     2
 42
-1.0
  3
SLDDIMSTYLE0
100
AcDbAlignedDimension
 13
219.7379936743
 23
127.0736396179
 33
0.0
 14
375.7983936743
 24
127.0736396179
 34
0.0
 50
0.0
100
AcDbRotatedDimension
  0
DIMENSION
  5
399
330
1F
100
AcDbEntity
  8
FORMAT
100
AcDbDimension
  2
*D13
 10
214.6679936743
 20
165.4426396179
 30
0.0
 11
298.5292252727
 21
165.4426396179
 31
0.0
 70
   160
 71
     2
 42
-1.0
  3
SLDDIMSTYLE0
100
AcDbAlignedDimension
 13
375.7983936743
 23
127.0736396179
 33
0.0
 14
214.6679936743
 24
117.4626396179
 34
0.0
 50
0.0
100
AcDbRotatedDimension
  0
LINE
  5
3A3
330
1F
100
AcDbEntity
  8
0
  6
Continuous
 62
     7
370
    15
100
AcDbLine
 10
204.2375623992
 20
195.06340418
 30
0.0
 11
205.672625858
 21
195.4195398407
 31
0.0
  0
LINE
  5
3A4
330
1F
100
AcDbEntity
  8
0
  6
Continuous
 62
     7
370
    15
100
AcDbLine
 10
59.7661185878
 20
159.2103324714
 30
0.0
 11
60.8651621386
 21
159.483079017
 31
0.0
  0
LINE
  5
3A5
330
1F
100
AcDbEntity
  8
0
  6
Continuous
 62
     7
370
    15
100
AcDbLine
 10
57.6511331519
 20
161.0133181916
 30
0.0
 11
57.6337977653
 21
161.0090161175
 31
0.0
  0
LINE
  5
3A6
330
1F
100
AcDbEntity
  8
0
  6
Continuous
 62
     7
370
    15
100
AcDbLine
 10
57.3521280547
 20
162.0393346793
 30
0.0
 11
57.3921305998
 21
162.0492619984
 31
0.0
  0
LINE
  5
3A7
330
1F
100
AcDbEntity
  8
0
  6
Continuous
 62
     7
370
    15
100
AcDbLine
 10
57.6160369556
 20
160.9155107534
 30
0.0
 11
57.4848953264
 21
160.8829657043
 31
0.0
  0
LINE
  5
3A8
330
1F
100
AcDbEntity
  8
0
  6
Continuous
 62
     7
370
    15
100
AcDbLine
 10
57.2032256158
 20
161.913284266
 30
0.0
 11
57.4258627311
 21
161.9685354925
 31
0.0
  0
LINE
  5
3A9
330
1F
100
AcDbEntity
  8
0
  6
Continuous
 62
     7
370
    15
100
AcDbLine
 10
37.5930553556
 20
222.1080909122
 30
0.0
 11
37.575719969
 21
222.103788838
 31
0.0
  0
LINE
  5
3AA
330
1F
100
AcDbEntity
  8
0
  6
Continuous
 62
     7
370
    15
100
AcDbLine
 10
37.2940504074
 20
223.1341062486
 30
0.0
 11
37.3340529524
 21
223.1440335677
 31
0.0
  0
LINE
  5
3AB
330
1F
100
AcDbEntity
  8
0
  6
Continuous
 62
     7
370
    15
100
AcDbLine
 10
37.5579591594
 20
222.0102834739
 30
0.0
 11
37.4268175301
 21
221.9777384248
 31
0.0
  0
LINE
  5
3AC
330
1F
100
AcDbEntity
  8
0
  6
Continuous
 62
     7
370
    15
100
AcDbLine
 10
37.1451479684
 20
223.0080558354
 30
0.0
 11
37.3677850838
 21
223.0633070618
 31
0.0
  0
SPLINE
  5
3AD
330
1F
100
AcDbEntity
  8
0
  6
Continuous
 62
     7
370
    15
100
AcDbSpline
210
0.0
220
0.0
230
1.0
 70
     8
 71
     3
 72
     9
 73
     5
 74
     0
 42
0.00000001
 43
0.00000001
 40
0.0
 40
0.0
 40
0.0
 40
0.0
 40
0.5568872255560509
 40
1.0
 40
1.0
 40
1.0
 40
1.0
 10
55.93342936286754
 20
193.3138867967461
 30
0.0
 10
55.86457185203851
 20
193.3844882474117
 30
0.0
 10
55.74092471547461
 20
193.5112669692529
 30
0.0
 10
55.61008979882838
 20
193.6503205444711
 30
0.0
 10
55.55211517591908
 20
193.7119369599824
 30
0.0
  0
LINE
  5
3AE
330
1F
100
AcDbEntity
  8
0
  6
Continuous
 62
     7
370
    15
100
AcDbLine
 10
55.9856356798
 20
193.2599711971
 30
0.0
 11
55.9334293629
 21
193.3138867967
 31
0.0
  0
SPLINE
  5
3AF
330
1F
100
AcDbEntity
  8
0
  6
Continuous
 62
     7
370
    15
100
AcDbSpline
210
0.0
220
0.0
230
1.0
 70
     8
 71
     3
 72
     9
 73
     5
 74
     0
 42
0.00000001
 43
0.00000001
 40
0.0
 40
0.0
 40
0.0
 40
0.0
 40
0.2825894573317722
 40
1.0
 40
1.0
 40
1.0
 40
1.0
 10
55.97768609001579
 20
193.6494197959675
 30
0.0
 10
55.97176264113875
 20
193.6279487293246
 30
0.0
 10
55.95080131818995
 20
193.5519690135716
 30
0.0
 10
55.92999372075895
 20
193.4819036117584
 30
0.0
 10
55.91506613099438
 20
193.4316379538214
 30
0.0
  0
SPLINE
  5
3B0
330
1F
100
AcDbEntity
  8
0
  6
Continuous
 62
     7
370
    15
100
AcDbSpline
210
0.0
220
0.0
230
1.0
 70
     8
 71
     3
 72
     9
 73
     5
 74
     0
 42
0.00000001
 43
0.00000001
 40
0.0
 40
0.0
 40
0.0
 40
0.0
 40
0.6230173325424511
 40
1.0
 40
1.0
 40
1.0
 40
1.0
 10
55.82297144583769
 20
191.6632851993784
 30
0.0
 10
55.91742805035143
 20
191.5654558473051
 30
0.0
 10
56.06903956993507
 20
191.4084307583337
 30
0.0
 10
56.20677300766906
 20
191.2613031229189
 30
0.0
 10
56.25869612642405
 20
191.2058385544636
 30
0.0
  0
LINE
  5
3B1
330
1F
100
AcDbEntity
  8
0
  6
Continuous
 62
     7
370
    15
100
AcDbLine
 10
56.5748605096
 20
191.2955409488
 30
0.0
 11
56.5883361462
 21
191.3448417907
 31
0.0
  0
SPLINE
  5
3B2
330
1F
100
AcDbEntity
  8
0
  6
Continuous
 62
     7
370
    15
100
AcDbSpline
210
0.0
220
0.0
230
1.0
 70
     8
 71
     3
 72
     9
 73
     5
 74
     0
 42
0.00000001
 43
0.00000001
 40
0.0
 40
0.0
 40
0.0
 40
0.0
 40
0.9314884207553832
 40
1.0
 40
1.0
 40
1.0
 40
1.0
 10
55.60356588494099
 20
191.3883903892353
 30
0.0
 10
55.6757249825202
 20
191.4744751327929
 30
0.0
 10
55.75319142866316
 20
191.5668914652341
 30
0.0
 10
55.8656713025381
 20
191.6073160795025
 30
0.0
 10
55.87337747633052
 20
191.6100856336665
 30
0.0
  0
LINE
  5
3B3
330
1F
100
AcDbEntity
  8
0
  6
Continuous
 62
     7
370
    15
100
AcDbLine
 10
56.2690158433
 20
191.1990928018
 30
0.0
 11
56.5638884881
 21
191.2722705163
 31
0.0
  0
LINE
  5
3B4
330
1F
100
AcDbEntity
  8
0
  6
Continuous
 62
     7
370
    15
100
AcDbLine
 10
56.0266556262
 20
193.4593313539
 30
0.0
 11
55.8286957758
 21
193.4102042148
 31
0.0
  0
LINE
  5
3B5
330
1F
100
AcDbEntity
  8
0
  6
Continuous
 62
     7
370
    15
100
AcDbLine
 10
53.7069705445
 20
191.5030450782
 30
0.0
 11
53.689635158
 21
191.498743004
 31
0.0
  0
LINE
  5
3B6
330
1F
100
AcDbEntity
  8
0
  6
Continuous
 62
     7
370
    15
100
AcDbLine
 10
53.4079655963
 20
192.5290604146
 30
0.0
 11
53.4479681413
 21
192.5389877337
 31
0.0
  0
LINE
  5
3B7
330
1F
100
AcDbEntity
  8
0
  6
Continuous
 62
     7
370
    15
100
AcDbLine
 10
53.6718743483
 20
191.4052376399
 30
0.0
 11
53.540732719
 21
191.3726925908
 31
0.0
  0
LINE
  5
3B8
330
1F
100
AcDbEntity
  8
0
  6
Continuous
 62
     7
370
    15
100
AcDbLine
 10
53.2590631574
 20
192.4030100014
 30
0.0
 11
53.4817002727
 21
192.4582612278
 31
0.0
  0
LINE
  5
3B9
330
1F
100
AcDbEntity
  8
0
  6
Continuous
 62
     7
370
    15
100
AcDbLine
 10
38.816214039
 20
200.94351046
 30
0.0
 11
41.0644825227
 21
201.5014569237
 31
0.0
  0
LINE
  5
3BA
330
1F
100
AcDbEntity
  8
0
  6
Continuous
 62
     7
370
    15
100
AcDbLine
 10
39.2223563523
 20
197.8038913716
 30
0.0
 11
41.4706248361
 21
198.3618378352
 31
0.0
  0
LINE
  5
3BB
330
1F
100
AcDbEntity
  8
0
  6
Continuous
 62
     7
370
    15
100
AcDbLine
 10
39.628498467
 20
194.6642738181
 30
0.0
 11
41.8767669508
 21
195.2222202817
 31
0.0
  0
LINE
  5
3BC
330
1F
100
AcDbEntity
  8
0
  6
Continuous
 62
     7
370
    15
100
AcDbLine
 10
40.0346405818
 20
191.5246562646
 30
0.0
 11
42.2829090656
 21
192.0826027282
 31
0.0
  0
LINE
  5
3BD
330
1F
100
AcDbEntity
  8
0
  6
Continuous
 62
     7
370
    15
100
AcDbLine
 10
40.4407826966
 20
188.3850387111
 30
0.0
 11
42.6890511803
 21
188.9429851747
 31
0.0
  0
LINE
  5
3BE
330
1F
100
AcDbEntity
  8
0
  6
Continuous
 62
     7
370
    15
100
AcDbLine
 10
199.6455835183
 20
230.5994996485
 30
0.0
 11
56.2731832578
 21
195.0191744856
 31
0.0
  0
LINE
  5
3BF
330
1F
100
AcDbEntity
  8
0
  6
Continuous
 62
     7
370
    15
100
AcDbLine
 10
57.7004648375
 20
185.3228691637
 30
0.0
 11
201.0728650981
 21
220.9031943267
 31
0.0
  0
LINE
  5
3C0
330
1F
100
AcDbEntity
  8
0
  6
Continuous
 62
     7
370
    15
100
AcDbLine
 10
197.2081851714
 20
235.2288331933
 30
0.0
 11
53.8357849108
 21
199.6485080304
 31
0.0
  0
LINE
  5
3C1
330
1F
100
AcDbEntity
  8
0
  6
Continuous
 62
     7
370
    15
100
AcDbLine
 10
201.7562432976
 20
214.2833771591
 30
0.0
 11
58.383843037
 21
178.7030519962
 31
0.0
  0
LINE
  5
3C2
330
1F
100
AcDbEntity
  8
0
  6
Continuous
 62
     7
370
    15
100
AcDbLine
 10
59.1149201913
 20
173.7008467377
 30
0.0
 11
202.4873204519
 21
209.2811719006
 31
0.0
  0
LINE
  5
3C3
330
1F
100
AcDbEntity
  8
0
  6
Continuous
 62
     7
370
    15
100
AcDbLine
 10
59.624576603
 20
170.4488266687
 30
0.0
 11
202.9969768636
 21
206.0291518316
 31
0.0
  0
LINE
  5
3C4
330
1F
100
AcDbEntity
  8
0
  6
Continuous
 62
     7
370
    15
100
AcDbLine
 10
59.9710233255
 20
167.7706749283
 30
0.0
 11
203.3434235861
 21
203.3510000912
 31
0.0
  0
LINE
  5
3C5
330
1F
100
AcDbEntity
  8
0
  6
Continuous
 62
     7
370
    15
100
AcDbLine
 10
60.3174700481
 20
165.0925231879
 30
0.0
 11
203.6898703087
 21
200.6728483508
 31
0.0
  0
LINE
  5
3C6
330
1F
100
AcDbEntity
  8
0
  6
Continuous
 62
     7
370
    15
100
AcDbLine
 10
60.8651621386
 20
159.483079017
 30
0.0
 11
204.2375623992
 21
195.06340418
 31
0.0
  0
LINE
  5
3C7
330
1F
100
AcDbEntity
  8
0
  6
Continuous
 62
     7
370
    15
100
AcDbLine
 10
41.8746702262
 20
221.5965279264
 30
0.0
 11
185.2470704867
 21
257.1768530893
 31
0.0
  0
LINE
  5
3C8
330
1F
100
AcDbEntity
  8
0
  6
Continuous
 62
     7
370
    15
100
AcDbLine
 10
183.5328174934
 20
261.0938732964
 30
0.0
 11
40.1604172328
 21
225.5135481335
 31
0.0
  0
LINE
  5
3C9
330
1F
100
AcDbEntity
  8
0
  6
Continuous
 62
     7
370
    15
100
AcDbLine
 10
182.4483802313
 20
263.2620269515
 30
0.0
 11
39.0759799707
 21
227.6817017886
 31
0.0
  0
LINE
  5
3CA
330
1F
100
AcDbEntity
  8
0
  6
Continuous
 62
     7
370
    15
100
AcDbLine
 10
196.8046627544
 20
235.1286922953
 30
0.0
 11
185.2019444956
 21
257.1656535148
 31
0.0
  0
LINE
  5
3CB
330
1F
100
AcDbEntity
  8
0
  6
Continuous
 62
     7
370
    15
100
AcDbLine
 10
199.7711774763
 20
217.9795696031
 30
0.0
 11
199.4452283939
 21
220.4992675695
 31
0.0
  0
LINE
  5
3CC
330
1F
100
AcDbEntity
  8
0
  6
Continuous
 62
     7
370
    15
100
AcDbLine
 10
200.8629578967
 20
214.061692479
 30
0.0
 11
199.8098524014
 21
217.7962333387
 31
0.0
  0
LINE
  5
3CD
330
1F
100
AcDbEntity
  8
0
  6
Continuous
 62
     7
370
    15
100
AcDbLine
 10
201.9421464161
 20
208.8835922105
 30
0.0
 11
201.9092722784
 21
209.1377205462
 31
0.0
  0
LINE
  5
3CE
330
1F
100
AcDbEntity
  8
0
  6
Continuous
 62
     7
370
    15
100
AcDbLine
 10
203.6937020253
 20
198.9877082589
 30
0.0
 11
203.171240284
 21
200.5441414147
 31
0.0
  0
LWPOLYLINE
  5
3CF
330
1F
100
AcDbEntity
  8
0
  6
Continuous
 62
     7
370
    15
100
AcDbPolyline
 90
        9
 70
   128
 43
0.0
 10
204.2375623992
 20
195.06340418
 10
204.2522986516
 20
195.0686635507
 10
204.3446480575
 20
195.2312867866
 10
204.3755639147
 20
195.5936047663
 10
204.3425756477
 20
196.1266938276
 10
204.2483191772
 20
196.7879871292
 10
204.1003191743
 20
197.5246874694
 10
203.9103921814
 20
198.2779754469
 10
203.6937020253
 20
198.9877082589
  0
LINE
  5
3D0
330
1F
100
AcDbEntity
  8
0
  6
Continuous
 62
     7
370
    15
100
AcDbLine
 10
200.549671869
 20
231.0975644115
 30
0.0
 11
199.1446044926
 21
230.7488727942
 31
0.0
  0
LINE
  5
3D1
330
1F
100
AcDbEntity
  8
0
  6
Continuous
 62
     7
370
    15
100
AcDbLine
 10
199.9880587393
 20
229.7287514451
 30
0.0
 11
200.7267266584
 21
229.9120645842
 31
0.0
  0
LINE
  5
3D2
330
1F
100
AcDbEntity
  8
0
  6
Continuous
 62
     7
370
    15
100
AcDbLine
 10
200.7267266584
 20
229.9120645842
 30
0.0
 11
200.7142374804
 21
230.0086102053
 31
0.0
  0
LINE
  5
3D3
330
1F
100
AcDbEntity
  8
0
  6
Continuous
 62
     7
370
    15
100
AcDbLine
 10
184.9409391575
 20
260.7431207178
 30
0.0
 11
183.9349995789
 21
260.493479523
 31
0.0
  0
LINE
  5
3D4
330
1F
100
AcDbEntity
  8
0
  6
Continuous
 62
     7
370
    15
100
AcDbLine
 10
200.9462038099
 20
228.215431085
 30
0.0
 11
200.2170886302
 21
228.0344886223
 31
0.0
  0
ARC
  5
3D5
330
1F
100
AcDbEntity
  8
0
  6
Continuous
 62
     7
370
    15
100
AcDbCircle
 10
204.3138778883
 20
229.5135872513
 30
0.0
 40
3.609215722348139
100
AcDbArc
 50
173.6613075526
 51
201.080433687
  0
LINE
  5
3D6
330
1F
100
AcDbEntity
  8
0
  6
Continuous
 62
     7
370
    15
100
AcDbLine
 10
201.0564573007
 20
227.1799395721
 30
0.0
 11
200.3503030881
 21
227.0046952681
 31
0.0
  0
LINE
  5
3D7
330
1F
100
AcDbEntity
  8
0
  6
Continuous
 62
     7
370
    15
100
AcDbLine
 10
200.9599661296
 20
228.1090436431
 30
0.0
 11
200.9462038099
 21
228.215431085
 31
0.0
  0
LINE
  5
3D8
330
1F
100
AcDbEntity
  8
0
  6
Continuous
 62
     7
370
    15
100
AcDbLine
 10
200.4744657114
 20
226.0448764172
 30
0.0
 11
200.9890634357
 21
227.0152552835
 31
0.0
  0
LINE
  5
3D9
330
1F
100
AcDbEntity
  8
0
  6
Continuous
 62
     7
370
    15
100
AcDbLine
 10
201.2402406281
 20
218.2560702935
 30
0.0
 11
199.7856613108
 21
217.8950914371
 31
0.0
  0
LINE
  5
3DA
330
1F
100
AcDbEntity
  8
0
  6
Continuous
 62
     7
370
    15
100
AcDbLine
 10
201.2402406281
 20
218.2560702935
 30
0.0
 11
200.9032528199
 21
220.8611013889
 31
0.0
  0
LINE
  5
3DB
330
1F
100
AcDbEntity
  8
0
  6
Continuous
 62
     7
370
    15
100
AcDbLine
 10
203.0543076357
 20
211.7358726968
 30
0.0
 11
202.3481534232
 21
211.5606283928
 31
0.0
  0
LINE
  5
3DC
330
1F
100
AcDbEntity
  8
0
  6
Continuous
 62
     7
370
    15
100
AcDbLine
 10
202.8995526173
 20
212.371790347
 30
0.0
 11
201.2402406281
 21
218.2560702935
 31
0.0
  0
LINE
  5
3DD
330
1F
100
AcDbEntity
  8
0
  6
Continuous
 62
     7
370
    15
100
AcDbLine
 10
204.3617675733
 20
201.6287598869
 30
0.0
 11
203.6278957652
 21
201.4466369852
 31
0.0
  0
LINE
  5
3DE
330
1F
100
AcDbEntity
  8
0
  6
Continuous
 62
     7
370
    15
100
AcDbLine
 10
54.9747424589
 20
181.957773163
 30
0.0
 11
54.0691324986
 21
188.9584481103
 31
0.0
  0
LINE
  5
3DF
330
1F
100
AcDbEntity
  8
0
  6
Continuous
 62
     7
370
    15
100
AcDbLine
 10
56.634054448
 20
176.0734932165
 30
0.0
 11
54.9747424589
 21
181.957773163
 31
0.0
  0
LINE
  5
3E0
330
1F
100
AcDbEntity
  8
0
  6
Continuous
 62
     7
370
    15
100
AcDbLine
 10
55.7422081496
 20
195.1611035879
 30
0.0
 11
54.6679416563
 21
194.8945058949
 31
0.0
  0
LINE
  5
3E1
330
1F
100
AcDbEntity
  8
0
  6
Continuous
 62
     7
370
    15
100
AcDbLine
 10
55.3950156245
 20
193.8455027796
 30
0.0
 11
55.8963019718
 21
193.9699056019
 31
0.0
  0
LINE
  5
3E2
330
1F
100
AcDbEntity
  8
0
  6
Continuous
 62
     7
370
    15
100
AcDbLine
 10
55.8963019718
 20
193.9699056019
 30
0.0
 11
55.7422081496
 21
195.1611035879
 31
0.0
  0
LINE
  5
3E3
330
1F
100
AcDbEntity
  8
0
  6
Continuous
 62
     7
370
    15
100
AcDbLine
 10
40.1334754381
 20
224.8066598942
 30
0.0
 11
39.0592089447
 21
224.5400622012
 31
0.0
  0
LINE
  5
3E4
330
1F
100
AcDbEntity
  8
0
  6
Continuous
 62
     7
370
    15
100
AcDbLine
 10
55.7422081496
 20
195.1611035879
 30
0.0
 11
40.1334754381
 21
224.8066598942
 31
0.0
  0
ARC
  5
3E5
330
1F
100
AcDbEntity
  8
0
  6
Continuous
 62
     7
370
    15
100
AcDbCircle
 10
56.9586519015
 20
193.6530029096
 30
0.0
 40
1.108609349323432
100
AcDbArc
 50
163.3899742561
 51
192.0501084913
  0
LINE
  5
3E6
330
1F
100
AcDbEntity
  8
0
  6
Continuous
 62
     7
370
    15
100
AcDbLine
 10
56.2281654564
 20
191.2383098914
 30
0.0
 11
55.6417988565
 21
191.0927929422
 31
0.0
  0
LINE
  5
3E7
330
1F
100
AcDbEntity
  8
0
  6
Continuous
 62
     7
370
    15
100
AcDbLine
 10
55.745203541
 20
190.2934799726
 30
0.0
 11
56.2397333005
 21
191.2260204208
 31
0.0
  0
LINE
  5
3E8
330
1F
100
AcDbEntity
  8
0
  6
Continuous
 62
     7
370
    15
100
AcDbLine
 10
56.4098159415
 20
182.3139113113
 30
0.0
 11
54.9747424589
 21
181.957773163
 31
0.0
  0
LINE
  5
3E9
330
1F
100
AcDbEntity
  8
0
  6
Continuous
 62
     7
370
    15
100
AcDbLine
 10
56.4098159415
 20
182.3139113113
 30
0.0
 11
55.5678015115
 21
188.8229710439
 31
0.0
  0
LINE
  5
3EA
330
1F
100
AcDbEntity
  8
0
  6
Continuous
 62
     7
370
    15
100
AcDbLine
 10
58.2468439163
 20
175.7994118732
 30
0.0
 11
56.9480727619
 21
175.4770994902
 31
0.0
  0
LINE
  5
3EB
330
1F
100
AcDbEntity
  8
0
  6
Continuous
 62
     7
370
    15
100
AcDbLine
 10
58.2468439163
 20
175.7994118732
 30
0.0
 11
56.4098159415
 21
182.3139113113
 31
0.0
  0
LINE
  5
3EC
330
1F
100
AcDbEntity
  8
0
  6
Continuous
 62
     7
370
    15
100
AcDbLine
 10
59.5543038539
 20
165.6922990632
 30
0.0
 11
58.9471091292
 21
165.5416132569
 31
0.0
  0
LINE
  5
3ED
330
1F
100
AcDbEntity
  8
0
  6
Continuous
 62
     7
370
    15
100
AcDbLine
 10
59.5543038539
 20
165.6922990632
 30
0.0
 11
58.2468439163
 21
175.7994118732
 31
0.0
  0
LWPOLYLINE
  5
3EE
330
1F
100
AcDbEntity
  8
0
  6
Continuous
 62
     7
370
    15
100
AcDbPolyline
 90
        9
 70
   128
 43
0.0
 10
60.8651621386
 20
159.483079017
 10
60.879898391
 20
159.4883383878
 10
60.972247797
 20
159.6509616237
 10
61.0031636541
 20
160.0132796034
 10
60.9701753871
 20
160.5463686647
 10
60.8759189166
 20
161.2076619663
 10
60.7279189137
 20
161.9443623065
 10
60.5379919208
 20
162.697650284
 10
60.3213017647
 20
163.407383096
  0
LINE
  5
3EF
330
1F
100
AcDbEntity
  8
0
  6
Continuous
 62
     7
370
    15
100
AcDbLine
 10
60.3213017647
 20
163.407383096
 30
0.0
 11
59.5543038539
 21
165.6922990632
 31
0.0
  0
LINE
  5
3F0
330
1F
100
AcDbEntity
  8
0
  6
Continuous
 62
     7
370
    15
100
AcDbLine
 10
203.8660549062
 20
210.4868115821
 30
0.0
 11
204.2434755592
 21
209.148395126
 31
0.0
  0
LINE
  5
3F1
330
1F
100
AcDbEntity
  8
0
  6
Continuous
 62
     7
370
    15
100
AcDbLine
 10
204.2434755592
 20
209.148395126
 30
0.0
 11
206.1812852378
 21
194.1684630744
 31
0.0
  0
LINE
  5
3F2
330
1F
100
AcDbEntity
  8
0
  6
Continuous
 62
     7
370
    15
100
AcDbLine
 10
206.1812852378
 20
194.1684630744
 30
0.0
 11
206.017062583
 21
193.8587860355
 31
0.0
  0
LINE
  5
3F3
330
1F
100
AcDbEntity
  8
0
  6
Continuous
 62
     7
370
    15
100
AcDbLine
 10
206.017062583
 20
193.8587860355
 30
0.0
 11
205.250467881
 21
195.3147739637
 31
0.0
  0
LINE
  5
3F4
330
1F
100
AcDbEntity
  8
0
  6
Continuous
 62
     7
370
    15
100
AcDbLine
 10
184.1130652859
 20
260.5376716096
 30
0.0
 11
183.7818991423
 21
263.0976992453
 31
0.0
  0
LINE
  5
3F5
330
1F
100
AcDbEntity
  8
0
  6
Continuous
 62
     7
370
    15
100
AcDbLine
 10
183.7818991423
 20
263.0976992453
 30
0.0
 11
183.9461219802
 21
263.4073748691
 31
0.0
  0
LINE
  5
3F6
330
1F
100
AcDbEntity
  8
0
  6
Continuous
 62
     7
370
    15
100
AcDbLine
 10
183.9461219802
 20
263.4073748691
 30
0.0
 11
201.2787376037
 21
230.4876598675
 31
0.0
  0
LINE
  5
3F7
330
1F
100
AcDbEntity
  8
0
  6
Continuous
 62
     7
370
    15
100
AcDbLine
 10
201.2787376037
 20
230.4876598675
 30
0.0
 11
201.6561580582
 21
229.1492449462
 31
0.0
  0
LINE
  5
3F8
330
1F
100
AcDbEntity
  8
0
  6
Continuous
 62
     7
370
    15
100
AcDbLine
 10
201.6561580582
 20
229.1492449462
 30
0.0
 11
202.1328153829
 21
225.4645206852
 31
0.0
  0
LINE
  5
3F9
330
1F
100
AcDbEntity
  8
0
  6
Continuous
 62
     7
370
    15
100
AcDbLine
 10
202.1328153829
 20
225.4645206852
 30
0.0
 11
201.9685929421
 21
225.1548419915
 31
0.0
  0
LINE
  5
3FA
330
1F
100
AcDbEntity
  8
0
  6
Continuous
 62
     7
370
    15
100
AcDbLine
 10
201.9685929421
 20
225.1548419915
 30
0.0
 11
200.9791296859
 21
227.0341225978
 31
0.0
  0
LINE
  5
3FB
330
1F
100
AcDbEntity
  8
0
  6
Continuous
 62
     7
370
    15
100
AcDbLine
 10
200.8802918527
 20
220.8554032302
 30
0.0
 11
201.2172796609
 21
218.2503721349
 31
0.0
  0
LINE
  5
3FC
330
1F
100
AcDbEntity
  8
0
  6
Continuous
 62
     7
370
    15
100
AcDbLine
 10
202.87659165
 20
212.3660921884
 30
0.0
 11
203.8660549062
 21
210.4868115821
 31
0.0
  0
ARC
  5
3FD
330
1F
100
AcDbEntity
  8
0
  6
Continuous
 62
     7
370
    15
100
AcDbCircle
 10
198.250115927
 20
227.9047931727
 30
0.0
 40
3.2160585684721
100
AcDbArc
 50
358.4987339233
 51
40.6009322327
  0
LWPOLYLINE
  5
3FE
330
1F
100
AcDbEntity
  8
0
  6
Continuous
 62
     7
370
    15
100
AcDbPolyline
 90
        7
 70
   128
 43
0.0
 10
200.9350652694
 20
228.1183415213
 10
201.0585017513
 20
227.7467152161
 10
201.2231371452
 20
227.3643207595
 10
201.363864293
 20
227.1667422873
 10
201.4592585266
 20
227.1840638458
 10
201.4947978002
 20
227.4136440948
 10
201.4650705714
 20
227.8205355322
  0
LINE
  5
3FF
330
1F
100
AcDbEntity
  8
0
  6
Continuous
 62
     7
370
    15
100
AcDbLine
 10
202.4451571445
 20
230.7771269229
 30
0.0
 11
202.822577599
 21
229.4387120017
 31
0.0
  0
LINE
  5
400
330
1F
100
AcDbEntity
  8
0
  6
Continuous
 62
     7
370
    15
100
AcDbLine
 10
201.6561580582
 20
229.1492449462
 30
0.0
 11
202.822577599
 21
229.4387120017
 31
0.0
  0
LINE
  5
401
330
1F
100
AcDbEntity
  8
0
  6
Continuous
 62
     7
370
    15
100
AcDbLine
 10
202.4451571445
 20
230.7771269229
 30
0.0
 11
201.2787376037
 21
230.4876598675
 31
0.0
  0
LINE
  5
402
330
1F
100
AcDbEntity
  8
0
  6
Continuous
 62
     7
370
    15
100
AcDbLine
 10
203.1007233656
 20
229.5950993369
 30
0.0
 11
202.8075369568
 21
230.6348003721
 31
0.0
  0
LINE
  5
403
330
1F
100
AcDbEntity
  8
0
  6
Continuous
 62
     7
370
    15
100
AcDbLine
 10
202.822577599
 20
229.4387120017
 30
0.0
 11
203.1007233656
 21
229.5950993369
 31
0.0
  0
LINE
  5
404
330
1F
100
AcDbEntity
  8
0
  6
Continuous
 62
     7
370
    15
100
AcDbLine
 10
202.4451571445
 20
230.7771269229
 30
0.0
 11
202.8075369568
 21
230.6348003721
 31
0.0
  0
LINE
  5
405
330
1F
100
AcDbEntity
  8
0
  6
Continuous
 62
     7
370
    15
100
AcDbLine
 10
202.822577599
 20
229.4387120017
 30
0.0
 11
203.2992349237
 21
225.7539877406
 31
0.0
  0
LINE
  5
406
330
1F
100
AcDbEntity
  8
0
  6
Continuous
 62
     7
370
    15
100
AcDbLine
 10
203.2992349237
 20
225.7539877406
 30
0.0
 11
202.1328153829
 21
225.4645206852
 31
0.0
  0
LINE
  5
407
330
1F
100
AcDbEntity
  8
0
  6
Continuous
 62
     7
370
    15
100
AcDbLine
 10
203.5437349637
 20
226.1704680583
 30
0.0
 11
203.1007233656
 21
229.5950993369
 31
0.0
  0
LINE
  5
408
330
1F
100
AcDbEntity
  8
0
  6
Continuous
 62
     7
370
    15
100
AcDbLine
 10
203.2992349237
 20
225.7539877406
 30
0.0
 11
203.5437349637
 21
226.1704680583
 31
0.0
  0
LINE
  5
409
330
1F
100
AcDbEntity
  8
0
  6
Continuous
 62
     7
370
    15
100
AcDbLine
 10
200.7186671303
 20
230.0099714641
 30
0.0
 11
200.6993507915
 21
229.999599304
 31
0.0
  0
ARC
  5
40A
330
1F
100
AcDbEntity
  8
0
  6
Continuous
 62
     7
370
    15
100
AcDbCircle
 10
202.4489042042
 20
228.2682128232
 30
0.0
 40
1.513686932326425
100
AcDbArc
 50
185.6122825351
 51
227.6060861847
  0
LINE
  5
40B
330
1F
100
AcDbEntity
  8
0
  6
Continuous
 62
     7
370
    15
100
AcDbLine
 10
185.112541521
 20
263.6968419246
 30
0.0
 11
202.4451571445
 21
230.7771269229
 31
0.0
  0
LINE
  5
40C
330
1F
100
AcDbEntity
  8
0
  6
Continuous
 62
     7
370
    15
100
AcDbLine
 10
183.9461219802
 20
263.4073748691
 30
0.0
 11
185.112541521
 21
263.6968419246
 31
0.0
  0
LINE
  5
40D
330
1F
100
AcDbEntity
  8
0
  6
Continuous
 62
     7
370
    15
100
AcDbLine
 10
185.112541521
 20
263.6968419246
 30
0.0
 11
185.560402647
 21
263.3921613157
 31
0.0
  0
LINE
  5
40E
330
1F
100
AcDbEntity
  8
0
  6
Continuous
 62
     7
370
    15
100
AcDbLine
 10
202.8075369568
 20
230.6348003721
 30
0.0
 11
185.560402647
 21
263.3921613157
 31
0.0
  0
LINE
  5
40F
330
1F
100
AcDbEntity
  8
0
  6
Continuous
 62
     7
370
    15
100
AcDbLine
 10
203.2992349237
 20
225.7539877406
 30
0.0
 11
203.1350124829
 21
225.444309047
 31
0.0
  0
LINE
  5
410
330
1F
100
AcDbEntity
  8
0
  6
Continuous
 62
     7
370
    15
100
AcDbLine
 10
201.9685929421
 20
225.1548419915
 30
0.0
 11
203.1350124829
 21
225.444309047
 31
0.0
  0
LINE
  5
411
330
1F
100
AcDbEntity
  8
0
  6
Continuous
 62
     7
370
    15
100
AcDbLine
 10
203.1350124829
 20
225.444309047
 30
0.0
 11
203.4161637927
 21
225.9299066209
 31
0.0
  0
LINE
  5
412
330
1F
100
AcDbEntity
  8
0
  6
Continuous
 62
     7
370
    15
100
AcDbLine
 10
203.4161637927
 20
225.9299066209
 30
0.0
 11
203.5437349637
 21
226.1704680583
 31
0.0
  0
LINE
  5
413
330
1F
100
AcDbEntity
  8
0
  6
Continuous
 62
     7
370
    15
100
AcDbLine
 10
200.4859980231
 20
226.0666235495
 30
0.0
 11
201.37267351
 21
226.2866673102
 31
0.0
  0
LINE
  5
414
330
1F
100
AcDbEntity
  8
0
  6
Continuous
 62
     7
370
    15
100
AcDbLine
 10
201.384463294
 20
226.2642747567
 30
0.0
 11
202.42595988
 21
218.213149683
 31
0.0
  0
LINE
  5
415
330
1F
100
AcDbEntity
  8
0
  6
Continuous
 62
     7
370
    15
100
AcDbLine
 10
201.3291029661
 20
217.9409457889
 30
0.0
 11
202.42595988
 21
218.213149683
 31
0.0
  0
LINE
  5
416
330
1F
100
AcDbEntity
  8
0
  6
Continuous
 62
     7
370
    15
100
AcDbLine
 10
202.42595988
 20
218.213149683
 30
0.0
 11
202.7041063497
 21
218.3695345252
 31
0.0
  0
LINE
  5
417
330
1F
100
AcDbEntity
  8
0
  6
Continuous
 62
     7
370
    15
100
AcDbLine
 10
202.7041063497
 20
218.3695345252
 30
0.0
 11
201.7800269005
 21
225.5129849437
 31
0.0
  0
LINE
  5
418
330
1F
100
AcDbEntity
  8
0
  6
Continuous
 62
     7
370
    15
100
AcDbLine
 10
205.032474447
 20
210.7762786376
 30
0.0
 11
205.4098951001
 21
209.4378621814
 31
0.0
  0
LINE
  5
419
330
1F
100
AcDbEntity
  8
0
  6
Continuous
 62
     7
370
    15
100
AcDbLine
 10
204.2434755592
 20
209.148395126
 30
0.0
 11
205.4098951001
 21
209.4378621814
 31
0.0
  0
LINE
  5
41A
330
1F
100
AcDbEntity
  8
0
  6
Continuous
 62
     7
370
    15
100
AcDbLine
 10
205.032474447
 20
210.7762786376
 30
0.0
 11
203.8660549062
 21
210.4868115821
 31
0.0
  0
LINE
  5
41B
330
1F
100
AcDbEntity
  8
0
  6
Continuous
 62
     7
370
    15
100
AcDbLine
 10
205.4098951001
 20
209.4378621814
 30
0.0
 11
205.6880408667
 21
209.5942495166
 31
0.0
  0
LINE
  5
41C
330
1F
100
AcDbEntity
  8
0
  6
Continuous
 62
     7
370
    15
100
AcDbLine
 10
205.032474447
 20
210.7762786376
 30
0.0
 11
205.3948542593
 21
210.6339520868
 31
0.0
  0
LINE
  5
41D
330
1F
100
AcDbEntity
  8
0
  6
Continuous
 62
     7
370
    15
100
AcDbLine
 10
205.6880408667
 20
209.5942495166
 30
0.0
 11
205.3948542593
 21
210.6339520868
 31
0.0
  0
LINE
  5
41E
330
1F
100
AcDbEntity
  8
0
  6
Continuous
 62
     7
370
    15
100
AcDbLine
 10
205.4098951001
 20
209.4378621814
 30
0.0
 11
207.3477047787
 21
194.4579301298
 31
0.0
  0
LINE
  5
41F
330
1F
100
AcDbEntity
  8
0
  6
Continuous
 62
     7
370
    15
100
AcDbLine
 10
207.3477047787
 20
194.4579301298
 30
0.0
 11
206.1812852378
 21
194.1684630744
 31
0.0
  0
LINE
  5
420
330
1F
100
AcDbEntity
  8
0
  6
Continuous
 62
     7
370
    15
100
AcDbLine
 10
207.3477047787
 20
194.4579301298
 30
0.0
 11
207.5922047194
 21
194.8744112149
 31
0.0
  0
LINE
  5
421
330
1F
100
AcDbEntity
  8
0
  6
Continuous
 62
     7
370
    15
100
AcDbLine
 10
207.5922047194
 20
194.8744112149
 30
0.0
 11
205.6880408667
 21
209.5942495166
 31
0.0
  0
LINE
  5
422
330
1F
100
AcDbEntity
  8
0
  6
Continuous
 62
     7
370
    15
100
AcDbLine
 10
203.9356445099
 20
212.8594800262
 30
0.0
 11
205.032474447
 21
210.7762786376
 31
0.0
  0
LINE
  5
423
330
1F
100
AcDbEntity
  8
0
  6
Continuous
 62
     7
370
    15
100
AcDbLine
 10
202.838787596
 20
212.5872761321
 30
0.0
 11
203.9356445099
 21
212.8594800262
 31
0.0
  0
LINE
  5
424
330
1F
100
AcDbEntity
  8
0
  6
Continuous
 62
     7
370
    15
100
AcDbLine
 10
203.9356445099
 20
212.8594800262
 30
0.0
 11
204.2980253311
 21
212.7171515592
 31
0.0
  0
LINE
  5
425
330
1F
100
AcDbEntity
  8
0
  6
Continuous
 62
     7
370
    15
100
AcDbLine
 10
205.3948542593
 20
210.6339520868
 30
0.0
 11
204.2980253311
 21
212.7171515592
 31
0.0
  0
LINE
  5
426
330
1F
100
AcDbEntity
  8
0
  6
Continuous
 62
     7
370
    15
100
AcDbLine
 10
202.42595988
 20
218.213149683
 30
0.0
 11
203.9356445099
 21
212.8594800262
 31
0.0
  0
LINE
  5
427
330
1F
100
AcDbEntity
  8
0
  6
Continuous
 62
     7
370
    15
100
AcDbLine
 10
204.2980253311
 20
212.7171515592
 30
0.0
 11
202.7041063497
 21
218.3695345252
 31
0.0
  0
LINE
  5
428
330
1F
100
AcDbEntity
  8
0
  6
Continuous
 62
     7
370
    15
100
AcDbLine
 10
207.3477047787
 20
194.4579301298
 30
0.0
 11
207.1834821238
 21
194.148253091
 31
0.0
  0
LINE
  5
429
330
1F
100
AcDbEntity
  8
0
  6
Continuous
 62
     7
370
    15
100
AcDbLine
 10
206.017062583
 20
193.8587860355
 30
0.0
 11
207.1834821238
 21
194.148253091
 31
0.0
  0
LINE
  5
42A
330
1F
100
AcDbEntity
  8
0
  6
Continuous
 62
     7
370
    15
100
AcDbLine
 10
207.4646334678
 20
194.6338504011
 30
0.0
 11
207.1834821238
 21
194.148253091
 31
0.0
  0
LINE
  5
42B
330
1F
100
AcDbEntity
  8
0
  6
Continuous
 62
     7
370
    15
100
AcDbLine
 10
207.4646334678
 20
194.6338504011
 30
0.0
 11
207.5922047194
 21
194.8744112149
 31
0.0
  0
LWPOLYLINE
  5
42C
330
1F
100
AcDbEntity
  8
0
  6
Continuous
 62
     7
370
    15
100
AcDbPolyline
 90
       12
 70
   128
 43
0.0
 10
58.0425291822
 20
158.8459179645
 10
57.9135626179
 20
158.9265248267
 10
57.7125246142
 20
159.2292584199
 10
57.4853629499
 20
159.7303041639
 10
57.2522607318
 20
160.3851440888
 10
57.0339311593
 20
161.1355909599
 10
56.8497726847
 20
161.9149663333
 10
56.7161497373
 20
162.6540169435
 10
56.6449342025
 20
163.2870773316
 10
56.6424546389
 20
163.757895488
 10
56.7089314966
 20
164.0246371056
 10
56.7473997899
 20
164.0646950054
  0
LWPOLYLINE
  5
42D
330
1F
100
AcDbEntity
  8
0
  6
Continuous
 62
     7
370
    15
100
AcDbPolyline
 90
        9
 70
   128
 43
0.0
 10
57.3655113368
 20
162.0583032723
 10
57.357993507
 20
162.0429354538
 10
57.3473576303
 20
162.0392288868
 10
57.3339558996
 20
162.0473083187
 10
57.3182331768
 20
162.0669056959
 10
57.3007117525
 20
162.0973691359
 10
57.2819727577
 20
162.1376889717
 10
57.2626384417
 20
162.18652591
 10
57.2433502985
 20
162.2422595226
  0
LWPOLYLINE
  5
42E
330
1F
100
AcDbEntity
  8
0
  6
Continuous
 62
     7
370
    15
100
AcDbPolyline
 90
        9
 70
   128
 43
0.0
 10
57.2433502985
 20
162.2422595226
 10
57.2267532835
 20
162.2880466725
 10
57.2107659105
 20
162.3219704253
 10
57.1969442373
 20
162.3407291917
 10
57.1866346413
 20
162.3424952148
 10
57.1808405509
 20
162.3270976388
 10
57.1801269863
 20
162.2960339088
 10
57.1845628641
 20
162.2523304264
 10
57.193715951
 20
162.2002432934
  0
LWPOLYLINE
  5
42F
330
1F
100
AcDbEntity
  8
0
  6
Continuous
 62
     7
370
    15
100
AcDbPolyline
 90
        9
 70
   128
 43
0.0
 10
57.193715951
 20
162.2002432934
 10
57.2054393801
 20
162.1381050827
 10
57.2141652064
 20
162.0802876377
 10
57.2196041571
 20
162.0287094588
 10
57.2215755147
 20
161.9850822902
 10
57.2200141076
 20
161.9508541342
 10
57.2149716451
 20
161.9271606947
 10
57.2066153478
 20
161.9147889031
 10
57.1952228476
 20
161.9141486862
  0
ARC
  5
430
330
1F
100
AcDbEntity
  8
0
  6
Continuous
 62
     7
370
    15
100
AcDbCircle
 10
57.6396135855
 20
161.8279228783
 30
0.0
 40
0.4526787137647996
100
AcDbArc
 50
169.0192581244
 51
209.7801085506
  0
ARC
  5
431
330
1F
100
AcDbEntity
  8
0
  6
Continuous
 62
     7
370
    15
100
AcDbCircle
 10
55.5465574566
 20
160.9044930936
 30
0.0
 40
1.838090920594074
100
AcDbArc
 50
7.1425604655
 51
22.3377970723
  0
LWPOLYLINE
  5
432
330
1F
100
AcDbEntity
  8
0
  6
Continuous
 62
     7
370
    15
100
AcDbPolyline
 90
        9
 70
   128
 43
0.0
 10
57.3703845167
 20
161.1330386844
 10
57.3781242133
 20
161.0830796752
 10
57.3900166201
 20
161.0281477558
 10
57.4049040991
 20
160.9735915331
 10
57.4213369326
 20
160.9247231625
 10
57.437714206
 20
160.8863028583
 10
57.4524422899
 20
160.8620697195
 10
57.4640859318
 20
160.8543855866
 10
57.4715120195
 20
160.8639973031
  0
LWPOLYLINE
  5
433
330
1F
100
AcDbEntity
  8
0
  6
Continuous
 62
     7
370
    15
100
AcDbPolyline
 90
        9
 70
   128
 43
0.0
 10
57.4715120195
 20
160.8639973031
 10
57.4790298493
 20
160.8793651216
 10
57.4896662305
 20
160.8830707305
 10
57.5030679859
 20
160.8749911068
 10
57.5187901796
 20
160.8553948795
 10
57.5363116286
 20
160.8249312476
 10
57.5550505986
 20
160.7846116037
 10
57.5743849147
 20
160.7357746654
 10
57.5936730826
 20
160.6800408609
  0
LWPOLYLINE
  5
434
330
1F
100
AcDbEntity
  8
0
  6
Continuous
 62
     7
370
    15
100
AcDbPolyline
 90
        9
 70
   128
 43
0.0
 10
57.5936730826
 20
160.6800408609
 10
57.6102700728
 20
160.6342539029
 10
57.6262579503
 20
160.600329192
 10
57.640079119
 20
160.5815713838
 10
57.6503892443
 20
160.5798042106
 10
57.6561828054
 20
160.5952029366
 10
57.6568963948
 20
160.6262664747
 10
57.6524610214
 20
160.669968999
 10
57.6433074053
 20
160.7220572821
  0
LWPOLYLINE
  5
435
330
1F
100
AcDbEntity
  8
0
  6
Continuous
 62
     7
370
    15
100
AcDbPolyline
 90
        9
 70
   128
 43
0.0
 10
57.6433074053
 20
160.7220572821
 10
57.631584001
 20
160.7841953008
 10
57.6228581747
 20
160.8420127459
 10
57.6174191992
 20
160.8935911166
 10
57.6154478664
 20
160.9372180934
 10
57.6170092487
 20
160.9714464412
 10
57.6220517112
 20
160.9951398807
 10
57.6304079837
 20
161.0075118642
 10
57.6418004839
 20
161.0081520811
  0
ARC
  5
436
330
1F
100
AcDbEntity
  8
0
  6
Continuous
 62
     7
370
    15
100
AcDbCircle
 10
57.1974107658
 20
161.0943778952
 30
0.0
 40
0.4526777137934053
100
AcDbArc
 50
349.0192327733
 51
29.7800123841
  0
ARC
  5
437
330
1F
100
AcDbEntity
  8
0
  6
Continuous
 62
     7
370
    15
100
AcDbCircle
 10
59.2904463682
 20
162.0178012493
 30
0.0
 40
1.838070383527832
100
AcDbArc
 50
187.1424810169
 51
202.3378823712
  0
LWPOLYLINE
  5
438
330
1F
100
AcDbEntity
  8
0
  6
Continuous
 62
     7
370
    15
100
AcDbPolyline
 90
        9
 70
   128
 43
0.0
 10
57.4666393689
 20
161.7892607411
 10
57.4588996723
 20
161.8392197502
 10
57.4470067859
 20
161.8941524359
 10
57.4321192821
 20
161.9487088504
 10
57.4156869281
 20
161.9975764548
 10
57.3993091752
 20
162.0359975253
 10
57.3845816205
 20
162.0602295141
 10
57.3729374493
 20
162.067914797
 10
57.3655113368
 20
162.0583032723
  0
LWPOLYLINE
  5
439
330
1F
100
AcDbEntity
  8
0
  6
Continuous
 62
     7
370
    15
100
AcDbPolyline
 90
       12
 70
   128
 43
0.0
 10
37.984450745
 20
219.9406926983
 10
37.8554842924
 20
220.0212986971
 10
37.6544466442
 20
220.3240324834
 10
37.4272853398
 20
220.8250754454
 10
37.1941828983
 20
221.4799170971
 10
36.9758532637
 20
222.2303644478
 10
36.7916955915
 20
223.0097365608
 10
36.6580719907
 20
223.7487892803
 10
36.5868569603
 20
224.3818487103
 10
36.5843770412
 20
224.8526666736
 10
36.6508535514
 20
225.1194109773
 10
36.6893221922
 20
225.159466191
  0
LWPOLYLINE
  5
43A
330
1F
100
AcDbEntity
  8
0
  6
Continuous
 62
     7
370
    15
100
AcDbPolyline
 90
        9
 70
   128
 43
0.0
 10
37.3074336894
 20
223.1530748416
 10
37.2999158596
 20
223.1377070232
 10
37.2892792799
 20
223.1340029491
 10
37.27587745
 20
223.1420831484
 10
37.2601552812
 20
223.1616791838
 10
37.2426340059
 20
223.1921414727
 10
37.2238951104
 20
223.232460541
 10
37.2045608439
 20
223.2812970956
 10
37.1852724526
 20
223.3370326268
  0
LWPOLYLINE
  5
43B
330
1F
100
AcDbEntity
  8
0
  6
Continuous
 62
     7
370
    15
100
AcDbPolyline
 90
        9
 70
   128
 43
0.0
 10
37.1852724526
 20
223.3370326268
 10
37.1686755369
 20
223.3828190093
 10
37.1526876594
 20
223.4167437202
 10
37.13886659
 20
223.435500761
 10
37.1285562909
 20
223.4372692772
 10
37.122762705
 20
223.421870743
 10
37.1220489915
 20
223.3908081642
 10
37.1264846627
 20
223.3471033376
 10
37.1356380058
 20
223.2950171651
  0
LWPOLYLINE
  5
43C
330
1F
100
AcDbEntity
  8
0
  6
Continuous
 62
     7
370
    15
100
AcDbPolyline
 90
        9
 70
   128
 43
0.0
 10
37.1356380058
 20
223.2950171651
 10
37.1473614349
 20
223.2328789544
 10
37.1560873605
 20
223.1750607419
 10
37.1615262119
 20
223.1234833305
 10
37.1634976688
 20
223.0798553944
 10
37.1619365099
 20
223.0456253198
 10
37.1568939978
 20
223.021932264
 10
37.1485377501
 20
223.0095600887
 10
37.1371449024
 20
223.0089225578
  0
ARC
  5
43D
330
1F
100
AcDbEntity
  8
0
  6
Continuous
 62
     7
370
    15
100
AcDbCircle
 10
37.5815385494
 20
222.9226967502
 30
0.0
 40
0.4526815694908367
100
AcDbArc
 50
169.019328291
 51
209.7799019315
  0
ARC
  5
43E
330
1F
100
AcDbEntity
  8
0
  6
Continuous
 62
     7
370
    15
100
AcDbCircle
 10
35.4885052376
 20
221.9992738115
 30
0.0
 40
1.838064170654511
100
AcDbArc
 50
7.1424076483
 51
22.3379089377
  0
LWPOLYLINE
  5
43F
330
1F
100
AcDbEntity
  8
0
  6
Continuous
 62
     7
370
    15
100
AcDbPolyline
 90
        9
 70
   128
 43
0.0
 10
37.3123063649
 20
222.2278112118
 10
37.3200461111
 20
222.1778518189
 10
37.3319388982
 20
222.1229199007
 10
37.3468262035
 20
222.0683650211
 10
37.3632587064
 20
222.0194962655
 10
37.3796364593
 20
221.9810751951
 10
37.3943640637
 20
221.9568428225
 10
37.4060081852
 20
221.9491579233
 10
37.4134342481
 20
221.9587698318
  0
LWPOLYLINE
  5
440
330
1F
100
AcDbEntity
  8
0
  6
Continuous
 62
     7
370
    15
100
AcDbPolyline
 90
        9
 70
   128
 43
0.0
 10
37.4134342481
 20
221.9587698318
 10
37.4209520779
 20
221.9741376502
 10
37.431587756
 20
221.9778457522
 10
37.4449895859
 20
221.9697655529
 10
37.4607122592
 20
221.9501685594
 10
37.4782339316
 20
221.9197032007
 10
37.4969728271
 20
221.8793841324
 10
37.5163070936
 20
221.8305475778
 10
37.5355954849
 20
221.7748120465
  0
LWPOLYLINE
  5
441
330
1F
100
AcDbEntity
  8
0
  6
Continuous
 62
     7
370
    15
100
AcDbPolyline
 90
        9
 70
   128
 43
0.0
 10
37.5355954849
 20
221.7748120465
 10
37.5521924006
 20
221.7290256641
 10
37.5681797737
 20
221.6951019113
 10
37.5820013475
 20
221.6763439124
 10
37.592310745
 20
221.6745794241
 10
37.5981048354
 20
221.6899770002
 10
37.5988185489
 20
221.721039579
 10
37.5943827703
 20
221.7647422939
 10
37.5852295346
 20
221.8168305782
  0
LWPOLYLINE
  5
442
330
1F
100
AcDbEntity
  8
0
  6
Continuous
 62
     7
370
    15
100
AcDbPolyline
 90
        9
 70
   128
 43
0.0
 10
37.5852295346
 20
221.8168305782
 10
37.5735061055
 20
221.8789687888
 10
37.564780577
 20
221.9367839315
 10
37.5593413284
 20
221.9883644127
 10
37.5573702687
 20
222.031989279
 10
37.5589314276
 20
222.0662193536
 10
37.5639739397
 20
222.0899124094
 10
37.5723301874
 20
222.1022845847
 10
37.5837226379
 20
222.1029251854
  0
ARC
  5
443
330
1F
100
AcDbEntity
  8
0
  6
Continuous
 62
     7
370
    15
100
AcDbCircle
 10
37.139337047
 20
222.1891506647
 30
0.0
 40
0.4526735983956015
100
AcDbArc
 50
349.0191748592
 51
29.7802191974
  0
ARC
  5
444
330
1F
100
AcDbEntity
  8
0
  6
Continuous
 62
     7
370
    15
100
AcDbCircle
 10
39.2324199757
 20
223.1125870217
 30
0.0
 40
1.838123392616771
100
AcDbArc
 50
187.1426538829
 51
202.3376627031
  0
LWPOLYLINE
  5
445
330
1F
100
AcDbEntity
  8
0
  6
Continuous
 62
     7
370
    15
100
AcDbPolyline
 90
        9
 70
   128
 43
0.0
 10
37.4085610681
 20
222.8840344197
 10
37.4008213219
 20
222.9339938126
 10
37.3889290393
 20
222.9889247727
 10
37.3740413369
 20
223.0434827221
 10
37.3576087267
 20
223.0923493659
 10
37.3412314782
 20
223.1307694783
 10
37.3265033694
 20
223.155002809
 10
37.3148597523
 20
223.1626867501
 10
37.3074336894
 20
223.1530748416
  0
SPLINE
  5
446
330
1F
100
AcDbEntity
  8
0
  6
Continuous
 62
     7
370
    15
100
AcDbSpline
210
0.0
220
0.0
230
1.0
 70
     8
 71
     3
 72
     9
 73
     5
 74
     0
 42
0.00000001
 43
0.00000001
 40
0.0
 40
0.0
 40
0.0
 40
0.0
 40
0.2903981218231149
 40
1.0
 40
1.0
 40
1.0
 40
1.0
 10
40.09840999112178
 20
224.8128032009902
 30
0.0
 10
40.09642694928793
 20
224.8127126171031
 30
0.0
 10
40.08959824867043
 20
224.8124006870998
 30
0.0
 10
40.08124902488015
 20
224.8027824349486
 30
0.0
 10
40.07532439999726
 20
224.7959573051573
 30
0.0
  0
LWPOLYLINE
  5
447
330
1F
100
AcDbEntity
  8
0
  6
Continuous
 62
     7
370
    15
100
AcDbPolyline
 90
       12
 70
   128
 43
0.0
 10
54.0983664383
 20
189.3356459062
 10
53.9693999857
 20
189.4162519051
 10
53.7683618331
 20
189.7189866494
 10
53.5412005287
 20
190.2200296114
 10
53.3080980872
 20
190.8748712631
 10
53.0897684527
 20
191.6253186138
 10
52.9056102759
 20
192.4046916849
 10
52.7719871796
 20
193.1437434463
 10
52.7007716447
 20
193.7768038344
 10
52.6982922301
 20
194.2476208396
 10
52.7647687403
 20
194.5143651433
 10
52.8032373811
 20
194.554420357
  0
LWPOLYLINE
  5
448
330
1F
100
AcDbEntity
  8
0
  6
Continuous
 62
     7
370
    15
100
AcDbPolyline
 90
        9
 70
   128
 43
0.0
 10
53.4213488783
 20
192.5480290076
 10
53.4138310485
 20
192.5326611892
 10
53.4031949733
 20
192.528956157
 10
53.3897931434
 20
192.5370363563
 10
53.3740704701
 20
192.5566333498
 10
53.3565491948
 20
192.5870956387
 10
53.3378102993
 20
192.627414707
 10
53.3184760328
 20
192.6762512616
 10
53.2991876415
 20
192.7319867928
  0
LWPOLYLINE
  5
449
330
1F
100
AcDbEntity
  8
0
  6
Continuous
 62
     7
370
    15
100
AcDbPolyline
 90
        9
 70
   128
 43
0.0
 10
53.2991876415
 20
192.7319867928
 10
53.2825907258
 20
192.7777731753
 10
53.2666033527
 20
192.8116969281
 10
53.2527817789
 20
192.830454927
 10
53.2424719843
 20
192.8322224851
 10
53.2366778939
 20
192.816824909
 10
53.2359641804
 20
192.7857623302
 10
53.2404003561
 20
192.7420565455
 10
53.2495531947
 20
192.6899713311
  0
LWPOLYLINE
  5
44A
330
1F
100
AcDbEntity
  8
0
  6
Continuous
 62
     7
370
    15
100
AcDbPolyline
 90
        9
 70
   128
 43
0.0
 10
53.2495531947
 20
192.6899713311
 10
53.2612766238
 20
192.6278331204
 10
53.2700025494
 20
192.5700149079
 10
53.2754414009
 20
192.5184374965
 10
53.2774128577
 20
192.4748095604
 10
53.2758516988
 20
192.4405794858
 10
53.2708091867
 20
192.41688643
 10
53.262452939
 20
192.4045142547
 10
53.2510600913
 20
192.4038767238
  0
ARC
  5
44B
330
1F
100
AcDbEntity
  8
0
  6
Continuous
 62
     7
370
    15
100
AcDbCircle
 10
53.6954532307
 20
192.3176507768
 30
0.0
 40
0.4526810977273302
100
AcDbArc
 50
169.0192987361
 51
209.7800554928
  0
ARC
  5
44C
330
1F
100
AcDbEntity
  8
0
  6
Continuous
 62
     7
370
    15
100
AcDbCircle
 10
51.6024038336
 20
191.3942225212
 30
0.0
 40
1.838081694627066
100
AcDbArc
 50
7.1424805116
 51
22.3378360744
  0
LWPOLYLINE
  5
44D
330
1F
100
AcDbEntity
  8
0
  6
Continuous
 62
     7
370
    15
100
AcDbPolyline
 90
        9
 70
   128
 43
0.0
 10
53.4262220583
 20
191.6227644197
 10
53.4339618045
 20
191.5728050268
 10
53.4458540872
 20
191.5178740667
 10
53.4607413924
 20
191.4633191871
 10
53.4771743997
 20
191.4144494734
 10
53.4935516482
 20
191.3760293611
 10
53.508279757
 20
191.3517960304
 10
53.5199233741
 20
191.3441120893
 10
53.527349437
 20
191.3537239978
  0
LWPOLYLINE
  5
44E
330
1F
100
AcDbEntity
  8
0
  6
Continuous
 62
     7
370
    15
100
AcDbPolyline
 90
        9
 70
   128
 43
0.0
 10
53.527349437
 20
191.3537239978
 10
53.5348672668
 20
191.3690918162
 10
53.5455034494
 20
191.3727989601
 10
53.5589052793
 20
191.3647187608
 10
53.5746274481
 20
191.3451227254
 10
53.5921491205
 20
191.3146573667
 10
53.610888016
 20
191.2743382984
 10
53.6302222825
 20
191.2255017438
 10
53.6495106738
 20
191.1697662125
  0
LWPOLYLINE
  5
44F
330
1F
100
AcDbEntity
  8
0
  6
Continuous
 62
     7
370
    15
100
AcDbPolyline
 90
        9
 70
   128
 43
0.0
 10
53.6495106738
 20
191.1697662125
 10
53.6661075895
 20
191.1239798301
 10
53.682095467
 20
191.0900551192
 10
53.6959165364
 20
191.0712980784
 10
53.7062264384
 20
191.069532632
 10
53.7120200243
 20
191.0849311662
 10
53.7127337378
 20
191.115993745
 10
53.7082984637
 20
191.1596955018
 10
53.6991447235
 20
191.2117847442
  0
LWPOLYLINE
  5
450
330
1F
100
AcDbEntity
  8
0
  6
Continuous
 62
     7
370
    15
100
AcDbPolyline
 90
        9
 70
   128
 43
0.0
 10
53.6991447235
 20
191.2117847442
 10
53.6874212944
 20
191.2739229548
 10
53.6786957659
 20
191.3317380975
 10
53.6732565173
 20
191.3833185787
 10
53.6712854576
 20
191.426943445
 10
53.6728466165
 20
191.4611735196
 10
53.6778891286
 20
191.4848665754
 10
53.6862453763
 20
191.4972387507
 10
53.6976378269
 20
191.4978793514
  0
ARC
  5
451
330
1F
100
AcDbEntity
  8
0
  6
Continuous
 62
     7
370
    15
100
AcDbCircle
 10
53.2532517284
 20
191.5841046913
 30
0.0
 40
0.4526740701273784
100
AcDbArc
 50
349.0192044138
 51
29.7800656353
  0
ARC
  5
452
330
1F
100
AcDbEntity
  8
0
  6
Continuous
 62
     7
370
    15
100
AcDbCircle
 10
55.3463185707
 20
192.5075357311
 30
0.0
 40
1.838105867617334
100
AcDbArc
 50
187.1425810187
 51
202.3377355673
  0
LWPOLYLINE
  5
453
330
1F
100
AcDbEntity
  8
0
  6
Continuous
 62
     7
370
    15
100
AcDbPolyline
 90
        9
 70
   128
 43
0.0
 10
53.5224767615
 20
192.2789876276
 10
53.5147370153
 20
192.3289470205
 10
53.5028442282
 20
192.3838789387
 10
53.4879565258
 20
192.4384368881
 10
53.47152442
 20
192.4873025739
 10
53.4551466671
 20
192.5257236443
 10
53.4404190627
 20
192.5499560169
 10
53.4287749412
 20
192.5576409161
 10
53.4213488783
 20
192.5480290076
  0
SPLINE
  5
454
330
1F
100
AcDbEntity
  8
0
  6
Continuous
 62
     7
370
    15
100
AcDbSpline
210
0.0
220
0.0
230
1.0
 70
     8
 71
     3
 72
    10
 73
     6
 74
     0
 42
0.00000001
 43
0.00000001
 40
0.0
 40
0.0
 40
0.0
 40
0.0
 40
0.4353950228905173
 40
0.8702045787546813
 40
1.0
 40
1.0
 40
1.0
 40
1.0
 10
55.71578923012436
 20
192.0809863884453
 30
0.0
 10
55.67975026578624
 20
192.1824451685284
 30
0.0
 10
55.60772079798846
 20
192.3852262990913
 30
0.0
 10
55.49845973415872
 20
192.6469712543197
 30
0.0
 10
55.4348617811221
 20
192.7758711690426
 30
0.0
 10
55.4202414298333
 20
192.8055036012886
 30
0.0
  0
SPLINE
  5
455
330
1F
100
AcDbEntity
  8
0
  6
Continuous
 62
     7
370
    15
100
AcDbSpline
210
0.0
220
0.0
230
1.0
 70
     8
 71
     3
 72
    12
 73
     8
 74
     0
 42
0.00000001
 43
0.00000001
 40
0.0
 40
0.0
 40
0.0
 40
0.0
 40
0.2501935765735836
 40
0.5002879602447822
 40
0.7462149942104735
 40
0.9879898697865197
 40
1.0
 40
1.0
 40
1.0
 40
1.0
 10
56.15040489156824
 20
191.9996002521949
 30
0.0
 10
56.06633432883044
 20
192.1821440840633
 30
0.0
 10
55.89822653435895
 20
192.5471593756284
 30
0.0
 10
55.61512061546657
 20
193.0831226818078
 30
0.0
 10
55.3728816821999
 20
193.5110685720777
 30
0.0
 10
55.2069538833891
 20
193.7522750557559
 30
0.0
 10
55.15115821702833
 20
193.7947802765315
 30
0.0
 10
55.14851774102288
 20
193.7967917950398
 30
0.0
  0
LINE
  5
456
330
1F
100
AcDbEntity
  8
0
  6
Continuous
 62
     7
370
    15
100
AcDbLine
 10
56.1708491063
 20
191.9448772168
 30
0.0
 11
56.1504048916
 21
191.9996002522
 31
0.0
  0
LINE
  5
457
330
1F
100
AcDbEntity
  8
0
  6
Continuous
 62
     7
370
    15
100
AcDbLine
 10
56.1708491063
 20
191.9448772168
 30
0.0
 11
55.7157892301
 21
192.0809863884
 31
0.0
  0
SPLINE
  5
458
330
1F
100
AcDbEntity
  8
0
  6
Continuous
 62
     7
370
    15
100
AcDbSpline
210
0.0
220
0.0
230
1.0
 70
     8
 71
     3
 72
    11
 73
     7
 74
     0
 42
0.00000001
 43
0.00000001
 40
0.0
 40
0.0
 40
0.0
 40
0.0
 40
0.2351545337050214
 40
0.4641075317872148
 40
0.7359003421890394
 40
1.0
 40
1.0
 40
1.0
 40
1.0
 10
55.92849890210615
 20
193.3117507301107
 30
0.0
 10
55.9784043360871
 20
193.2637368724725
 30
0.0
 10
56.07689908939999
 20
193.16897538687
 30
0.0
 10
56.23154870355752
 20
192.9232269870289
 30
0.0
 10
56.3976074791502
 20
192.6320795254168
 30
0.0
 10
56.48645302742474
 20
192.4338065745793
 30
0.0
 10
56.53023807813761
 20
192.3360932802612
 30
0.0
  0
LINE
  5
459
330
1F
100
AcDbEntity
  8
0
  6
Continuous
 62
     7
370
    15
100
AcDbLine
 10
56.5302380781
 20
192.3360932803
 30
0.0
 11
56.322733324
 21
191.9825698957
 31
0.0
  0
LINE
  5
45A
330
1F
100
AcDbEntity
  8
0
  6
Continuous
 62
     7
370
    15
100
AcDbLine
 10
56.3077491857
 20
192.038647943
 30
0.0
 11
56.322733324
 21
191.9825698957
 31
0.0
  0
SPLINE
  5
45B
330
1F
100
AcDbEntity
  8
0
  6
Continuous
 62
     7
370
    15
100
AcDbSpline
210
0.0
220
0.0
230
1.0
 70
     8
 71
     3
 72
    12
 73
     8
 74
     0
 42
0.00000001
 43
0.00000001
 40
0.0
 40
0.0
 40
0.0
 40
0.0
 40
0.2060188684744902
 40
0.4119568077075579
 40
0.6144612938089997
 40
0.8135486299030374
 40
1.0
 40
1.0
 40
1.0
 40
1.0
 10
55.16325132075399
 20
193.9467662855525
 30
0.0
 10
55.24656326988135
 20
193.9230313617911
 30
0.0
 10
55.41315444116827
 20
193.8755708379256
 30
0.0
 10
55.69391475595868
 20
193.5640602030807
 30
0.0
 10
55.94060313573852
 20
193.1125912852889
 30
0.0
 10
56.16313319023055
 20
192.5795584478418
 30
0.0
 10
56.26060876911083
 20
192.2149683179348
 30
0.0
 10
56.30774918573149
 20
192.0386479429546
 30
0.0
  0
LINE
  5
45C
330
1F
100
AcDbEntity
  8
0
  6
Continuous
 62
     7
370
    15
100
AcDbLine
 10
55.1514456451
 20
193.9444807945
 30
0.0
 11
55.1632513208
 21
193.9467662856
 31
0.0
  0
LINE
  5
45D
330
1F
100
AcDbEntity
  8
0
  6
Continuous
 62
     7
370
    15
100
AcDbLine
 10
56.3213197676
 20
194.1311530303
 30
0.0
 11
56.2209237434
 21
194.2092458747
 31
0.0
  0
SPLINE
  5
45E
330
1F
100
AcDbEntity
  8
0
  6
Continuous
 62
     7
370
    15
100
AcDbSpline
210
0.0
220
0.0
230
1.0
 70
     8
 71
     3
 72
    11
 73
     7
 74
     0
 42
0.00000001
 43
0.00000001
 40
0.0
 40
0.0
 40
0.0
 40
0.0
 40
0.0414843100563665
 40
0.4205699001429909
 40
0.7996529473782703
 40
1.0
 40
1.0
 40
1.0
 40
1.0
 10
56.02831248788718
 20
193.4533062212427
 30
0.0
 10
56.03247578175031
 20
193.4564255155229
 30
0.0
 10
56.07468345211754
 20
193.4880490686725
 30
0.0
 10
56.1905451449496
 20
193.4266485587459
 30
0.0
 10
56.33494873430385
 20
193.3028467109874
 30
0.0
 10
56.42210972037577
 20
193.166296245599
 30
0.0
 10
56.45224699951849
 20
193.1190817786919
 30
0.0
  0
SPLINE
  5
45F
330
1F
100
AcDbEntity
  8
0
  6
Continuous
 62
     7
370
    15
100
AcDbSpline
210
0.0
220
0.0
230
1.0
 70
     8
 71
     3
 72
    11
 73
     7
 74
     0
 42
0.00000001
 43
0.00000001
 40
0.0
 40
0.0
 40
0.0
 40
0.0
 40
0.2340951661681002
 40
0.5616912202802672
 40
0.8962486160935745
 40
1.0
 40
1.0
 40
1.0
 40
1.0
 10
55.86803397492114
 20
191.6236115095913
 30
0.0
 10
55.86649535149958
 20
191.6275799857728
 30
0.0
 10
55.86280355691299
 20
191.6371020031023
 30
0.0
 10
55.81922110801611
 20
191.7680225705715
 30
0.0
 10
55.76380225501697
 20
191.9360278737441
 30
0.0
 10
55.72497901773908
 20
192.053241042968
 30
0.0
 10
55.71578923012436
 20
192.0809863884453
 30
0.0
  0
LINE
  5
460
330
1F
100
AcDbEntity
  8
0
  6
Continuous
 62
     7
370
    15
100
AcDbLine
 10
56.1827589289
 20
191.8934531302
 30
0.0
 11
56.1708491063
 21
191.9448772168
 31
0.0
  0
SPLINE
  5
461
330
1F
100
AcDbEntity
  8
0
  6
Continuous
 62
     7
370
    15
100
AcDbSpline
210
0.0
220
0.0
230
1.0
 70
     8
 71
     3
 72
    10
 73
     6
 74
     0
 42
0.00000001
 43
0.00000001
 40
0.0
 40
0.0
 40
0.0
 40
0.0
 40
0.3089255249683968
 40
0.6657877919048159
 40
1.0
 40
1.0
 40
1.0
 40
1.0
 10
56.26440963985647
 20
191.2116012054089
 30
0.0
 10
56.26778388412613
 20
191.2185337954776
 30
0.0
 10
56.27505596254014
 20
191.2334747228562
 30
0.0
 10
56.24503111440286
 20
191.4789737695403
 30
0.0
 10
56.20305776331148
 20
191.7583454919018
 30
0.0
 10
56.18275892887868
 20
191.8934531302002
 30
0.0
  0
SPLINE
  5
462
330
1F
100
AcDbEntity
  8
0
  6
Continuous
 62
     7
370
    15
100
AcDbSpline
210
0.0
220
0.0
230
1.0
 70
     8
 71
     3
 72
    10
 73
     6
 74
     0
 42
0.00000001
 43
0.00000001
 40
0.0
 40
0.0
 40
0.0
 40
0.0
 40
0.3946015861850466
 40
0.7890451240844868
 40
1.0
 40
1.0
 40
1.0
 40
1.0
 10
56.34008896696742
 20
191.93249728307
 30
0.0
 10
56.39392124844274
 20
191.7960863204152
 30
0.0
 10
56.50156425015267
 20
191.5233190312742
 30
0.0
 10
56.57591255751786
 20
191.3107426147608
 30
0.0
 10
56.56407787783384
 20
191.3024769247829
 30
0.0
 10
56.55995400944032
 20
191.2995966932463
 30
0.0
  0
LINE
  5
463
330
1F
100
AcDbEntity
  8
0
  6
Continuous
 62
     7
370
    15
100
AcDbLine
 10
56.322733324
 20
191.9825698957
 30
0.0
 11
56.340088967
 21
191.9324972831
 31
0.0
  0
LINE
  5
464
330
1F
100
AcDbEntity
  8
0
  6
Continuous
 62
     7
370
    15
100
AcDbLine
 10
56.1504048916
 20
191.9996002522
 30
0.0
 11
56.3077491857
 21
192.038647943
 31
0.0
  0
LINE
  5
465
330
1F
100
AcDbEntity
  8
0
  6
Continuous
 62
     7
370
    15
100
AcDbLine
 10
56.1827589289
 20
191.8934531302
 30
0.0
 11
56.340088967
 21
191.9324972831
 31
0.0
  0
LINE
  5
466
330
1F
100
AcDbEntity
  8
0
  6
Continuous
 62
     7
370
    15
100
AcDbLine
 10
53.8697826428
 20
193.9055942823
 30
0.0
 11
54.2472030973
 21
192.5671793611
 31
0.0
  0
LINE
  5
467
330
1F
100
AcDbEntity
  8
0
  6
Continuous
 62
     7
370
    15
100
AcDbLine
 10
54.2472030973
 20
192.5671793611
 30
0.0
 11
53.7963433335
 21
192.542651445
 31
0.0
  0
LINE
  5
468
330
1F
100
AcDbEntity
  8
0
  6
Continuous
 62
     7
370
    15
100
AcDbLine
 10
53.7963433335
 20
192.542651445
 30
0.0
 11
53.5031569246
 21
193.5823524802
 31
0.0
  0
LINE
  5
469
330
1F
100
AcDbEntity
  8
0
  6
Continuous
 62
     7
370
    15
100
AcDbLine
 10
53.8697826428
 20
193.9055942823
 30
0.0
 11
53.5031569246
 21
193.5823524802
 31
0.0
  0
LINE
  5
46A
330
1F
100
AcDbEntity
  8
0
  6
Continuous
 62
     7
370
    15
100
AcDbLine
 10
55.0362004017
 20
194.1950608955
 30
0.0
 11
55.4136208561
 21
192.8566459743
 31
0.0
  0
LINE
  5
46B
330
1F
100
AcDbEntity
  8
0
  6
Continuous
 62
     7
370
    15
100
AcDbLine
 10
55.4136208561
 20
192.8566459743
 30
0.0
 11
54.2472030973
 21
192.5671793611
 31
0.0
  0
LINE
  5
46C
330
1F
100
AcDbEntity
  8
0
  6
Continuous
 62
     7
370
    15
100
AcDbLine
 10
53.8697826428
 20
193.9055942823
 30
0.0
 11
55.0362004017
 21
194.1950608955
 31
0.0
  0
LINE
  5
46D
330
1F
100
AcDbEntity
  8
0
  6
Continuous
 62
     7
370
    15
100
AcDbLine
 10
44.5076038446
 20
189.2138842582
 30
0.0
 11
45.4013397426
 21
187.5164179501
 31
0.0
  0
LWPOLYLINE
  5
46E
330
1F
100
AcDbEntity
  8
0
  6
Continuous
 62
     7
370
    15
100
AcDbPolyline
 90
        9
 70
   128
 43
0.0
 10
45.4013397426
 20
187.5164179501
 10
45.4426187982
 20
187.4477250022
 10
45.4789822598
 20
187.4074098062
 10
45.5090321138
 20
187.3970242257
 10
45.5316135816
 20
187.4169663693
 10
45.5458591091
 20
187.466469984
 10
45.5512214046
 20
187.5436314334
 10
45.5474939932
 20
187.6454875977
 10
45.5348201386
 20
187.76812339
  0
LINE
  5
46F
330
1F
100
AcDbEntity
  8
0
  6
Continuous
 62
     7
370
    15
100
AcDbLine
 10
45.5348201386
 20
187.76812339
 30
0.0
 11
43.5390313121
 21
203.1962540981
 31
0.0
  0
ARC
  5
470
330
1F
100
AcDbEntity
  8
0
  6
Continuous
 62
     7
370
    15
100
AcDbCircle
 10
39.7604412761
 20
202.7179132763
 30
0.0
 40
3.808746854576871
100
AcDbArc
 50
7.2148334181
 51
24.2810633488
  0
LINE
  5
471
330
1F
100
AcDbEntity
  8
0
  6
Continuous
 62
     7
370
    15
100
AcDbLine
 10
43.232263471
 20
204.2841199196
 30
0.0
 11
41.5714738255
 21
207.4384460175
 31
0.0
  0
LWPOLYLINE
  5
472
330
1F
100
AcDbEntity
  8
0
  6
Continuous
 62
     7
370
    15
100
AcDbPolyline
 90
        9
 70
   128
 43
0.0
 10
41.5714738255
 20
207.4384460175
 10
41.53019477
 20
207.5071389654
 10
41.4938314076
 20
207.5474533939
 10
41.4637816073
 20
207.5578400303
 10
41.4412000858
 20
207.5378968308
 10
41.4269543598
 20
207.488394751
 10
41.4215922629
 20
207.4112317667
 10
41.4253194757
 20
207.3093771374
 10
41.4379936818
 20
207.1867400986
  0
LINE
  5
473
330
1F
100
AcDbEntity
  8
0
  6
Continuous
 62
     7
370
    15
100
AcDbLine
 10
41.4379936818
 20
207.1867400986
 30
0.0
 11
41.5526316291
 21
206.3005495302
 31
0.0
  0
LWPOLYLINE
  5
474
330
1F
100
AcDbEntity
  8
0
  6
Continuous
 62
     7
370
    15
100
AcDbPolyline
 90
       22
 70
   128
 43
0.0
 10
58.0106788517
 20
159.9462408805
 10
57.8865124729
 20
160.705606377
 10
57.7046177381
 20
161.5280966547
 10
57.4811559522
 20
162.3406311138
 10
57.2359816082
 20
163.0710146015
 10
56.9908806118
 20
163.6543470524
 10
56.7676308068
 20
164.0387977995
 10
56.586069359
 20
164.1902061732
 10
56.4623284937
 20
164.0951188808
 10
56.4074031155
 20
163.7619854167
 10
56.4261735522
 20
163.2204059465
 10
56.5169721107
 20
162.5185020128
 10
56.6717309606
 20
161.7186407056
 10
56.8766989465
 20
160.8918934574
 10
57.113663804
 20
160.1117205386
 10
57.3615701137
 20
159.447443675
 10
57.5983907063
 20
158.9580860952
 10
57.8030825475
 20
158.6871302441
 10
57.9574583083
 20
158.6586508819
 10
58.0477999503
 20
158.8751806964
 10
58.0660813145
 20
159.3174777718
 10
58.0106788517
 20
159.9462408805
  0
LINE
  5
475
330
1F
100
AcDbEntity
  8
0
  6
Continuous
 62
     7
370
    15
100
AcDbLine
 10
36.8646494508
 20
221.6348196725
 30
0.0
 11
36.9985232285
 21
221.3805541476
 31
0.0
  0
LINE
  5
476
330
1F
100
AcDbEntity
  8
0
  6
Continuous
 62
     7
370
    15
100
AcDbLine
 10
36.5714626448
 20
222.6745237776
 30
0.0
 11
36.8646494508
 21
221.6348196725
 31
0.0
  0
LINE
  5
477
330
1F
100
AcDbEntity
  8
0
  6
Continuous
 62
     7
370
    15
100
AcDbLine
 10
36.1284510467
 20
226.0991550561
 30
0.0
 11
36.5714626448
 21
222.6745237776
 31
0.0
  0
LINE
  5
478
330
1F
100
AcDbEntity
  8
0
  6
Continuous
 62
     7
370
    15
100
AcDbLine
 10
36.2560226148
 20
226.3397134238
 30
0.0
 11
36.1284510467
 21
226.0991550561
 31
0.0
  0
LINE
  5
479
330
1F
100
AcDbEntity
  8
0
  6
Continuous
 62
     7
370
    15
100
AcDbLine
 10
53.5031569246
 20
193.5823524802
 30
0.0
 11
36.2560226148
 21
226.3397134238
 31
0.0
  0
LINE
  5
47A
330
1F
100
AcDbEntity
  8
0
  6
Continuous
 62
     7
370
    15
100
AcDbLine
 10
54.2393549316
 20
189.1180201664
 30
0.0
 11
53.7963433335
 21
192.542651445
 31
0.0
  0
LINE
  5
47B
330
1F
100
AcDbEntity
  8
0
  6
Continuous
 62
     7
370
    15
100
AcDbLine
 10
54.1117837606
 20
188.877458729
 30
0.0
 11
54.2393549316
 21
189.1180201664
 31
0.0
  0
LINE
  5
47C
330
1F
100
AcDbEntity
  8
0
  6
Continuous
 62
     7
370
    15
100
AcDbLine
 10
53.9779099829
 20
189.1317242538
 30
0.0
 11
54.1117837606
 21
188.877458729
 31
0.0
  0
LWPOLYLINE
  5
47D
330
1F
100
AcDbEntity
  8
0
  6
Continuous
 62
     7
370
    15
100
AcDbPolyline
 90
       18
 70
   128
 43
0.0
 10
53.9779099829
 20
189.1317242538
 10
54.0865139145
 20
189.2844403615
 10
54.1243033803
 20
189.6709830362
 10
54.0879068988
 20
190.2568741314
 10
53.9805713356
 20
190.9898529489
 10
53.8118718654
 20
191.804530314
 10
53.5968556898
 20
192.628243157
 10
53.3547034289
 20
193.3875079389
 10
53.1070152899
 20
194.0146008923
 10
52.8758849276
 20
194.4535851646
 10
52.6819300377
 20
194.6653017109
 10
52.5424511311
 20
194.6308663226
 10
52.4698910082
 20
194.3533451215
 10
52.4707211107
 20
193.8575008664
 10
52.5448681968
 20
193.1875566902
 10
52.6857171777
 20
192.4032796972
 10
52.8807050887
 20
191.5746245873
 10
53.1124384174
 20
190.7755083136
  0
LINE
  5
47E
330
1F
100
AcDbEntity
  8
0
  6
Continuous
 62
     7
370
    15
100
AcDbLine
 10
53.0149548324
 20
190.9606582014
 30
0.0
 11
53.1124384174
 21
190.7755083136
 31
0.0
  0
LINE
  5
47F
330
1F
100
AcDbEntity
  8
0
  6
Continuous
 62
     7
370
    15
100
AcDbLine
 10
52.3214100857
 20
189.6528401705
 30
0.0
 11
53.0149548324
 21
190.9606582014
 31
0.0
  0
LINE
  5
480
330
1F
100
AcDbEntity
  8
0
  6
Continuous
 62
     7
370
    15
100
AcDbLine
 10
53.3997263175
 20
181.3170866333
 30
0.0
 11
52.3214100857
 21
189.6528401705
 31
0.0
  0
LINE
  5
481
330
1F
100
AcDbEntity
  8
0
  6
Continuous
 62
     7
370
    15
100
AcDbLine
 10
54.9936452989
 20
175.6647036673
 30
0.0
 11
53.3997263175
 21
181.3170866333
 31
0.0
  0
LINE
  5
482
330
1F
100
AcDbEntity
  8
0
  6
Continuous
 62
     7
370
    15
100
AcDbLine
 10
56.0904742271
 20
173.5815041949
 30
0.0
 11
54.9936452989
 21
175.6647036673
 31
0.0
  0
LINE
  5
483
330
1F
100
AcDbEntity
  8
0
  6
Continuous
 62
     7
370
    15
100
AcDbLine
 10
56.3836608346
 20
172.5418016247
 30
0.0
 11
56.0904742271
 21
173.5815041949
 31
0.0
  0
LINE
  5
484
330
1F
100
AcDbEntity
  8
0
  6
Continuous
 62
     7
370
    15
100
AcDbLine
 10
58.2878246873
 20
157.821963323
 30
0.0
 11
56.3836608346
 21
172.5418016247
 31
0.0
  0
LINE
  5
485
330
1F
100
AcDbEntity
  8
0
  6
Continuous
 62
     7
370
    15
100
AcDbLine
 10
58.1602534356
 20
157.5814025092
 30
0.0
 11
58.2878246873
 21
157.821963323
 31
0.0
  0
LINE
  5
486
330
1F
100
AcDbEntity
  8
0
  6
Continuous
 62
     7
370
    15
100
AcDbLine
 10
41.8397930439
 20
188.5787381948
 30
0.0
 11
58.1602534356
 21
157.5814025092
 31
0.0
  0
LINE
  5
487
330
1F
100
AcDbEntity
  8
0
  6
Continuous
 62
     7
370
    15
100
AcDbLine
 10
38.7157685478
 20
206.0983052359
 30
0.0
 11
38.782171264
 21
205.5849895125
 31
0.0
  0
LINE
  5
488
330
1F
100
AcDbEntity
  8
0
  6
Continuous
 62
     7
370
    15
100
AcDbLine
 10
38.8433399173
 20
206.3388651384
 30
0.0
 11
38.7157685478
 21
206.0983052359
 31
0.0
  0
LINE
  5
489
330
1F
100
AcDbEntity
  8
0
  6
Continuous
 62
     7
370
    15
100
AcDbLine
 10
39.1854265946
 20
205.6891423171
 30
0.0
 11
38.8433399173
 21
206.3388651384
 31
0.0
  0
LWPOLYLINE
  5
48A
330
1F
100
AcDbEntity
  8
0
  6
Continuous
 62
     7
370
    15
100
AcDbPolyline
 90
        3
 70
   128
 43
0.0
 10
40.5462339484
 20
206.239731284
 10
40.5643513469
 20
206.0846144458
 10
40.5681731107
 20
206.0462818614
  0
LINE
  5
48B
330
1F
100
AcDbEntity
  8
0
  6
Continuous
 62
     7
370
    15
100
AcDbLine
 10
39.642876607
 20
213.2229927167
 30
0.0
 11
40.5462339484
 21
206.239731284
 31
0.0
  0
ARC
  5
48C
330
1F
100
AcDbEntity
  8
0
  6
Continuous
 62
     7
370
    15
100
AcDbCircle
 10
29.1818006173
 20
211.7750088158
 30
0.0
 40
10.56081285884025
100
AcDbArc
 50
7.880598603
 51
15.9431705391
  0
LINE
  5
48D
330
1F
100
AcDbEntity
  8
0
  6
Continuous
 62
     7
370
    15
100
AcDbLine
 10
38.180488677
 20
218.7749621061
 30
0.0
 11
39.3363877653
 21
214.675892835
 31
0.0
  0
ARC
  5
48E
330
1F
100
AcDbEntity
  8
0
  6
Continuous
 62
     7
370
    15
100
AcDbCircle
 10
30.3555665364
 20
216.6309329765
 30
0.0
 40
8.113338857430046
100
AcDbArc
 50
15.322973366
 51
22.4952994436
  0
LWPOLYLINE
  5
48F
330
1F
100
AcDbEntity
  8
0
  6
Continuous
 62
     7
370
    15
100
AcDbPolyline
 90
       18
 70
   128
 43
0.0
 10
37.8515689436
 20
219.7351583754
 10
37.9663254737
 20
219.8680241586
 10
38.0101170814
 20
220.2390151711
 10
37.9789978077
 20
220.8147026874
 10
37.8757713672
 20
221.5432161444
 10
37.7097390945
 20
222.3589153816
 10
37.4958613602
 20
223.1882996006
 10
37.2534079188
 20
223.9566461715
 10
37.0042256709
 20
224.5947184571
 10
36.7707667157
 20
225.0450235244
 10
36.5740660208
 20
225.2669915471
 10
36.4318464567
 20
225.240623528
 10
36.3569236413
 20
224.9682890776
 10
36.3560477285
 20
224.4745318862
 10
36.4292981418
 20
223.8038362387
 10
36.5700734356
 20
223.0166403171
 10
36.7656910284
 20
222.1838646784
 10
36.9985232285
 20
221.3805541476
  0
LINE
  5
490
330
1F
100
AcDbEntity
  8
0
  6
Continuous
 62
     7
370
    15
100
AcDbLine
 10
54.2472030973
 20
192.5671793611
 30
0.0
 11
54.723860422
 21
188.8824551
 31
0.0
  0
LINE
  5
491
330
1F
100
AcDbEntity
  8
0
  6
Continuous
 62
     7
370
    15
100
AcDbLine
 10
54.723860422
 20
188.8824551
 30
0.0
 11
54.2393549316
 21
189.1180201664
 31
0.0
  0
LINE
  5
492
330
1F
100
AcDbEntity
  8
0
  6
Continuous
 62
     7
370
    15
100
AcDbLine
 10
54.723860422
 20
188.8824551
 30
0.0
 11
55.8902781809
 21
189.1719217133
 31
0.0
  0
LINE
  5
493
330
1F
100
AcDbEntity
  8
0
  6
Continuous
 62
     7
370
    15
100
AcDbLine
 10
55.4136208561
 20
192.8566459743
 30
0.0
 11
55.8902781809
 21
189.1719217133
 31
0.0
  0
ELLIPSE
  5
494
330
1F
100
AcDbEntity
  8
0
  6
Continuous
 62
     7
370
    15
100
AcDbEllipse
 10
32.4262008101
 20
201.6048697644
 30
0.0
 11
21.5082419543066
 21
-12.58113632988127
 31
0.0
210
0.0
220
0.0
230
0.9999999999999996
 40
0.1251030762
 41
0.2825550748411065
 42
0.3596261178847837
  0
ELLIPSE
  5
495
330
1F
100
AcDbEntity
  8
0
  6
Continuous
 62
     7
370
    15
100
AcDbEllipse
 10
32.4262008101
 20
201.6048697644
 30
0.0
 11
21.5082419543066
 21
-12.58113632988127
 31
0.0
210
0.0
220
0.0
230
0.9999999999999996
 40
0.1251030762
 41
0.0369507284917989
 42
0.114021771535041
  0
LINE
  5
496
330
1F
100
AcDbEntity
  8
0
  6
Continuous
 62
     7
370
    15
100
AcDbLine
 10
36.5371670194
 20
226.825309284
 30
0.0
 11
53.8697826428
 21
193.9055942823
 31
0.0
  0
LINE
  5
497
330
1F
100
AcDbEntity
  8
0
  6
Continuous
 62
     7
370
    15
100
AcDbLine
 10
36.5371670194
 20
226.825309284
 30
0.0
 11
36.2560226148
 21
226.3397134238
 31
0.0
  0
LINE
  5
498
330
1F
100
AcDbEntity
  8
0
  6
Continuous
 62
     7
370
    15
100
AcDbLine
 10
37.7035847782
 20
227.1147758972
 30
0.0
 11
36.5371670194
 21
226.825309284
 31
0.0
  0
LINE
  5
499
330
1F
100
AcDbEntity
  8
0
  6
Continuous
 62
     7
370
    15
100
AcDbLine
 10
37.7035847782
 20
227.1147758972
 30
0.0
 11
55.0362004017
 21
194.1950608955
 31
0.0
  0
LINE
  5
49A
330
1F
100
AcDbEntity
  8
0
  6
Continuous
 62
     7
370
    15
100
AcDbLine
 10
54.723860422
 20
188.8824551
 30
0.0
 11
54.5596379812
 21
188.5727764064
 31
0.0
  0
LINE
  5
49B
330
1F
100
AcDbEntity
  8
0
  6
Continuous
 62
     7
370
    15
100
AcDbLine
 10
54.5596379812
 20
188.5727764064
 30
0.0
 11
54.1117837606
 21
188.877458729
 31
0.0
  0
LINE
  5
49C
330
1F
100
AcDbEntity
  8
0
  6
Continuous
 62
     7
370
    15
100
AcDbLine
 10
55.72605574
 20
188.8622430196
 30
0.0
 11
54.5596379812
 21
188.5727764064
 31
0.0
  0
LINE
  5
49D
330
1F
100
AcDbEntity
  8
0
  6
Continuous
 62
     7
370
    15
100
AcDbLine
 10
55.8902781809
 20
189.1719217133
 30
0.0
 11
55.72605574
 21
188.8622430196
 31
0.0
  0
LINE
  5
49E
330
1F
100
AcDbEntity
  8
0
  6
Continuous
 62
     7
370
    15
100
AcDbLine
 10
53.3660687959
 20
190.4735581396
 30
0.0
 11
52.8059154688
 21
189.4172729924
 31
0.0
  0
LINE
  5
49F
330
1F
100
AcDbEntity
  8
0
  6
Continuous
 62
     7
370
    15
100
AcDbLine
 10
52.8059154688
 20
189.4172729924
 30
0.0
 11
52.3214100857
 21
189.6528401705
 31
0.0
  0
LINE
  5
4A0
330
1F
100
AcDbEntity
  8
0
  6
Continuous
 62
     7
370
    15
100
AcDbLine
 10
53.7986372161
 20
189.6636339552
 30
0.0
 11
52.8059154688
 21
189.4172729924
 31
0.0
  0
LINE
  5
4A1
330
1F
100
AcDbEntity
  8
0
  6
Continuous
 62
     7
370
    15
100
AcDbLine
 10
52.8059154688
 20
189.4172729924
 30
0.0
 11
53.8505853784
 21
181.3416170424
 31
0.0
  0
LINE
  5
4A2
330
1F
100
AcDbEntity
  8
0
  6
Continuous
 62
     7
370
    15
100
AcDbLine
 10
53.8505853784
 20
181.3416170424
 30
0.0
 11
53.3997263175
 21
181.3170866333
 31
0.0
  0
LINE
  5
4A3
330
1F
100
AcDbEntity
  8
0
  6
Continuous
 62
     7
370
    15
100
AcDbLine
 10
55.0170031372
 20
181.6310836556
 30
0.0
 11
53.8505853784
 21
181.3416170424
 31
0.0
  0
LINE
  5
4A4
330
1F
100
AcDbEntity
  8
0
  6
Continuous
 62
     7
370
    15
100
AcDbLine
 10
54.0691324986
 20
188.9584481103
 30
0.0
 11
55.0170031372
 21
181.6310836556
 31
0.0
  0
LINE
  5
4A5
330
1F
100
AcDbEntity
  8
0
  6
Continuous
 62
     7
370
    15
100
AcDbLine
 10
56.4570999454
 20
173.9047459969
 30
0.0
 11
56.8345205984
 21
172.5663295408
 31
0.0
  0
LINE
  5
4A6
330
1F
100
AcDbEntity
  8
0
  6
Continuous
 62
     7
370
    15
100
AcDbLine
 10
56.8345205984
 20
172.5663295408
 30
0.0
 11
56.3836608346
 21
172.5418016247
 31
0.0
  0
LINE
  5
4A7
330
1F
100
AcDbEntity
  8
0
  6
Continuous
 62
     7
370
    15
100
AcDbLine
 10
56.4570999454
 20
173.9047459969
 30
0.0
 11
56.0904742271
 21
173.5815041949
 31
0.0
  0
LINE
  5
4A8
330
1F
100
AcDbEntity
  8
0
  6
Continuous
 62
     7
370
    15
100
AcDbLine
 10
58.0009383572
 20
172.8557961541
 30
0.0
 11
56.8345205984
 21
172.5663295408
 31
0.0
  0
LINE
  5
4A9
330
1F
100
AcDbEntity
  8
0
  6
Continuous
 62
     7
370
    15
100
AcDbLine
 10
56.4570999454
 20
173.9047459969
 30
0.0
 11
57.6235177042
 21
174.1942126102
 31
0.0
  0
LINE
  5
4AA
330
1F
100
AcDbEntity
  8
0
  6
Continuous
 62
     7
370
    15
100
AcDbLine
 10
57.6235177042
 20
174.1942126102
 30
0.0
 11
58.0009383572
 21
172.8557961541
 31
0.0
  0
LINE
  5
4AB
330
1F
100
AcDbEntity
  8
0
  6
Continuous
 62
     7
370
    15
100
AcDbLine
 10
56.8345205984
 20
172.5663295408
 30
0.0
 11
58.772330277
 21
157.5863974892
 31
0.0
  0
LINE
  5
4AC
330
1F
100
AcDbEntity
  8
0
  6
Continuous
 62
     7
370
    15
100
AcDbLine
 10
58.772330277
 20
157.5863974892
 30
0.0
 11
58.2878246873
 21
157.821963323
 31
0.0
  0
LINE
  5
4AD
330
1F
100
AcDbEntity
  8
0
  6
Continuous
 62
     7
370
    15
100
AcDbLine
 10
58.772330277
 20
157.5863974892
 30
0.0
 11
59.9387480358
 21
157.8758641024
 31
0.0
  0
LINE
  5
4AE
330
1F
100
AcDbEntity
  8
0
  6
Continuous
 62
     7
370
    15
100
AcDbLine
 10
58.0009383572
 20
172.8557961541
 30
0.0
 11
59.9387480358
 21
157.8758641024
 31
0.0
  0
LINE
  5
4AF
330
1F
100
AcDbEntity
  8
0
  6
Continuous
 62
     7
370
    15
100
AcDbLine
 10
55.3602700083
 20
175.9879473855
 30
0.0
 11
56.4570999454
 21
173.9047459969
 31
0.0
  0
LINE
  5
4B0
330
1F
100
AcDbEntity
  8
0
  6
Continuous
 62
     7
370
    15
100
AcDbLine
 10
55.3602700083
 20
175.9879473855
 30
0.0
 11
54.9936452989
 21
175.6647036673
 31
0.0
  0
LINE
  5
4B1
330
1F
100
AcDbEntity
  8
0
  6
Continuous
 62
     7
370
    15
100
AcDbLine
 10
56.5266877671
 20
176.2774139988
 30
0.0
 11
55.3602700083
 21
175.9879473855
 31
0.0
  0
LINE
  5
4B2
330
1F
100
AcDbEntity
  8
0
  6
Continuous
 62
     7
370
    15
100
AcDbLine
 10
56.5266877671
 20
176.2774139988
 30
0.0
 11
57.6235177042
 21
174.1942126102
 31
0.0
  0
LINE
  5
4B3
330
1F
100
AcDbEntity
  8
0
  6
Continuous
 62
     7
370
    15
100
AcDbLine
 10
53.8505853784
 20
181.3416170424
 30
0.0
 11
55.3602700083
 21
175.9879473855
 31
0.0
  0
LINE
  5
4B4
330
1F
100
AcDbEntity
  8
0
  6
Continuous
 62
     7
370
    15
100
AcDbLine
 10
55.0170031372
 20
181.6310836556
 30
0.0
 11
56.5266877671
 21
176.2774139988
 31
0.0
  0
LINE
  5
4B5
330
1F
100
AcDbEntity
  8
0
  6
Continuous
 62
     7
370
    15
100
AcDbLine
 10
58.772330277
 20
157.5863974892
 30
0.0
 11
58.6081076221
 21
157.2767204504
 31
0.0
  0
LINE
  5
4B6
330
1F
100
AcDbEntity
  8
0
  6
Continuous
 62
     7
370
    15
100
AcDbLine
 10
58.1602534356
 20
157.5814025092
 30
0.0
 11
58.6081076221
 21
157.2767204504
 31
0.0
  0
LINE
  5
4B7
330
1F
100
AcDbEntity
  8
0
  6
Continuous
 62
     7
370
    15
100
AcDbLine
 10
59.7745253809
 20
157.5661870636
 30
0.0
 11
58.6081076221
 21
157.2767204504
 31
0.0
  0
LINE
  5
4B8
330
1F
100
AcDbEntity
  8
0
  6
Continuous
 62
     7
370
    15
100
AcDbLine
 10
59.9387480358
 20
157.8758641024
 30
0.0
 11
59.7745253809
 21
157.5661870636
 31
0.0
  0
LINE
  5
4B9
330
1F
100
AcDbEntity
  8
0
  6
Continuous
 62
     7
370
    15
100
AcDbLine
 10
37.876810091
 20
219.8978251223
 30
0.0
 11
37.8515689436
 21
219.7351583754
 31
0.0
  0
ELLIPSE
  5
4BA
330
1F
100
AcDbEntity
  8
0
  6
Continuous
 62
     7
370
    15
100
AcDbEllipse
 10
16.312285488
 20
232.2099158513
 30
0.0
 11
21.50824195430669
 21
-12.5811363298813
 31
0.0
210
0.0
220
0.0
230
1.0
 40
0.1251030762
 41
0.2825550748389455
 42
0.3596261178847848
  0
ELLIPSE
  5
4BB
330
1F
100
AcDbEntity
  8
0
  6
Continuous
 62
     7
370
    15
100
AcDbEllipse
 10
16.312285488
 20
232.2099158513
 30
0.0
 11
21.50824195430669
 21
-12.5811363298813
 31
0.0
210
0.0
220
0.0
230
1.0
 40
0.1251030762
 41
0.0837134834019986
 42
0.1140217715398026
  0
LINE
  5
4BC
330
1F
100
AcDbEntity
  8
0
  6
Continuous
 62
     7
370
    15
100
AcDbLine
 10
38.8433399173
 20
206.3388651384
 30
0.0
 11
39.1244843219
 21
206.8244609986
 31
0.0
  0
LINE
  5
4BD
330
1F
100
AcDbEntity
  8
0
  6
Continuous
 62
     7
370
    15
100
AcDbLine
 10
39.1244843219
 20
206.8244609986
 30
0.0
 11
39.6579808197
 21
205.8111948508
 31
0.0
  0
LINE
  5
4BE
330
1F
100
AcDbEntity
  8
0
  6
Continuous
 62
     7
370
    15
100
AcDbLine
 10
40.2909020807
 20
207.1139276118
 30
0.0
 11
39.1244843219
 21
206.8244609986
 31
0.0
  0
LINE
  5
4BF
330
1F
100
AcDbEntity
  8
0
  6
Continuous
 62
     7
370
    15
100
AcDbLine
 10
40.2909020807
 20
207.1139276118
 30
0.0
 11
40.4794678376
 21
206.7557859954
 31
0.0
  0
LINE
  5
4C0
330
1F
100
AcDbEntity
  8
0
  6
Continuous
 62
     7
370
    15
100
AcDbLine
 10
55.1958740187
 20
196.1987521619
 30
0.0
 11
40.679809569
 21
223.7690113201
 31
0.0
  0
LINE
  5
4C1
330
1F
100
AcDbEntity
  8
0
  6
Continuous
 62
     7
370
    15
100
AcDbLine
 10
185.1445419592
 20
257.1514080889
 30
0.0
 11
196.747260218
 21
235.1144468694
 31
0.0
  0
LINE
  5
4C2
330
1F
100
AcDbEntity
  8
0
  6
Continuous
 62
     7
370
    15
100
AcDbLine
 10
38.3925222671
 20
202.2346430924
 30
0.0
 11
38.717508747
 21
201.6173985558
 31
0.0
  0
ARC
  5
4C3
330
1F
100
AcDbEntity
  8
0
  6
Continuous
 62
     7
370
    15
100
AcDbCircle
 10
38.2903611904
 20
201.4247047537
 30
0.0
 40
0.4685999748906544
100
AcDbArc
 50
7.2149322243
 51
24.2809759724
  0
LINE
  5
4C4
330
1F
100
AcDbEntity
  8
0
  6
Continuous
 62
     7
370
    15
100
AcDbLine
 10
38.819210276
 20
200.9891283653
 30
0.0
 11
38.7552507925
 21
201.4835570637
 31
0.0
  0
LWPOLYLINE
  5
4C5
330
1F
100
AcDbEntity
  8
0
  6
Continuous
 62
     7
370
    15
100
AcDbPolyline
 90
        9
 70
   128
 43
0.0
 10
38.819210276
 20
200.9891283653
 10
38.820769617
 20
200.9740400238
 10
38.8212281944
 20
200.9615089443
 10
38.8205683858
 20
200.9520155042
 10
38.8188157093
 20
200.9459257258
 10
38.8160375521
 20
200.943471694
 10
38.8123403259
 20
200.9447500118
 10
38.8078666443
 20
200.9497097943
 10
38.8027879922
 20
200.9581608029
  0
LINE
  5
4C6
330
1F
100
AcDbEntity
  8
0
  6
Continuous
 62
     7
370
    15
100
AcDbLine
 10
38.8027879922
 20
200.9581608029
 30
0.0
 11
38.4778015123
 21
201.5754053394
 31
0.0
  0
LINE
  5
4C7
330
1F
100
AcDbEntity
  8
0
  6
Continuous
 62
     7
370
    15
100
AcDbLine
 10
38.3925222671
 20
202.2346430924
 30
0.0
 11
38.4778015123
 21
201.5754053394
 31
0.0
  0
LINE
  5
4C8
330
1F
100
AcDbEntity
  8
0
  6
Continuous
 62
     7
370
    15
100
AcDbLine
 10
40.9657772308
 20
202.1753450195
 30
0.0
 11
38.717508747
 21
201.6173985558
 31
0.0
  0
ARC
  5
4C9
330
1F
100
AcDbEntity
  8
0
  6
Continuous
 62
     7
370
    15
100
AcDbCircle
 10
40.5386296742
 20
201.9826512174
 30
0.0
 40
0.4685999748904205
100
AcDbArc
 50
7.2149322243
 51
24.2809759724
  0
LINE
  5
4CA
330
1F
100
AcDbEntity
  8
0
  6
Continuous
 62
     7
370
    15
100
AcDbLine
 10
41.0035192762
 20
202.0415035273
 30
0.0
 11
38.7552507925
 21
201.4835570637
 31
0.0
  0
LINE
  5
4CB
330
1F
100
AcDbEntity
  8
0
  6
Continuous
 62
     7
370
    15
100
AcDbLine
 10
41.0035192762
 20
202.0415035273
 30
0.0
 11
41.0674787598
 21
201.5470748289
 31
0.0
  0
LINE
  5
4CC
330
1F
100
AcDbEntity
  8
0
  6
Continuous
 62
     7
370
    15
100
AcDbLine
 10
38.819210276
 20
200.9891283653
 30
0.0
 11
41.0674787598
 21
201.5470748289
 31
0.0
  0
LINE
  5
4CD
330
1F
100
AcDbEntity
  8
0
  6
Continuous
 62
     7
370
    15
100
AcDbLine
 10
38.3925222671
 20
202.2346430924
 30
0.0
 11
40.6407907509
 21
202.792589556
 31
0.0
  0
LINE
  5
4CE
330
1F
100
AcDbEntity
  8
0
  6
Continuous
 62
     7
370
    15
100
AcDbLine
 10
40.9657772308
 20
202.1753450195
 30
0.0
 11
40.6407907509
 21
202.792589556
 31
0.0
  0
LWPOLYLINE
  5
4CF
330
1F
100
AcDbEntity
  8
0
  6
Continuous
 62
     7
370
    15
100
AcDbPolyline
 90
        6
 70
   128
 43
0.0
 10
41.0674787598
 20
201.5470748289
 10
41.0690381007
 20
201.5319864874
 10
41.0694966782
 20
201.5194554079
 10
41.0688368695
 20
201.5099619678
 10
41.0670841931
 20
201.5038721894
 10
41.0644825227
 20
201.5014569237
  0
LINE
  5
4D0
330
1F
100
AcDbEntity
  8
0
  6
Continuous
 62
     7
370
    15
100
AcDbLine
 10
36.9363785836
 20
205.108253634
 30
0.0
 11
38.0467490986
 21
202.999334721
 31
0.0
  0
LINE
  5
4D1
330
1F
100
AcDbEntity
  8
0
  6
Continuous
 62
     7
370
    15
100
AcDbLine
 10
42.0966086112
 20
206.4410490173
 30
0.0
 11
36.9363785836
 21
205.108253634
 31
0.0
  0
LINE
  5
4D2
330
1F
100
AcDbEntity
  8
0
  6
Continuous
 62
     7
370
    15
100
AcDbLine
 10
43.2069791262
 20
204.3321301043
 30
0.0
 11
38.0467490986
 21
202.999334721
 31
0.0
  0
LINE
  5
4D3
330
1F
100
AcDbEntity
  8
0
  6
Continuous
 62
     7
370
    15
100
AcDbLine
 10
43.6981230599
 20
201.96641033
 30
0.0
 11
38.3452263574
 21
200.6920033533
 31
0.0
  0
LINE
  5
4D4
330
1F
100
AcDbEntity
  8
0
  6
Continuous
 62
     7
370
    15
100
AcDbLine
 10
38.0467490986
 20
202.999334721
 30
0.0
 11
38.3452263574
 21
200.6920033533
 31
0.0
  0
LINE
  5
4D5
330
1F
100
AcDbEntity
  8
0
  6
Continuous
 62
     7
370
    15
100
AcDbLine
 10
38.3452263574
 20
200.6920033533
 30
0.0
 11
37.2348558424
 21
202.8009222662
 31
0.0
  0
LINE
  5
4D6
330
1F
100
AcDbEntity
  8
0
  6
Continuous
 62
     7
370
    15
100
AcDbLine
 10
37.1867459003
 20
203.1728285852
 30
0.0
 11
37.2348558424
 21
202.8009222662
 31
0.0
  0
ARC
  5
4D7
330
1F
100
AcDbEntity
  8
0
  6
Continuous
 62
     7
370
    15
100
AcDbCircle
 10
34.8586071103
 20
203.4130953349
 30
0.0
 40
2.340503863801676
100
AcDbArc
 50
354.107864955
 51
9.5220395502
  0
ARC
  5
4D8
330
1F
100
AcDbEntity
  8
0
  6
Continuous
 62
     7
370
    15
100
AcDbCircle
 10
28.8540041937
 20
202.6664784173
 30
0.0
 40
8.389823164292855
100
AcDbArc
 50
7.7667065476
 51
14.2830220683
  0
LINE
  5
4D9
330
1F
100
AcDbEntity
  8
0
  6
Continuous
 62
     7
370
    15
100
AcDbLine
 10
36.9363785836
 20
205.108253634
 30
0.0
 11
36.9844885257
 21
204.736347315
 31
0.0
  0
LWPOLYLINE
  5
4DA
330
1F
100
AcDbEntity
  8
0
  6
Continuous
 62
     7
370
    15
100
AcDbPolyline
 90
        9
 70
   128
 43
0.0
 10
37.8980833134
 20
202.4114773763
 10
37.8489563475
 20
202.6950794571
 10
37.7743241004
 20
202.9981533089
 10
37.6855492559
 20
203.274556502
 10
37.5961464454
 20
203.4822102713
 10
37.5197266757
 20
203.5895021627
 10
37.4679241665
 20
203.5800965492
 10
37.4486248814
 20
203.4554261961
 10
37.4647679229
 20
203.2344702513
  0
LWPOLYLINE
  5
4DB
330
1F
100
AcDbEntity
  8
0
  6
Continuous
 62
     7
370
    15
100
AcDbPolyline
 90
        9
 70
   128
 43
0.0
 10
37.4647679229
 20
203.2344702513
 10
37.5138948351
 20
202.9508671146
 10
37.5885271359
 20
202.6477943186
 10
37.677302179
 20
202.3713895906
 10
37.7667047372
 20
202.1637363004
 10
37.8431247591
 20
202.0564439299
 10
37.8949270697
 20
202.0658510783
 10
37.9142263012
 20
202.1905203755
 10
37.8980833134
 20
202.4114773763
  0
ARC
  5
4DC
330
1F
100
AcDbEntity
  8
0
  6
Continuous
 62
     7
370
    15
100
AcDbCircle
 10
38.6965033052
 20
198.2850872002
 30
0.0
 40
0.4685999748899974
100
AcDbArc
 50
7.2149322243
 51
24.2809759724
  0
LINE
  5
4DD
330
1F
100
AcDbEntity
  8
0
  6
Continuous
 62
     7
370
    15
100
AcDbLine
 10
41.3719193455
 20
199.035727466
 30
0.0
 11
39.1236508618
 21
198.4777810023
 31
0.0
  0
ARC
  5
4DE
330
1F
100
AcDbEntity
  8
0
  6
Continuous
 62
     7
370
    15
100
AcDbCircle
 10
40.944771789
 20
198.8430336638
 30
0.0
 40
0.4685999748906557
100
AcDbArc
 50
7.2149322243
 51
24.2809759724
  0
LINE
  5
4DF
330
1F
100
AcDbEntity
  8
0
  6
Continuous
 62
     7
370
    15
100
AcDbLine
 10
41.409661391
 20
198.9018859738
 30
0.0
 11
39.1613929072
 21
198.3439395102
 31
0.0
  0
LINE
  5
4E0
330
1F
100
AcDbEntity
  8
0
  6
Continuous
 62
     7
370
    15
100
AcDbLine
 10
38.7986643819
 20
199.0950255389
 30
0.0
 11
39.1236508618
 21
198.4777810023
 31
0.0
  0
LINE
  5
4E1
330
1F
100
AcDbEntity
  8
0
  6
Continuous
 62
     7
370
    15
100
AcDbLine
 10
39.2253523907
 20
197.8495108118
 30
0.0
 11
39.1613929072
 21
198.3439395102
 31
0.0
  0
LWPOLYLINE
  5
4E2
330
1F
100
AcDbEntity
  8
0
  6
Continuous
 62
     7
370
    15
100
AcDbPolyline
 90
        9
 70
   128
 43
0.0
 10
39.2253523907
 20
197.8495108118
 10
39.2269117317
 20
197.8344224703
 10
39.2273703092
 20
197.8218913908
 10
39.2267105005
 20
197.8123979506
 10
39.2249578241
 20
197.8063081722
 10
39.2221796669
 20
197.8038541405
 10
39.2184824406
 20
197.8051324583
 10
39.2140087591
 20
197.8100922408
 10
39.208930107
 20
197.8185432494
  0
LINE
  5
4E3
330
1F
100
AcDbEntity
  8
0
  6
Continuous
 62
     7
370
    15
100
AcDbLine
 10
39.208930107
 20
197.8185432494
 30
0.0
 11
38.8839436271
 21
198.4357877859
 31
0.0
  0
LINE
  5
4E4
330
1F
100
AcDbEntity
  8
0
  6
Continuous
 62
     7
370
    15
100
AcDbLine
 10
38.7986643819
 20
199.0950255389
 30
0.0
 11
38.8839436271
 21
198.4357877859
 31
0.0
  0
LINE
  5
4E5
330
1F
100
AcDbEntity
  8
0
  6
Continuous
 62
     7
370
    15
100
AcDbLine
 10
39.2253523907
 20
197.8495108118
 30
0.0
 11
41.4736208745
 21
198.4074572754
 31
0.0
  0
LINE
  5
4E6
330
1F
100
AcDbEntity
  8
0
  6
Continuous
 62
     7
370
    15
100
AcDbLine
 10
41.409661391
 20
198.9018859738
 30
0.0
 11
41.4736208745
 21
198.4074572754
 31
0.0
  0
LINE
  5
4E7
330
1F
100
AcDbEntity
  8
0
  6
Continuous
 62
     7
370
    15
100
AcDbLine
 10
38.7986643819
 20
199.0950255389
 30
0.0
 11
41.0469328657
 21
199.6529720025
 31
0.0
  0
LINE
  5
4E8
330
1F
100
AcDbEntity
  8
0
  6
Continuous
 62
     7
370
    15
100
AcDbLine
 10
41.3719193455
 20
199.035727466
 30
0.0
 11
41.0469328657
 21
199.6529720025
 31
0.0
  0
LWPOLYLINE
  5
4E9
330
1F
100
AcDbEntity
  8
0
  6
Continuous
 62
     7
370
    15
100
AcDbPolyline
 90
        6
 70
   128
 43
0.0
 10
41.4736208745
 20
198.4074572754
 10
41.4751802155
 20
198.3923689339
 10
41.4756387929
 20
198.3798378544
 10
41.4749789843
 20
198.3703444143
 10
41.4732263078
 20
198.3642546359
 10
41.4706248361
 20
198.3618378352
  0
LINE
  5
4EA
330
1F
100
AcDbEntity
  8
0
  6
Continuous
 62
     7
370
    15
100
AcDbLine
 10
44.1042651747
 20
198.8267927765
 30
0.0
 11
38.7513684722
 21
197.5523857997
 31
0.0
  0
LINE
  5
4EB
330
1F
100
AcDbEntity
  8
0
  6
Continuous
 62
     7
370
    15
100
AcDbLine
 10
38.7513684722
 20
197.5523857997
 30
0.0
 11
38.4528912133
 21
199.8597171675
 31
0.0
  0
LINE
  5
4EC
330
1F
100
AcDbEntity
  8
0
  6
Continuous
 62
     7
370
    15
100
AcDbLine
 10
43.7922499645
 20
201.2387771418
 30
0.0
 11
38.4528912133
 21
199.8597171675
 31
0.0
  0
LINE
  5
4ED
330
1F
100
AcDbEntity
  8
0
  6
Continuous
 62
     7
370
    15
100
AcDbLine
 10
38.4528912133
 20
199.8597171675
 30
0.0
 11
37.3425206983
 21
201.9686360805
 31
0.0
  0
LINE
  5
4EE
330
1F
100
AcDbEntity
  8
0
  6
Continuous
 62
     7
370
    15
100
AcDbLine
 10
37.6334889194
 20
202.0437882547
 30
0.0
 11
37.3425206983
 21
201.9686360805
 31
0.0
  0
LINE
  5
4EF
330
1F
100
AcDbEntity
  8
0
  6
Continuous
 62
     7
370
    15
100
AcDbLine
 10
37.3906306405
 20
201.5967297615
 30
0.0
 11
37.3425206983
 21
201.9686360805
 31
0.0
  0
LINE
  5
4F0
330
1F
100
AcDbEntity
  8
0
  6
Continuous
 62
     7
370
    15
100
AcDbLine
 10
38.7513684722
 20
197.5523857997
 30
0.0
 11
37.6409979572
 21
199.6613047127
 31
0.0
  0
LINE
  5
4F1
330
1F
100
AcDbEntity
  8
0
  6
Continuous
 62
     7
370
    15
100
AcDbLine
 10
37.592888015
 20
200.0332110317
 30
0.0
 11
37.6409979572
 21
199.6613047127
 31
0.0
  0
ARC
  5
4F2
330
1F
100
AcDbEntity
  8
0
  6
Continuous
 62
     7
370
    15
100
AcDbCircle
 10
35.2647648629
 20
200.2734780602
 30
0.0
 40
2.340488337208979
100
AcDbArc
 50
354.1078188669
 51
9.5220582859
  0
ARC
  5
4F3
330
1F
100
AcDbEntity
  8
0
  6
Continuous
 62
     7
370
    15
100
AcDbCircle
 10
29.2601105335
 20
199.5268539895
 30
0.0
 40
8.389859529323548
100
AcDbArc
 50
7.7667094765
 51
14.2830072875
  0
LWPOLYLINE
  5
4F4
330
1F
100
AcDbEntity
  8
0
  6
Continuous
 62
     7
370
    15
100
AcDbPolyline
 90
        9
 70
   128
 43
0.0
 10
37.8709102362
 20
200.0948511629
 10
37.9200369499
 20
199.8112495611
 10
37.9946694492
 20
199.5081752302
 10
38.0834442937
 20
199.2317720371
 10
38.172846852
 20
199.0241187469
 10
38.2492668739
 20
198.9168263764
 10
38.3010693831
 20
198.9262319899
 10
38.3203684159
 20
199.050902822
 10
38.3042256267
 20
199.2718582878
  0
LWPOLYLINE
  5
4F5
330
1F
100
AcDbEntity
  8
0
  6
Continuous
 62
     7
370
    15
100
AcDbPolyline
 90
        9
 70
   128
 43
0.0
 10
38.3042256267
 20
199.2718582878
 10
38.2550984622
 20
199.5554619036
 10
38.1804664137
 20
199.8585342205
 10
38.0916913706
 20
200.1349389485
 10
38.0022885602
 20
200.3425927178
 10
37.9258687905
 20
200.4498846092
 10
37.8740664799
 20
200.4404774608
 10
37.8547669962
 20
200.3158086426
 10
37.8709102362
 20
200.0948511629
  0
ARC
  5
4F6
330
1F
100
AcDbEntity
  8
0
  6
Continuous
 62
     7
370
    15
100
AcDbCircle
 10
39.1026454199
 20
195.1454696467
 30
0.0
 40
0.4685999748915329
100
AcDbArc
 50
7.2149322243
 51
24.2809759724
  0
LINE
  5
4F7
330
1F
100
AcDbEntity
  8
0
  6
Continuous
 62
     7
370
    15
100
AcDbLine
 10
41.7780614603
 20
195.8961099124
 30
0.0
 11
39.5297929765
 21
195.3381634488
 31
0.0
  0
ARC
  5
4F8
330
1F
100
AcDbEntity
  8
0
  6
Continuous
 62
     7
370
    15
100
AcDbCircle
 10
41.3509139037
 20
195.7034161103
 30
0.0
 40
0.4685999748915005
100
AcDbArc
 50
7.2149322243
 51
24.2809759724
  0
LINE
  5
4F9
330
1F
100
AcDbEntity
  8
0
  6
Continuous
 62
     7
370
    15
100
AcDbLine
 10
41.8158035057
 20
195.7622684203
 30
0.0
 11
39.567535022
 21
195.2043219567
 31
0.0
  0
LINE
  5
4FA
330
1F
100
AcDbEntity
  8
0
  6
Continuous
 62
     7
370
    15
100
AcDbLine
 10
39.6314945055
 20
194.7098932583
 30
0.0
 11
39.567535022
 21
195.2043219567
 31
0.0
  0
LWPOLYLINE
  5
4FB
330
1F
100
AcDbEntity
  8
0
  6
Continuous
 62
     7
370
    15
100
AcDbPolyline
 90
        9
 70
   128
 43
0.0
 10
39.6314945055
 20
194.7098932583
 10
39.6330538465
 20
194.6948049168
 10
39.6335124239
 20
194.6822738373
 10
39.6328526153
 20
194.6727803971
 10
39.6311001374
 20
194.6666890838
 10
39.6283217816
 20
194.664236587
 10
39.6246245554
 20
194.6655149048
 10
39.6201510724
 20
194.6704731524
 10
39.6150722217
 20
194.6789256959
  0
LINE
  5
4FC
330
1F
100
AcDbEntity
  8
0
  6
Continuous
 62
     7
370
    15
100
AcDbLine
 10
39.6150722217
 20
194.6789256959
 30
0.0
 11
39.2900857418
 21
195.2961702324
 31
0.0
  0
LINE
  5
4FD
330
1F
100
AcDbEntity
  8
0
  6
Continuous
 62
     7
370
    15
100
AcDbLine
 10
39.2048064966
 20
195.9554079853
 30
0.0
 11
39.2900857418
 21
195.2961702324
 31
0.0
  0
LINE
  5
4FE
330
1F
100
AcDbEntity
  8
0
  6
Continuous
 62
     7
370
    15
100
AcDbLine
 10
39.2048064966
 20
195.9554079853
 30
0.0
 11
39.5297929765
 21
195.3381634488
 31
0.0
  0
LINE
  5
4FF
330
1F
100
AcDbEntity
  8
0
  6
Continuous
 62
     7
370
    15
100
AcDbLine
 10
39.6314945055
 20
194.7098932583
 30
0.0
 11
41.8797629893
 21
195.2678397219
 31
0.0
  0
LINE
  5
500
330
1F
100
AcDbEntity
  8
0
  6
Continuous
 62
     7
370
    15
100
AcDbLine
 10
41.8158035057
 20
195.7622684203
 30
0.0
 11
41.8797629893
 21
195.2678397219
 31
0.0
  0
LINE
  5
501
330
1F
100
AcDbEntity
  8
0
  6
Continuous
 62
     7
370
    15
100
AcDbLine
 10
39.2048064966
 20
195.9554079853
 30
0.0
 11
41.4530749804
 21
196.513354449
 31
0.0
  0
LINE
  5
502
330
1F
100
AcDbEntity
  8
0
  6
Continuous
 62
     7
370
    15
100
AcDbLine
 10
41.7780614603
 20
195.8961099124
 30
0.0
 11
41.4530749804
 21
196.513354449
 31
0.0
  0
LWPOLYLINE
  5
503
330
1F
100
AcDbEntity
  8
0
  6
Continuous
 62
     7
370
    15
100
AcDbPolyline
 90
        6
 70
   128
 43
0.0
 10
41.8797629893
 20
195.2678397219
 10
41.8813223302
 20
195.2527513804
 10
41.8817809077
 20
195.2402203009
 10
41.881121099
 20
195.2307268608
 10
41.8793686211
 20
195.2246355474
 10
41.8767669508
 20
195.2222202817
  0
LINE
  5
504
330
1F
100
AcDbEntity
  8
0
  6
Continuous
 62
     7
370
    15
100
AcDbLine
 10
44.510407488
 20
195.687173688
 30
0.0
 11
39.1575105869
 21
194.4127682462
 31
0.0
  0
LINE
  5
505
330
1F
100
AcDbEntity
  8
0
  6
Continuous
 62
     7
370
    15
100
AcDbLine
 10
38.8590333281
 20
196.720099614
 30
0.0
 11
39.1575105869
 21
194.4127682462
 31
0.0
  0
LINE
  5
506
330
1F
100
AcDbEntity
  8
0
  6
Continuous
 62
     7
370
    15
100
AcDbLine
 10
44.1983920792
 20
198.0991595882
 30
0.0
 11
38.8590333281
 21
196.720099614
 31
0.0
  0
LINE
  5
507
330
1F
100
AcDbEntity
  8
0
  6
Continuous
 62
     7
370
    15
100
AcDbLine
 10
38.8590333281
 20
196.720099614
 30
0.0
 11
37.7486628131
 21
198.829018527
 31
0.0
  0
LINE
  5
508
330
1F
100
AcDbEntity
  8
0
  6
Continuous
 62
     7
370
    15
100
AcDbLine
 10
38.0396312327
 20
198.9041691663
 30
0.0
 11
37.7486628131
 21
198.829018527
 31
0.0
  0
LWPOLYLINE
  5
509
330
1F
100
AcDbEntity
  8
0
  6
Continuous
 62
     7
370
    15
100
AcDbPolyline
 90
        9
 70
   128
 43
0.0
 10
38.2770523509
 20
196.9552336094
 10
38.3261790647
 20
196.6716320076
 10
38.4008115639
 20
196.3685576767
 10
38.4895864085
 20
196.0921544836
 10
38.5789889667
 20
195.8845011934
 10
38.6554089886
 20
195.7772088229
 10
38.7072114978
 20
195.7866144364
 10
38.7265105307
 20
195.9112852685
 10
38.7103677415
 20
196.1322407343
  0
LWPOLYLINE
  5
50A
330
1F
100
AcDbEntity
  8
0
  6
Continuous
 62
     7
370
    15
100
AcDbPolyline
 90
        9
 70
   128
 43
0.0
 10
38.7103677415
 20
196.1322407343
 10
38.661240577
 20
196.4158443501
 10
38.5866085285
 20
196.718916667
 10
38.4978336839
 20
196.9953198601
 10
38.4084306749
 20
197.2029751643
 10
38.3320111038
 20
197.3102655208
 10
38.2802085946
 20
197.3008599073
 10
38.2609091109
 20
197.1761910891
 10
38.2770523509
 20
196.9552336094
  0
LINE
  5
50B
330
1F
100
AcDbEntity
  8
0
  6
Continuous
 62
     7
370
    15
100
AcDbLine
 10
37.7967727553
 20
198.457112208
 30
0.0
 11
37.7486628131
 21
198.829018527
 31
0.0
  0
LINE
  5
50C
330
1F
100
AcDbEntity
  8
0
  6
Continuous
 62
     7
370
    15
100
AcDbLine
 10
39.1575105869
 20
194.4127682462
 30
0.0
 11
38.0471400719
 21
196.5216871592
 31
0.0
  0
LINE
  5
50D
330
1F
100
AcDbEntity
  8
0
  6
Continuous
 62
     7
370
    15
100
AcDbLine
 10
37.9990301298
 20
196.8935934782
 30
0.0
 11
38.0471400719
 21
196.5216871592
 31
0.0
  0
ARC
  5
50E
330
1F
100
AcDbEntity
  8
0
  6
Continuous
 62
     7
370
    15
100
AcDbCircle
 10
35.6709141039
 20
197.1338607325
 30
0.0
 40
2.340481271776475
100
AcDbArc
 50
354.1077954594
 51
9.5220816934
  0
ARC
  5
50F
330
1F
100
AcDbEntity
  8
0
  6
Continuous
 62
     7
370
    15
100
AcDbCircle
 10
29.6662526482
 20
196.387236436
 30
0.0
 40
8.389859529319452
100
AcDbArc
 50
7.7667094765
 51
14.2830072875
  0
ARC
  5
510
330
1F
100
AcDbEntity
  8
0
  6
Continuous
 62
     7
370
    15
100
AcDbCircle
 10
39.5088089009
 20
192.0058565274
 30
0.0
 40
0.4685782251966901
100
AcDbArc
 50
7.2145331978
 51
24.2813749989
  0
LINE
  5
511
330
1F
100
AcDbEntity
  8
0
  6
Continuous
 62
     7
370
    15
100
AcDbLine
 10
42.1842037736
 20
192.756490824
 30
0.0
 11
39.9359352898
 21
192.1985443604
 31
0.0
  0
ARC
  5
512
330
1F
100
AcDbEntity
  8
0
  6
Continuous
 62
     7
370
    15
100
AcDbCircle
 10
41.7570773847
 20
192.563802991
 30
0.0
 40
0.4685782251966866
100
AcDbArc
 50
7.2145331978
 51
24.2813749989
  0
LINE
  5
513
330
1F
100
AcDbEntity
  8
0
  6
Continuous
 62
     7
370
    15
100
AcDbLine
 10
42.2219458191
 20
192.6226493319
 30
0.0
 11
39.9736773353
 21
192.0647028683
 31
0.0
  0
LINE
  5
514
330
1F
100
AcDbEntity
  8
0
  6
Continuous
 62
     7
370
    15
100
AcDbLine
 10
40.0376366203
 20
191.5702757048
 30
0.0
 11
39.9736773353
 21
192.0647028683
 31
0.0
  0
LWPOLYLINE
  5
515
330
1F
100
AcDbEntity
  8
0
  6
Continuous
 62
     7
370
    15
100
AcDbPolyline
 90
        9
 70
   128
 43
0.0
 10
40.0376366203
 20
191.5702757048
 10
40.0391959612
 20
191.5551873633
 10
40.0396545387
 20
191.5426562838
 10
40.03899473
 20
191.5331628436
 10
40.0372422521
 20
191.5270715303
 10
40.0344638964
 20
191.5246190335
 10
40.0307668687
 20
191.5258958164
 10
40.0262931871
 20
191.5308555989
 10
40.0212143365
 20
191.5393081424
  0
LINE
  5
516
330
1F
100
AcDbEntity
  8
0
  6
Continuous
 62
     7
370
    15
100
AcDbLine
 10
40.0212143365
 20
191.5393081424
 30
0.0
 11
39.6962278566
 21
192.1565526789
 31
0.0
  0
LINE
  5
517
330
1F
100
AcDbEntity
  8
0
  6
Continuous
 62
     7
370
    15
100
AcDbLine
 10
39.61094881
 20
192.8157888969
 30
0.0
 11
39.6962278566
 21
192.1565526789
 31
0.0
  0
LINE
  5
518
330
1F
100
AcDbEntity
  8
0
  6
Continuous
 62
     7
370
    15
100
AcDbLine
 10
39.61094881
 20
192.8157888969
 30
0.0
 11
39.9359352898
 21
192.1985443604
 31
0.0
  0
LINE
  5
519
330
1F
100
AcDbEntity
  8
0
  6
Continuous
 62
     7
370
    15
100
AcDbLine
 10
42.2219458191
 20
192.6226493319
 30
0.0
 11
42.285905104
 21
192.1282221684
 31
0.0
  0
LINE
  5
51A
330
1F
100
AcDbEntity
  8
0
  6
Continuous
 62
     7
370
    15
100
AcDbLine
 10
40.0376366203
 20
191.5702757048
 30
0.0
 11
42.285905104
 21
192.1282221684
 31
0.0
  0
LINE
  5
51B
330
1F
100
AcDbEntity
  8
0
  6
Continuous
 62
     7
370
    15
100
AcDbLine
 10
39.61094881
 20
192.8157888969
 30
0.0
 11
41.8592172937
 21
193.3737353605
 31
0.0
  0
LINE
  5
51C
330
1F
100
AcDbEntity
  8
0
  6
Continuous
 62
     7
370
    15
100
AcDbLine
 10
42.1842037736
 20
192.756490824
 30
0.0
 11
41.8592172937
 21
193.3737353605
 31
0.0
  0
LWPOLYLINE
  5
51D
330
1F
100
AcDbEntity
  8
0
  6
Continuous
 62
     7
370
    15
100
AcDbPolyline
 90
        6
 70
   128
 43
0.0
 10
42.285905104
 20
192.1282221684
 10
42.287464445
 20
192.1131338269
 10
42.2879230224
 20
192.1006027474
 10
42.2872632138
 20
192.0911093072
 10
42.2855107359
 20
192.0850179939
 10
42.2829090656
 20
192.0826027282
  0
LINE
  5
51E
330
1F
100
AcDbEntity
  8
0
  6
Continuous
 62
     7
370
    15
100
AcDbLine
 10
44.9165496027
 20
192.5475561345
 30
0.0
 11
39.5636527017
 21
191.2731506927
 31
0.0
  0
LINE
  5
51F
330
1F
100
AcDbEntity
  8
0
  6
Continuous
 62
     7
370
    15
100
AcDbLine
 10
39.5636527017
 20
191.2731506927
 30
0.0
 11
39.2651756414
 21
193.5804805256
 31
0.0
  0
LINE
  5
520
330
1F
100
AcDbEntity
  8
0
  6
Continuous
 62
     7
370
    15
100
AcDbLine
 10
44.604534194
 20
194.9595420347
 30
0.0
 11
39.2651756414
 21
193.5804805256
 31
0.0
  0
LINE
  5
521
330
1F
100
AcDbEntity
  8
0
  6
Continuous
 62
     7
370
    15
100
AcDbLine
 10
39.2651756414
 20
193.5804805256
 30
0.0
 11
38.1548051264
 21
195.6893994386
 31
0.0
  0
LINE
  5
522
330
1F
100
AcDbEntity
  8
0
  6
Continuous
 62
     7
370
    15
100
AcDbLine
 10
38.4457733475
 20
195.7645516128
 30
0.0
 11
38.1548051264
 21
195.6893994386
 31
0.0
  0
LINE
  5
523
330
1F
100
AcDbEntity
  8
0
  6
Continuous
 62
     7
370
    15
100
AcDbLine
 10
39.5636527017
 20
191.2731506927
 30
0.0
 11
38.4532821867
 21
193.3820696057
 31
0.0
  0
LINE
  5
524
330
1F
100
AcDbEntity
  8
0
  6
Continuous
 62
     7
370
    15
100
AcDbLine
 10
38.4051723438
 20
193.7539751572
 30
0.0
 11
38.4532821867
 21
193.3820696057
 31
0.0
  0
ARC
  5
525
330
1F
100
AcDbEntity
  8
0
  6
Continuous
 62
     7
370
    15
100
AcDbCircle
 10
36.0770423449
 20
193.9942420771
 30
0.0
 40
2.34049513664307
100
AcDbArc
 50
354.1078387178
 51
9.5220521112
  0
ARC
  5
526
330
1F
100
AcDbEntity
  8
0
  6
Continuous
 62
     7
370
    15
100
AcDbCircle
 10
30.0723821172
 20
193.2476164187
 30
0.0
 40
8.389872392104852
100
AcDbArc
 50
7.7667144771
 51
14.2830022869
  0
LINE
  5
527
330
1F
100
AcDbEntity
  8
0
  6
Continuous
 62
     7
370
    15
100
AcDbLine
 10
38.20291487
 20
195.3174946545
 30
0.0
 11
38.1548051264
 21
195.6893994386
 31
0.0
  0
LWPOLYLINE
  5
528
330
1F
100
AcDbEntity
  8
0
  6
Continuous
 62
     7
370
    15
100
AcDbPolyline
 90
        9
 70
   128
 43
0.0
 10
39.1165098563
 20
192.9926231808
 10
39.0673828903
 20
193.2762252617
 10
38.9927506432
 20
193.5792991135
 10
38.9039757987
 20
193.8557023066
 10
38.8145727897
 20
194.0633576108
 10
38.7381532185
 20
194.1706479673
 10
38.6863507094
 20
194.1612423538
 10
38.6670514243
 20
194.0365720007
 10
38.6831944657
 20
193.8156160559
  0
LWPOLYLINE
  5
529
330
1F
100
AcDbEntity
  8
0
  6
Continuous
 62
     7
370
    15
100
AcDbPolyline
 90
        9
 70
   128
 43
0.0
 10
38.6831944657
 20
193.8156160559
 10
38.7323211794
 20
193.5320144541
 10
38.8069536787
 20
193.2289401232
 10
38.8957285233
 20
192.9525369301
 10
38.9851311807
 20
192.7448828724
 10
39.0615511034
 20
192.6375912694
 10
39.1133536126
 20
192.6469968829
 10
39.1326526455
 20
192.771667715
 10
39.1165098563
 20
192.9926231808
  0
ARC
  5
52A
330
1F
100
AcDbEntity
  8
0
  6
Continuous
 62
     7
370
    15
100
AcDbCircle
 10
39.9149298316
 20
188.8662337882
 30
0.0
 40
0.4685998927443871
100
AcDbArc
 50
7.2148369383
 51
24.2809783572
  0
LINE
  5
52B
330
1F
100
AcDbEntity
  8
0
  6
Continuous
 62
     7
370
    15
100
AcDbLine
 10
42.5903457891
 20
189.616874038
 30
0.0
 11
40.3420773053
 21
189.0589275744
 31
0.0
  0
ARC
  5
52C
330
1F
100
AcDbEntity
  8
0
  6
Continuous
 62
     7
370
    15
100
AcDbCircle
 10
42.1631983154
 20
189.4241802519
 30
0.0
 40
0.4685998927445604
100
AcDbArc
 50
7.2148369383
 51
24.2809783572
  0
LINE
  5
52D
330
1F
100
AcDbEntity
  8
0
  6
Continuous
 62
     7
370
    15
100
AcDbLine
 10
42.6280879338
 20
189.4830317784
 30
0.0
 11
40.37981945
 21
188.9250853148
 31
0.0
  0
LINE
  5
52E
330
1F
100
AcDbEntity
  8
0
  6
Continuous
 62
     7
370
    15
100
AcDbLine
 10
40.4437788343
 20
188.4306573838
 30
0.0
 11
40.37981945
 21
188.9250853148
 31
0.0
  0
LWPOLYLINE
  5
52F
330
1F
100
AcDbEntity
  8
0
  6
Continuous
 62
     7
370
    15
100
AcDbPolyline
 90
        9
 70
   128
 43
0.0
 10
40.4437788343
 20
188.4306573838
 10
40.445338076
 20
188.4155698098
 10
40.4457967527
 20
188.4030379628
 10
40.4451369441
 20
188.3935445227
 10
40.4433843669
 20
188.3874539768
 10
40.4406061104
 20
188.3850007125
 10
40.4369089835
 20
188.3862782629
 10
40.4324353019
 20
188.3912380454
 10
40.4273565505
 20
188.3996898214
  0
LINE
  5
530
330
1F
100
AcDbEntity
  8
0
  6
Continuous
 62
     7
370
    15
100
AcDbLine
 10
40.4273565505
 20
188.3996898214
 30
0.0
 11
40.1023700706
 21
189.0169343579
 31
0.0
  0
LINE
  5
531
330
1F
100
AcDbEntity
  8
0
  6
Continuous
 62
     7
370
    15
100
AcDbLine
 10
40.0170908254
 20
189.6761721109
 30
0.0
 11
40.1023700706
 21
189.0169343579
 31
0.0
  0
LINE
  5
532
330
1F
100
AcDbEntity
  8
0
  6
Continuous
 62
     7
370
    15
100
AcDbLine
 10
40.0170908254
 20
189.6761721109
 30
0.0
 11
40.3420773053
 21
189.0589275744
 31
0.0
  0
LINE
  5
533
330
1F
100
AcDbEntity
  8
0
  6
Continuous
 62
     7
370
    15
100
AcDbLine
 10
40.4437788343
 20
188.4306573838
 30
0.0
 11
42.6920473181
 21
188.9886038474
 31
0.0
  0
LINE
  5
534
330
1F
100
AcDbEntity
  8
0
  6
Continuous
 62
     7
370
    15
100
AcDbLine
 10
42.6280879338
 20
189.4830317784
 30
0.0
 11
42.6920473181
 21
188.9886038474
 31
0.0
  0
LINE
  5
535
330
1F
100
AcDbEntity
  8
0
  6
Continuous
 62
     7
370
    15
100
AcDbLine
 10
40.0170908254
 20
189.6761721109
 30
0.0
 11
42.2653593092
 21
190.2341185745
 31
0.0
  0
LINE
  5
536
330
1F
100
AcDbEntity
  8
0
  6
Continuous
 62
     7
370
    15
100
AcDbLine
 10
42.5903457891
 20
189.616874038
 30
0.0
 11
42.2653593092
 21
190.2341185745
 31
0.0
  0
LWPOLYLINE
  5
537
330
1F
100
AcDbEntity
  8
0
  6
Continuous
 62
     7
370
    15
100
AcDbPolyline
 90
        6
 70
   128
 43
0.0
 10
42.6920473181
 20
188.9886038474
 10
42.6936065597
 20
188.9735162734
 10
42.6940652365
 20
188.9609844264
 10
42.6934054278
 20
188.9514909863
 10
42.6916528506
 20
188.9454004404
 10
42.6890511803
 20
188.9429851747
  0
LINE
  5
538
330
1F
100
AcDbEntity
  8
0
  6
Continuous
 62
     7
370
    15
100
AcDbLine
 10
39.6713177561
 20
190.4408629721
 30
0.0
 11
38.5609472412
 21
192.549781885
 31
0.0
  0
LINE
  5
539
330
1F
100
AcDbEntity
  8
0
  6
Continuous
 62
     7
370
    15
100
AcDbLine
 10
38.8519154623
 20
192.6249340593
 30
0.0
 11
38.5609472412
 21
192.549781885
 31
0.0
  0
LINE
  5
53A
330
1F
100
AcDbEntity
  8
0
  6
Continuous
 62
     7
370
    15
100
AcDbLine
 10
45.010676408
 20
191.8199237138
 30
0.0
 11
39.6713177561
 21
190.4408629721
 31
0.0
  0
LINE
  5
53B
330
1F
100
AcDbEntity
  8
0
  6
Continuous
 62
     7
370
    15
100
AcDbLine
 10
39.9697949157
 20
188.1335323718
 30
0.0
 11
45.3226917175
 21
189.407938581
 31
0.0
  0
LINE
  5
53C
330
1F
100
AcDbEntity
  8
0
  6
Continuous
 62
     7
370
    15
100
AcDbLine
 10
39.9697949157
 20
188.1335323718
 30
0.0
 11
39.6713177561
 21
190.4408629721
 31
0.0
  0
LINE
  5
53D
330
1F
100
AcDbEntity
  8
0
  6
Continuous
 62
     7
370
    15
100
AcDbLine
 10
39.1901654416
 20
190.1737029235
 30
0.0
 11
39.5284221166
 21
189.5312543987
 31
0.0
  0
ARC
  5
53E
330
1F
100
AcDbEntity
  8
0
  6
Continuous
 62
     7
370
    15
100
AcDbCircle
 10
38.5411141063
 20
189.6744758032
 30
0.0
 40
0.9976419587762928
100
AcDbArc
 50
351.7461034951
 51
10.3087110675
  0
LWPOLYLINE
  5
53F
330
1F
100
AcDbEntity
  8
0
  6
Continuous
 62
     7
370
    15
100
AcDbPolyline
 90
        9
 70
   128
 43
0.0
 10
39.522651971
 20
189.8530056273
 10
39.473525005
 20
190.1366077082
 10
39.398892758
 20
190.43968156
 10
39.3101179134
 20
190.7160847531
 10
39.2207150037
 20
190.9237392898
 10
39.1442953333
 20
191.0310304138
 10
39.0924928241
 20
191.0216248003
 10
39.073193539
 20
190.8969544472
 10
39.0893365804
 20
190.6759985023
  0
ARC
  5
540
330
1F
100
AcDbEntity
  8
0
  6
Continuous
 62
     7
370
    15
100
AcDbCircle
 10
43.2016786747
 20
191.2402262765
 30
0.0
 40
4.150868641827563
100
AcDbArc
 50
187.8124034921
 51
194.8885577907
  0
LINE
  5
541
330
1F
100
AcDbEntity
  8
0
  6
Continuous
 62
     7
370
    15
100
AcDbLine
 10
39.9697949157
 20
188.1335323718
 30
0.0
 11
38.8594244007
 21
190.2424512847
 31
0.0
  0
LINE
  5
542
330
1F
100
AcDbEntity
  8
0
  6
Continuous
 62
     7
370
    15
100
AcDbLine
 10
38.8594244007
 20
190.2424512847
 30
0.0
 11
38.8113144586
 21
190.6143576037
 31
0.0
  0
ARC
  5
543
330
1F
100
AcDbEntity
  8
0
  6
Continuous
 62
     7
370
    15
100
AcDbCircle
 10
36.4831870506
 20
190.8546246057
 30
0.0
 40
2.340492567752858
100
AcDbArc
 50
354.1078302072
 51
9.5220606218
  0
ARC
  5
544
330
1F
100
AcDbEntity
  8
0
  6
Continuous
 62
     7
370
    15
100
AcDbCircle
 10
30.4785582116
 20
190.1080046508
 30
0.0
 40
8.38983794225965
100
AcDbArc
 50
7.7667066885
 51
14.2830160014
  0
LINE
  5
545
330
1F
100
AcDbEntity
  8
0
  6
Continuous
 62
     7
370
    15
100
AcDbLine
 10
38.609057084
 20
192.1778763335
 30
0.0
 11
38.5609472412
 21
192.549781885
 31
0.0
  0
LINE
  5
546
330
1F
100
AcDbEntity
  8
0
  6
Continuous
 62
     7
370
    15
100
AcDbLine
 10
39.4508377637
 20
190.2383932402
 30
0.0
 11
39.1901654416
 21
190.1737029235
 31
0.0
  0
ARC
  5
547
330
1F
100
AcDbEntity
  8
0
  6
Continuous
 62
     7
370
    15
100
AcDbCircle
 10
54.8316633985
 20
195.7381440819
 30
0.0
 40
0.5438711934260334
100
AcDbArc
 50
18.5572597779
 51
28.6015086164
  0
ARC
  5
548
330
1F
100
AcDbEntity
  8
0
  6
Continuous
 62
     7
370
    15
100
AcDbCircle
 10
80.7805873552
 20
210.8896308771
 30
0.0
 40
29.50489746807139
100
AcDbArc
 50
205.1720445032
 51
210.3114526732
  0
LWPOLYLINE
  5
549
330
1F
100
AcDbEntity
  8
0
  6
Continuous
 62
     7
370
    15
100
AcDbPolyline
 90
        9
 70
   128
 43
0.0
 10
53.9552286746
 20
199.5010969034
 10
53.879704144
 20
199.6253763676
 10
53.8249943304
 20
199.642361748
 10
53.7994294361
 20
199.5494604625
 10
53.8069008703
 20
199.3608211169
 10
53.8462711597
 20
199.1051591854
 10
53.9115463539
 20
198.8214004528
 10
53.9927893747
 20
198.5527412018
 10
54.0776316496
 20
198.3400838261
  0
ARC
  5
54A
330
1F
100
AcDbEntity
  8
0
  6
Continuous
 62
     7
370
    15
100
AcDbCircle
 10
79.0764169609
 20
211.3072920578
 30
0.0
 40
27.75716745166859
100
AcDbArc
 50
205.1720985047
 51
210.3114044793
  0
ARC
  5
54B
330
1F
100
AcDbEntity
  8
0
  6
Continuous
 62
     7
370
    15
100
AcDbCircle
 10
48.0943217192
 20
193.9492791818
 30
0.0
 40
7.777444149735744
100
AcDbArc
 50
6.8858246142
 51
25.5057885666
  0
LINE
  5
54C
330
1F
100
AcDbEntity
  8
0
  6
Continuous
 62
     7
370
    15
100
AcDbLine
 10
55.8787403613
 20
194.3941511079
 30
0.0
 11
55.8156674307
 21
194.8817264486
 31
0.0
  0
ARC
  5
54D
330
1F
100
AcDbEntity
  8
0
  6
Continuous
 62
     7
370
    15
100
AcDbCircle
 10
53.2965841619
 20
193.97386245
 30
0.0
 40
2.616137074747553
100
AcDbArc
 50
355.026007183
 51
9.2447649364
  0
LWPOLYLINE
  5
54E
330
1F
100
AcDbEntity
  8
0
  6
Continuous
 62
     7
370
    15
100
AcDbPolyline
 90
        3
 70
   128
 43
0.0
 10
55.9028692736
 20
193.7470340781
 10
55.902327022
 20
193.4512042114
 10
55.9031546291
 20
193.4412267852
  0
LWPOLYLINE
  5
54F
330
1F
100
AcDbEntity
  8
0
  6
Continuous
 62
     7
370
    15
100
AcDbPolyline
 90
        3
 70
   128
 43
0.0
 10
56.6065658233
 20
191.4976205798
 10
56.622161021
 20
191.6387354423
 10
56.5971591499
 20
191.9988826044
  0
LINE
  5
550
330
1F
100
AcDbEntity
  8
0
  6
Continuous
 62
     7
370
    15
100
AcDbLine
 10
56.5971591499
 20
191.9988826044
 30
0.0
 11
56.2507125266
 21
194.6770335774
 31
0.0
  0
LWPOLYLINE
  5
551
330
1F
100
AcDbEntity
  8
0
  6
Continuous
 62
     7
370
    15
100
AcDbPolyline
 90
        9
 70
   128
 43
0.0
 10
56.2507125266
 20
194.6770335774
 10
56.2355786698
 20
194.8841788047
 10
56.2536718116
 20
195.0010567811
 10
56.3022362508
 20
195.0098752562
 10
56.3738801139
 20
194.9092911605
 10
56.4576952507
 20
194.7146130706
 10
56.5409217338
 20
194.4554850232
 10
56.6108891354
 20
194.1713542758
 10
56.6569455003
 20
193.9054781462
  0
LINE
  5
552
330
1F
100
AcDbEntity
  8
0
  6
Continuous
 62
     7
370
    15
100
AcDbLine
 10
56.6569455003
 20
193.9054781462
 30
0.0
 11
57.7229355686
 21
185.6650100719
 31
0.0
  0
LWPOLYLINE
  5
553
330
1F
100
AcDbEntity
  8
0
  6
Continuous
 62
     7
370
    15
100
AcDbPolyline
 90
        9
 70
   128
 43
0.0
 10
57.7229355686
 20
185.6650100719
 10
57.7380694255
 20
185.4578648445
 10
57.719976788
 20
185.3409859101
 10
57.6714118445
 20
185.3321683931
 10
57.5997685931
 20
185.4327536425
 10
57.5159528446
 20
185.6274305787
 10
57.4327268658
 20
185.886557668
 10
57.3627589598
 20
186.1706893735
 10
57.3167025949
 20
186.4365655031
  0
LINE
  5
554
330
1F
100
AcDbEntity
  8
0
  6
Continuous
 62
     7
370
    15
100
AcDbLine
 10
57.3167025949
 20
186.4365655031
 30
0.0
 11
56.9169563689
 21
189.5267406472
 31
0.0
  0
ARC
  5
555
330
1F
100
AcDbEntity
  8
0
  6
Continuous
 62
     7
370
    15
100
AcDbCircle
 10
55.7547650219
 20
189.3796199848
 30
0.0
 40
1.17146626769337
100
AcDbArc
 50
7.2146421457
 51
24.2811917296
  0
LINE
  5
556
330
1F
100
AcDbEntity
  8
0
  6
Continuous
 62
     7
370
    15
100
AcDbLine
 10
56.8226014082
 20
189.8613446659
 30
0.0
 11
56.1997101086
 21
191.0443977322
 31
0.0
  0
LWPOLYLINE
  5
557
330
1F
100
AcDbEntity
  8
0
  6
Continuous
 62
     7
370
    15
100
AcDbPolyline
 90
        9
 70
   128
 43
0.0
 10
56.1596408427
 20
191.074985953
 10
56.1628078034
 20
191.0792127802
 10
56.1665864611
 20
191.0811200253
 10
56.1709410643
 20
191.0806899143
 10
56.1758292288
 20
191.0779265332
 10
56.1812036653
 20
191.0728571773
 10
56.1870135857
 20
191.0655273653
 10
56.1932023956
 20
191.0560098533
 10
56.1997101086
 20
191.0443977322
  0
LINE
  5
558
330
1F
100
AcDbEntity
  8
0
  6
Continuous
 62
     7
370
    15
100
AcDbLine
 10
56.1596408427
 20
191.074985953
 30
0.0
 11
55.745203541
 21
190.2934799726
 31
0.0
  0
LINE
  5
559
330
1F
100
AcDbEntity
  8
0
  6
Continuous
 62
     7
370
    15
100
AcDbLine
 10
55.5678015115
 20
188.8229710439
 30
0.0
 11
56.3987772157
 21
182.3992444402
 31
0.0
  0
ARC
  5
55A
330
1F
100
AcDbEntity
  8
0
  6
Continuous
 62
     7
370
    15
100
AcDbCircle
 10
57.7188321084
 20
182.5819636442
 30
0.0
 40
1.332640697018129
100
AcDbArc
 50
187.8806850951
 51
195.9432010103
  0
LINE
  5
55B
330
1F
100
AcDbEntity
  8
0
  6
Continuous
 62
     7
370
    15
100
AcDbLine
 10
58.0414915328
 20
176.5276360351
 30
0.0
 11
56.4374521408
 21
182.2159081758
 31
0.0
  0
ARC
  5
55C
330
1F
100
AcDbEntity
  8
0
  6
Continuous
 62
     7
370
    15
100
AcDbCircle
 10
58.8536614444
 20
176.7407057822
 30
0.0
 40
0.8396539063257267
100
AcDbArc
 50
194.7000633272
 51
205.716276352
  0
LINE
  5
55D
330
1F
100
AcDbEntity
  8
0
  6
Continuous
 62
     7
370
    15
100
AcDbLine
 10
58.7200633724
 20
175.1933142565
 30
0.0
 11
58.0971720728
 21
176.3763673227
 31
0.0
  0
LWPOLYLINE
  5
55E
330
1F
100
AcDbEntity
  8
0
  6
Continuous
 62
     7
370
    15
100
AcDbPolyline
 90
        9
 70
   128
 43
0.0
 10
58.7611187304
 20
175.2707344089
 10
58.7650169567
 20
175.2330137947
 10
58.7661637518
 20
175.2016848494
 10
58.7645146086
 20
175.1779505305
 10
58.7601326383
 20
175.1627260356
 10
58.7531870199
 20
175.1565919633
 10
58.7439440537
 20
175.1597869904
 10
58.7327596967
 20
175.1721861582
 10
58.7200633724
 20
175.1933142565
  0
LINE
  5
55F
330
1F
100
AcDbEntity
  8
0
  6
Continuous
 62
     7
370
    15
100
AcDbLine
 10
58.3613725044
 20
178.3609095531
 30
0.0
 11
58.7611187304
 21
175.2707344089
 31
0.0
  0
LWPOLYLINE
  5
560
330
1F
100
AcDbEntity
  8
0
  6
Continuous
 62
     7
370
    15
100
AcDbPolyline
 90
        9
 70
   128
 43
0.0
 10
58.7676054781
 20
177.5893541219
 10
58.7215491132
 20
177.8552302515
 10
58.6515815131
 20
178.1393625338
 10
58.5683550299
 20
178.3984905812
 10
58.4845402902
 20
178.5931656013
 10
58.41289603
 20
178.6937527668
 10
58.3643315909
 20
178.6849342917
 10
58.3462386476
 20
178.5680547804
 10
58.3613725044
 20
178.3609095531
  0
LINE
  5
561
330
1F
100
AcDbEntity
  8
0
  6
Continuous
 62
     7
370
    15
100
AcDbLine
 10
58.7676054781
 20
177.5893541219
 30
0.0
 11
59.1673517041
 21
174.4991789778
 31
0.0
  0
LWPOLYLINE
  5
562
330
1F
100
AcDbEntity
  8
0
  6
Continuous
 62
     7
370
    15
100
AcDbPolyline
 90
        9
 70
   128
 43
0.0
 10
59.1673517041
 20
174.4991789778
 10
59.1946391972
 20
174.2351383251
 10
59.2026646377
 20
174.0158374286
 10
59.1911195349
 20
173.849702759
 10
59.1604479436
 20
173.7431201691
 10
59.1118287221
 20
173.7001837746
 10
59.0471294718
 20
173.7225460899
 10
58.9688382702
 20
173.8093427575
 10
58.8799617834
 20
173.9572448128
  0
LINE
  5
563
330
1F
100
AcDbEntity
  8
0
  6
Continuous
 62
     7
370
    15
100
AcDbLine
 10
58.8799617834
 20
173.9572448128
 30
0.0
 11
58.3565481418
 21
174.9513606625
 31
0.0
  0
LINE
  5
564
330
1F
100
AcDbEntity
  8
0
  6
Continuous
 62
     7
370
    15
100
AcDbLine
 10
58.5697461555
 20
173.3032670476
 30
0.0
 11
58.3565481418
 21
174.9513606625
 31
0.0
  0
LINE
  5
565
330
1F
100
AcDbEntity
  8
0
  6
Continuous
 62
     7
370
    15
100
AcDbLine
 10
58.5697461555
 20
173.3032670476
 30
0.0
 11
59.3639819477
 21
171.7947805911
 31
0.0
  0
LWPOLYLINE
  5
566
330
1F
100
AcDbEntity
  8
0
  6
Continuous
 62
     7
370
    15
100
AcDbPolyline
 90
        9
 70
   128
 43
0.0
 10
59.5238804579
 20
170.55871038
 10
59.5955237092
 20
170.4581251306
 10
59.6440885535
 20
170.4669434151
 10
59.662181191
 20
170.5838223495
 10
59.6470471356
 20
170.7909691118
 10
59.6009907707
 20
171.0568452414
 10
59.5310231705
 20
171.3409775237
 10
59.4477966873
 20
171.600105571
 10
59.3639819477
 20
171.7947805911
  0
LINE
  5
567
330
1F
100
AcDbEntity
  8
0
  6
Continuous
 62
     7
370
    15
100
AcDbLine
 10
58.7296446657
 20
172.0671968364
 30
0.0
 11
59.5238804579
 21
170.55871038
 31
0.0
  0
LINE
  5
568
330
1F
100
AcDbEntity
  8
0
  6
Continuous
 62
     7
370
    15
100
AcDbLine
 10
58.916192878
 20
170.6251153072
 30
0.0
 11
58.7296446657
 21
172.0671968364
 31
0.0
  0
LINE
  5
569
330
1F
100
AcDbEntity
  8
0
  6
Continuous
 62
     7
370
    15
100
AcDbLine
 10
58.916192878
 20
170.6251153072
 30
0.0
 11
59.7104286702
 21
169.1166288507
 31
0.0
  0
LWPOLYLINE
  5
56A
330
1F
100
AcDbEntity
  8
0
  6
Continuous
 62
     7
370
    15
100
AcDbPolyline
 90
        9
 70
   128
 43
0.0
 10
59.8703271805
 20
167.8805586396
 10
59.9419703325
 20
167.7799741576
 10
59.9905352761
 20
167.7887916747
 10
60.0086279135
 20
167.9056706091
 10
59.9934938581
 20
168.1128173714
 10
59.9474373939
 20
168.3786942684
 10
59.8774699924
 20
168.6628250158
 10
59.7942434099
 20
168.9219538306
 10
59.7104286702
 20
169.1166288507
  0
LINE
  5
56B
330
1F
100
AcDbEntity
  8
0
  6
Continuous
 62
     7
370
    15
100
AcDbLine
 10
59.0760913883
 20
169.389045096
 30
0.0
 11
59.8703271805
 21
167.8805586396
 31
0.0
  0
LINE
  5
56C
330
1F
100
AcDbEntity
  8
0
  6
Continuous
 62
     7
370
    15
100
AcDbLine
 10
59.2626396006
 20
167.9469635667
 30
0.0
 11
59.0760913883
 21
169.389045096
 31
0.0
  0
LINE
  5
56D
330
1F
100
AcDbEntity
  8
0
  6
Continuous
 62
     7
370
    15
100
AcDbLine
 10
59.2626396006
 20
167.9469635667
 30
0.0
 11
60.0568753928
 21
166.4384771103
 31
0.0
  0
LWPOLYLINE
  5
56E
330
1F
100
AcDbEntity
  8
0
  6
Continuous
 62
     7
370
    15
100
AcDbPolyline
 90
        9
 70
   128
 43
0.0
 10
60.216773903
 20
165.2024068991
 10
60.2884170551
 20
165.1018224172
 10
60.3369819987
 20
165.1106399342
 10
60.3550746361
 20
165.2275188687
 10
60.3399405807
 20
165.434665631
 10
60.2938841165
 20
165.700542528
 10
60.2239167149
 20
165.9846732754
 10
60.1406901325
 20
166.2438020902
 10
60.0568753928
 20
166.4384771103
  0
LINE
  5
56F
330
1F
100
AcDbEntity
  8
0
  6
Continuous
 62
     7
370
    15
100
AcDbLine
 10
59.4225381108
 20
166.7108933556
 30
0.0
 11
60.216773903
 21
165.2024068991
 31
0.0
  0
LINE
  5
570
330
1F
100
AcDbEntity
  8
0
  6
Continuous
 62
     7
370
    15
100
AcDbLine
 10
59.5389175935
 20
165.811240122
 30
0.0
 11
59.4225381108
 21
166.7108933556
 31
0.0
  0
ARC
  5
571
330
1F
100
AcDbEntity
  8
0
  6
Continuous
 62
     7
370
    15
100
AcDbCircle
 10
60.8859781095
 20
165.9991900841
 30
0.0
 40
1.360109268399119
100
AcDbArc
 50
187.9429723887
 51
198.4595279946
  0
LINE
  5
572
330
1F
100
AcDbEntity
  8
0
  6
Continuous
 62
     7
370
    15
100
AcDbLine
 10
60.3213017647
 20
163.407383096
 30
0.0
 11
59.5958497912
 21
165.5685322801
 31
0.0
  0
ARC
  5
573
330
1F
100
AcDbEntity
  8
0
  6
Continuous
 62
     7
370
    15
100
AcDbCircle
 10
53.9249436906
 20
160.5210881577
 30
0.0
 40
7.017413703185627
100
AcDbArc
 50
351.4936485649
 51
24.2868177163
  0
LINE
  5
574
330
1F
100
AcDbEntity
  8
0
  6
Continuous
 62
     7
370
    15
100
AcDbLine
 10
39.0535092395
 20
227.3395608804
 30
0.0
 11
39.4045663352
 21
224.6257693776
 31
0.0
  0
LWPOLYLINE
  5
575
330
1F
100
AcDbEntity
  8
0
  6
Continuous
 62
     7
370
    15
100
AcDbPolyline
 90
        9
 70
   128
 43
0.0
 10
39.4597422133
 20
226.5680054493
 10
39.4136858484
 20
226.8338815788
 10
39.3437179424
 20
227.1180132844
 10
39.2604919636
 20
227.3771403736
 10
39.1766758179
 20
227.5718203797
 10
39.1050329637
 20
227.6724025592
 10
39.0564680201
 20
227.6635850422
 10
39.0383753827
 20
227.5467061078
 10
39.0535092395
 20
227.3395608804
  0
LINE
  5
576
330
1F
100
AcDbEntity
  8
0
  6
Continuous
 62
     7
370
    15
100
AcDbLine
 10
39.7014592353
 20
224.6994501387
 30
0.0
 11
39.4597422133
 21
226.5680054493
 31
0.0
  0
LWPOLYLINE
  5
577
330
1F
100
AcDbEntity
  8
0
  6
Continuous
 62
     7
370
    15
100
AcDbPolyline
 90
        9
 70
   128
 43
0.0
 10
40.097907301
 20
224.7978347775
 10
40.0797224376
 20
224.9929679446
 10
40.0729993666
 20
225.2201968482
 10
40.0881054828
 20
225.3871562681
 10
40.1243925253
 20
225.486685777
 10
40.1803042444
 20
225.5145142217
 10
40.2534415507
 20
225.4694532203
 10
40.3406682988
 20
225.3534324367
 10
40.4382431412
 20
225.1714274516
  0
ARC
  5
578
330
1F
100
AcDbEntity
  8
0
  6
Continuous
 62
     7
370
    15
100
AcDbCircle
 10
65.3705797132
 20
236.9094806972
 30
0.0
 40
27.55727310413225
100
AcDbArc
 50
205.21088544
 51
210.3750569108
  0
LWPOLYLINE
  5
579
330
1F
100
AcDbEntity
  8
0
  6
Continuous
 62
     7
370
    15
100
AcDbPolyline
 90
        9
 70
   128
 43
0.0
 10
41.5959864634
 20
222.9749187471
 10
41.6780839949
 20
222.7998277368
 10
41.7626081967
 20
222.5523669305
 10
41.8366914631
 20
222.2702045942
 10
41.8890545096
 20
221.9963029247
 10
41.9117266447
 20
221.7723556804
 10
41.9012553141
 20
221.6324617898
 10
41.8592350634
 20
221.5979156036
 10
41.7920626922
 20
221.6739785767
  0
ARC
  5
57A
330
1F
100
AcDbEntity
  8
0
  6
Continuous
 62
     7
370
    15
100
AcDbCircle
 10
67.063584175
 20
236.4859405661
 30
0.0
 40
29.29238836339154
100
AcDbArc
 50
205.2108352126
 51
210.3751129739
  0
ARC
  5
57B
330
1F
100
AcDbEntity
  8
0
  6
Continuous
 62
     7
370
    15
100
AcDbCircle
 10
40.4612208793
 20
223.9748290195
 30
0.0
 40
0.1057918009416157
100
AcDbArc
 50
18.7508384371
 51
50.5601581576
  0
LINE
  5
57C
330
1F
100
AcDbEntity
  8
0
  6
Continuous
 62
     7
370
    15
100
AcDbLine
 10
56.6569455003
 20
193.9054781462
 30
0.0
 11
200.0293457609
 21
229.4858033092
 31
0.0
  0
ARC
  5
57D
330
1F
100
AcDbEntity
  8
0
  6
Continuous
 62
     7
370
    15
100
AcDbCircle
 10
198.2300825572
 20
229.4887728937
 30
0.0
 40
1.799265654292612
100
AcDbArc
 50
359.9054365657
 51
38.1208549041
  0
LINE
  5
57E
330
1F
100
AcDbEntity
  8
0
  6
Continuous
 62
     7
370
    15
100
AcDbLine
 10
57.7229355686
 20
185.6650100719
 30
0.0
 11
201.0953358292
 21
221.2453352348
 31
0.0
  0
LINE
  5
57F
330
1F
100
AcDbEntity
  8
0
  6
Continuous
 62
     7
370
    15
100
AcDbLine
 10
200.0293457609
 20
229.4858033092
 30
0.0
 11
201.0953358292
 21
221.2453352348
 31
0.0
  0
LINE
  5
580
330
1F
100
AcDbEntity
  8
0
  6
Continuous
 62
     7
370
    15
100
AcDbLine
 10
55.1137900479
 20
197.2982643839
 30
0.0
 11
198.4861903085
 21
232.8785895468
 31
0.0
  0
ARC
  5
581
330
1F
100
AcDbEntity
  8
0
  6
Continuous
 62
     7
370
    15
100
AcDbCircle
 10
191.4667219797
 20
229.5296043448
 30
0.0
 40
7.777444149735371
100
AcDbArc
 50
6.8858246142
 51
25.5057885666
  0
LINE
  5
582
330
1F
100
AcDbEntity
  8
0
  6
Continuous
 62
     7
370
    15
100
AcDbLine
 10
53.9552286746
 20
199.5010969034
 30
0.0
 11
197.3276289352
 21
235.0814220663
 31
0.0
  0
ARC
  5
583
330
1F
100
AcDbEntity
  8
0
  6
Continuous
 62
     7
370
    15
100
AcDbCircle
 10
222.4488172215
 20
246.8876172207
 30
0.0
 40
27.75716745168913
100
AcDbArc
 50
205.1720985047
 51
210.3114044793
  0
LWPOLYLINE
  5
584
330
1F
100
AcDbEntity
  8
0
  6
Continuous
 62
     7
370
    15
100
AcDbPolyline
 90
        4
 70
   128
 43
0.0
 10
201.0953358292
 20
221.2453352348
 10
201.110469686
 20
221.0381900075
 10
201.0923770486
 20
220.921311073
 10
201.0728650981
 20
220.9031943267
  0
LWPOLYLINE
  5
585
330
1F
100
AcDbEntity
  8
0
  6
Continuous
 62
     7
370
    15
100
AcDbPolyline
 90
        3
 70
   128
 43
0.0
 10
197.3276289352
 20
235.0814220663
 10
197.2521044046
 20
235.2057015305
 10
197.2081851714
 20
235.2288331933
  0
LINE
  5
586
330
1F
100
AcDbEntity
  8
0
  6
Continuous
 62
     7
370
    15
100
AcDbLine
 10
58.7676054781
 20
177.5893541219
 30
0.0
 11
202.1400057387
 21
213.1696792848
 31
0.0
  0
ARC
  5
587
330
1F
100
AcDbEntity
  8
0
  6
Continuous
 62
     7
370
    15
100
AcDbCircle
 10
200.340738886
 20
213.1726488905
 30
0.0
 40
1.799269303294516
100
AcDbArc
 50
359.9054360864
 51
38.1208250004
  0
LINE
  5
588
330
1F
100
AcDbEntity
  8
0
  6
Continuous
 62
     7
370
    15
100
AcDbLine
 10
59.1673517041
 20
174.4991789778
 30
0.0
 11
202.5397519647
 21
210.0795041407
 31
0.0
  0
LINE
  5
589
330
1F
100
AcDbEntity
  8
0
  6
Continuous
 62
     7
370
    15
100
AcDbLine
 10
202.1400057387
 20
213.1696792848
 30
0.0
 11
202.5397519647
 21
210.0795041407
 31
0.0
  0
LINE
  5
58A
330
1F
100
AcDbEntity
  8
0
  6
Continuous
 62
     7
370
    15
100
AcDbLine
 10
56.3987772157
 20
182.3992444402
 30
0.0
 11
199.7711774763
 21
217.9795696031
 31
0.0
  0
LWPOLYLINE
  5
58B
330
1F
100
AcDbEntity
  8
0
  6
Continuous
 62
     7
370
    15
100
AcDbPolyline
 90
        6
 70
   128
 43
0.0
 10
202.5397519647
 20
210.0795041407
 10
202.5670394578
 20
209.815463488
 10
202.5750648983
 20
209.5961625916
 10
202.5635197955
 20
209.430027922
 10
202.5328482042
 20
209.3234453321
 10
202.4873204519
 20
209.2811719006
  0
LINE
  5
58C
330
1F
100
AcDbEntity
  8
0
  6
Continuous
 62
     7
370
    15
100
AcDbLine
 10
56.4374521408
 20
182.2159081758
 30
0.0
 11
199.8098524014
 21
217.7962333387
 31
0.0
  0
LINE
  5
58D
330
1F
100
AcDbEntity
  8
0
  6
Continuous
 62
     7
370
    15
100
AcDbLine
 10
59.3639819477
 20
171.7947805911
 30
0.0
 11
202.7363822082
 21
207.375105754
 31
0.0
  0
ARC
  5
58E
330
1F
100
AcDbEntity
  8
0
  6
Continuous
 62
     7
370
    15
100
AcDbCircle
 10
200.8008499349
 20
206.3021565918
 30
0.0
 40
2.213030746658967
100
AcDbArc
 50
352.913804356
 51
29.0014968574
  0
LINE
  5
58F
330
1F
100
AcDbEntity
  8
0
  6
Continuous
 62
     7
370
    15
100
AcDbLine
 10
201.9421464161
 20
208.8835922105
 30
0.0
 11
202.7363822082
 21
207.375105754
 31
0.0
  0
LINE
  5
590
330
1F
100
AcDbEntity
  8
0
  6
Continuous
 62
     7
370
    15
100
AcDbLine
 10
58.5697461555
 20
173.3032670476
 30
0.0
 11
201.9421464161
 21
208.8835922105
 31
0.0
  0
LINE
  5
591
330
1F
100
AcDbEntity
  8
0
  6
Continuous
 62
     7
370
    15
100
AcDbLine
 10
59.7104286702
 20
169.1166288507
 30
0.0
 11
203.0828289308
 21
204.6969540136
 31
0.0
  0
ARC
  5
592
330
1F
100
AcDbEntity
  8
0
  6
Continuous
 62
     7
370
    15
100
AcDbCircle
 10
201.1472968648
 20
203.6240048915
 30
0.0
 40
2.213030545919749
100
AcDbArc
 50
352.9138026629
 51
29.0014985505
  0
LINE
  5
593
330
1F
100
AcDbEntity
  8
0
  6
Continuous
 62
     7
370
    15
100
AcDbLine
 10
202.4525480093
 20
205.8940421368
 30
0.0
 11
203.0828289308
 21
204.6969540136
 31
0.0
  0
LINE
  5
594
330
1F
100
AcDbEntity
  8
0
  6
Continuous
 62
     7
370
    15
100
AcDbLine
 10
58.916192878
 20
170.6251153072
 30
0.0
 11
59.4227254608
 21
170.750820073
 31
0.0
  0
ARC
  5
595
330
1F
100
AcDbEntity
  8
0
  6
Continuous
 62
     7
370
    15
100
AcDbCircle
 10
201.091232369
 20
218.1622888071
 30
0.0
 40
1.332640697012444
100
AcDbArc
 50
187.8806850951
 51
195.9432010103
  0
LINE
  5
596
330
1F
100
AcDbEntity
  8
0
  6
Continuous
 62
     7
370
    15
100
AcDbLine
 10
60.0568753928
 20
166.4384771103
 30
0.0
 11
203.4292756534
 21
202.0188022732
 31
0.0
  0
ARC
  5
597
330
1F
100
AcDbEntity
  8
0
  6
Continuous
 62
     7
370
    15
100
AcDbCircle
 10
201.4937435873
 20
200.9458531511
 30
0.0
 40
2.213030545917877
100
AcDbArc
 50
352.9138026629
 51
29.0014985505
  0
LINE
  5
598
330
1F
100
AcDbEntity
  8
0
  6
Continuous
 62
     7
370
    15
100
AcDbLine
 10
202.7989947319
 20
203.2158903963
 30
0.0
 11
203.4292756534
 21
202.0188022732
 31
0.0
  0
LINE
  5
599
330
1F
100
AcDbEntity
  8
0
  6
Continuous
 62
     7
370
    15
100
AcDbLine
 10
59.2626396006
 20
167.9469635667
 30
0.0
 11
59.7691721833
 21
168.0726683326
 31
0.0
  0
LINE
  5
59A
330
1F
100
AcDbEntity
  8
0
  6
Continuous
 62
     7
370
    15
100
AcDbLine
 10
60.3213017647
 20
163.407383096
 30
0.0
 11
203.6937020253
 21
198.9877082589
 31
0.0
  0
ARC
  5
59B
330
1F
100
AcDbEntity
  8
0
  6
Continuous
 62
     7
370
    15
100
AcDbCircle
 10
197.2973439512
 20
196.1014133207
 30
0.0
 40
7.017413703185767
100
AcDbArc
 50
351.4936485649
 51
24.2868177163
  0
LINE
  5
59C
330
1F
100
AcDbEntity
  8
0
  6
Continuous
 62
     7
370
    15
100
AcDbLine
 10
41.5959864634
 20
222.9749187471
 30
0.0
 11
184.968386724
 21
258.55524391
 31
0.0
  0
ARC
  5
59D
330
1F
100
AcDbEntity
  8
0
  6
Continuous
 62
     7
370
    15
100
AcDbCircle
 10
183.3652728917
 20
257.5137579102
 30
0.0
 40
1.91171834930219
100
AcDbArc
 50
349.8496734592
 51
33.0103484568
  0
LINE
  5
59E
330
1F
100
AcDbEntity
  8
0
  6
Continuous
 62
     7
370
    15
100
AcDbLine
 10
40.4382431412
 20
225.1714274516
 30
0.0
 11
183.8106434018
 21
260.7517526145
 31
0.0
  0
ARC
  5
59F
330
1F
100
AcDbEntity
  8
0
  6
Continuous
 62
     7
370
    15
100
AcDbCircle
 10
208.7429799738
 20
272.4898058601
 30
0.0
 40
27.55727310414357
100
AcDbArc
 50
205.21088544
 51
210.3750569108
  0
LWPOLYLINE
  5
5A0
330
1F
100
AcDbEntity
  8
0
  6
Continuous
 62
     7
370
    15
100
AcDbPolyline
 90
        5
 70
   128
 43
0.0
 10
183.5328174934
 20
261.0938732964
 10
183.552704505
 20
261.0948393847
 10
183.6258418113
 20
261.0497783833
 10
183.7130685593
 20
260.9337575996
 10
183.8106434018
 20
260.7517526145
  0
LINE
  5
5A1
330
1F
100
AcDbEntity
  8
0
  6
Continuous
 62
     7
370
    15
100
AcDbLine
 10
39.4597422133
 20
226.5680054493
 30
0.0
 11
182.8321424739
 21
262.1483306122
 31
0.0
  0
ARC
  5
5A2
330
1F
100
AcDbEntity
  8
0
  6
Continuous
 62
     7
370
    15
100
AcDbCircle
 10
181.0328792701
 20
262.1513001968
 30
0.0
 40
1.799265654292443
100
AcDbArc
 50
359.9054365657
 51
38.1208549041
  0
LINE
  5
5A3
330
1F
100
AcDbEntity
  8
0
  6
Continuous
 62
     7
370
    15
100
AcDbLine
 10
182.9860988953
 20
260.9581947815
 30
0.0
 11
182.8321424739
 21
262.1483306122
 31
0.0
  0
LINE
  5
5A4
330
1F
100
AcDbEntity
  8
0
  6
Continuous
 62
   216
370
    15
100
AcDbLine
 10
205.1287654841
 20
199.3438439196
 30
0.0
 11
203.6937020253
 21
198.9877082589
 31
0.0
  0
LINE
  5
5A5
330
1F
100
AcDbEntity
  8
0
  6
Continuous
 62
   216
370
    15
100
AcDbLine
 10
60.3213017647
 20
163.407383096
 30
0.0
 11
59.2573566693
 21
163.1433468353
 31
0.0
  0
LINE
  5
5A6
330
1F
100
AcDbEntity
  8
0
  6
Continuous
 62
   216
370
    15
100
AcDbLine
 10
57.6491281062
 20
161.0099705565
 30
0.0
 11
57.6418004839
 21
161.0081520811
 31
0.0
  0
LINE
  5
5A7
330
1F
100
AcDbEntity
  8
0
  6
Continuous
 62
   216
370
    15
100
AcDbLine
 10
57.3825473458
 20
162.0625310507
 30
0.0
 11
57.3655113368
 21
162.0583032723
 31
0.0
  0
LINE
  5
5A8
330
1F
100
AcDbEntity
  8
0
  6
Continuous
 62
   216
370
    15
100
AcDbLine
 10
57.6487015301
 20
160.6936971159
 30
0.0
 11
57.5936730826
 21
160.6800408609
 31
0.0
  0
LINE
  5
5A9
330
1F
100
AcDbEntity
  8
0
  6
Continuous
 62
   216
370
    15
100
AcDbLine
 10
57.2525222582
 20
162.2148370892
 30
0.0
 11
57.193715951
 21
162.2002432934
 31
0.0
  0
LINE
  5
5AA
330
1F
100
AcDbEntity
  8
0
  6
Continuous
 62
   216
370
    15
100
AcDbLine
 10
57.6303868033
 20
161.1975627203
 30
0.0
 11
57.3703845167
 21
161.1330386844
 31
0.0
  0
LINE
  5
5AB
330
1F
100
AcDbEntity
  8
0
  6
Continuous
 62
   216
370
    15
100
AcDbLine
 10
57.4872735579
 20
161.6627880879
 30
0.0
 11
57.246716557
 21
161.6030897338
 31
0.0
  0
LINE
  5
5AC
330
1F
100
AcDbEntity
  8
0
  6
Continuous
 62
   216
370
    15
100
AcDbLine
 10
37.5910502602
 20
222.1047436608
 30
0.0
 11
37.5837226379
 21
222.1029251854
 31
0.0
  0
LINE
  5
5AD
330
1F
100
AcDbEntity
  8
0
  6
Continuous
 62
   216
370
    15
100
AcDbLine
 10
37.3244696984
 20
223.15730262
 30
0.0
 11
37.3074336894
 21
223.1530748416
 31
0.0
  0
LINE
  5
5AE
330
1F
100
AcDbEntity
  8
0
  6
Continuous
 62
   216
370
    15
100
AcDbLine
 10
37.5906239324
 20
221.7884683015
 30
0.0
 11
37.5355954849
 21
221.7748120465
 31
0.0
  0
LINE
  5
5AF
330
1F
100
AcDbEntity
  8
0
  6
Continuous
 62
   216
370
    15
100
AcDbLine
 10
37.194444313
 20
223.3096109609
 30
0.0
 11
37.1356380058
 21
223.2950171651
 31
0.0
  0
LINE
  5
5B0
330
1F
100
AcDbEntity
  8
0
  6
Continuous
 62
   216
370
    15
100
AcDbLine
 10
37.5723086515
 20
222.2923352477
 30
0.0
 11
37.3123063649
 21
222.2278112118
 31
0.0
  0
LINE
  5
5B1
330
1F
100
AcDbEntity
  8
0
  6
Continuous
 62
   216
370
    15
100
AcDbLine
 10
37.4291952324
 20
222.7575619584
 30
0.0
 11
37.1886382314
 21
222.6978636043
 31
0.0
  0
LINE
  5
5B2
330
1F
100
AcDbEntity
  8
0
  6
Continuous
 62
   216
370
    15
100
AcDbLine
 10
55.1099478582
 20
193.9335381152
 30
0.0
 11
55.1632513208
 21
193.9467662856
 31
0.0
  0
LINE
  5
5B3
330
1F
100
AcDbEntity
  8
0
  6
Continuous
 62
   216
370
    15
100
AcDbLine
 10
53.7049654492
 20
191.4996978268
 30
0.0
 11
53.6976378269
 21
191.4978793514
 31
0.0
  0
LINE
  5
5B4
330
1F
100
AcDbEntity
  8
0
  6
Continuous
 62
   216
370
    15
100
AcDbLine
 10
53.4383848873
 20
192.552256786
 30
0.0
 11
53.4213488783
 21
192.5480290076
 31
0.0
  0
LINE
  5
5B5
330
1F
100
AcDbEntity
  8
0
  6
Continuous
 62
   216
370
    15
100
AcDbLine
 10
53.7045391213
 20
191.1834224675
 30
0.0
 11
53.6495106738
 21
191.1697662125
 31
0.0
  0
LINE
  5
5B6
330
1F
100
AcDbEntity
  8
0
  6
Continuous
 62
   216
370
    15
100
AcDbLine
 10
53.308359502
 20
192.7045651269
 30
0.0
 11
53.2495531947
 21
192.6899713311
 31
0.0
  0
LINE
  5
5B7
330
1F
100
AcDbEntity
  8
0
  6
Continuous
 62
   216
370
    15
100
AcDbLine
 10
53.6862243448
 20
191.6872884556
 30
0.0
 11
53.4262220583
 21
191.6227644197
 31
0.0
  0
LINE
  5
5B8
330
1F
100
AcDbEntity
  8
0
  6
Continuous
 62
   216
370
    15
100
AcDbLine
 10
53.5431109258
 20
192.1525151663
 30
0.0
 11
53.3025539248
 21
192.0928168122
 31
0.0
  0
LINE
  5
5B9
330
1F
100
AcDbEntity
  8
0
  6
Continuous
 62
   216
370
    15
100
AcDbLine
 10
41.6732616792
 20
207.2451258955
 30
0.0
 11
41.4379936818
 21
207.1867400986
 31
0.0
  0
LINE
  5
5BA
330
1F
100
AcDbEntity
  8
0
  6
Continuous
 62
   216
370
    15
100
AcDbLine
 10
45.551256622
 20
187.5536224002
 30
0.0
 11
45.4013397426
 21
187.5164179501
 31
0.0
  0
LINE
  5
5BB
330
1F
100
AcDbEntity
  8
0
  6
Continuous
 62
   216
370
    15
100
AcDbLine
 10
37.6805478664
 20
203.2880197527
 30
0.0
 11
37.4647679229
 21
203.2344702513
 31
0.0
  0
LINE
  5
5BC
330
1F
100
AcDbEntity
  8
0
  6
Continuous
 62
   216
370
    15
100
AcDbLine
 10
38.0866901797
 20
200.1484006643
 30
0.0
 11
37.8709102362
 21
200.0948511629
 31
0.0
  0
LINE
  5
5BD
330
1F
100
AcDbEntity
  8
0
  6
Continuous
 62
   216
370
    15
100
AcDbLine
 10
38.4928322944
 20
197.0087831108
 30
0.0
 11
38.2770523509
 21
196.9552336094
 31
0.0
  0
LINE
  5
5BE
330
1F
100
AcDbEntity
  8
0
  6
Continuous
 62
   216
370
    15
100
AcDbLine
 10
38.8989744092
 20
193.8691655573
 30
0.0
 11
38.6831944657
 21
193.8156160559
 31
0.0
  0
LINE
  5
5BF
330
1F
100
AcDbEntity
  8
0
  6
Continuous
 62
   216
370
    15
100
AcDbLine
 10
39.3051165239
 20
190.7295480038
 30
0.0
 11
39.0893365804
 21
190.6759985023
 31
0.0
  0
LINE
  5
5C0
330
1F
100
AcDbEntity
  8
0
  6
Continuous
 62
   216
370
    15
100
AcDbLine
 10
55.8156674307
 20
194.8817264486
 30
0.0
 11
56.2485246205
 21
194.9891473994
 31
0.0
  0
LINE
  5
5C1
330
1F
100
AcDbEntity
  8
0
  6
Continuous
 62
   216
370
    15
100
AcDbLine
 10
55.9028692736
 20
193.7470340781
 30
0.0
 11
56.0670849957
 21
193.7877870318
 31
0.0
  0
LINE
  5
5C2
330
1F
100
AcDbEntity
  8
0
  6
Continuous
 62
   216
370
    15
100
AcDbLine
 10
55.8787403613
 20
194.3941511079
 30
0.0
 11
56.2745887817
 21
194.4923876965
 31
0.0
  0
LINE
  5
5C3
330
1F
100
AcDbEntity
  8
0
  6
Continuous
 62
   216
370
    15
100
AcDbLine
 10
56.1596408427
 20
191.074985953
 30
0.0
 11
56.1747095134
 21
191.0787255026
 31
0.0
  0
LINE
  5
5C4
330
1F
100
AcDbEntity
  8
0
  6
Continuous
 62
   216
370
    15
100
AcDbLine
 10
55.8033821058
 20
189.8436602127
 30
0.0
 11
56.713047963
 21
190.069409429
 31
0.0
  0
LINE
  5
5C5
330
1F
100
AcDbEntity
  8
0
  6
Continuous
 62
   216
370
    15
100
AcDbLine
 10
55.816893937
 20
189.7392508316
 30
0.0
 11
56.7632264179
 21
189.9740995006
 31
0.0
  0
LINE
  5
5C6
330
1F
100
AcDbEntity
  8
0
  6
Continuous
 62
   216
370
    15
100
AcDbLine
 10
58.0414915328
 20
176.5276360351
 30
0.0
 11
58.5811980009
 21
176.6615734707
 31
0.0
  0
LINE
  5
5C7
330
1F
100
AcDbEntity
  8
0
  6
Continuous
 62
   216
370
    15
100
AcDbLine
 10
58.7200633724
 20
175.1933142565
 30
0.0
 11
58.7661675173
 21
175.2047557924
 31
0.0
  0
LINE
  5
5C8
330
1F
100
AcDbEntity
  8
0
  6
Continuous
 62
   216
370
    15
100
AcDbLine
 10
58.0971720728
 20
176.3763673227
 30
0.0
 11
58.601879878
 21
176.5016192386
 31
0.0
  0
LINE
  5
5C9
330
1F
100
AcDbEntity
  8
0
  6
Continuous
 62
   216
370
    15
100
AcDbLine
 10
59.5958497912
 20
165.5685322801
 30
0.0
 11
59.9745196418
 21
165.6625057115
 31
0.0
  0
LINE
  5
5CA
330
1F
100
AcDbEntity
  8
0
  6
Continuous
 62
   216
370
    15
100
AcDbLine
 10
59.5389175935
 20
165.811240122
 30
0.0
 11
59.8549177407
 21
165.8896609894
 31
0.0
  0
LINE
  5
5CB
330
1F
100
AcDbEntity
  8
0
  6
Continuous
 62
   216
370
    15
100
AcDbLine
 10
40.579340442
 20
223.9598215433
 30
0.0
 11
40.5842302755
 21
223.9610350395
 31
0.0
  0
ENDSEC
  0
SECTION
  2
OBJECTS
  0
DICTIONARY
  5
C
330
0
100
AcDbDictionary
281
     1
  3
ACAD_GROUP
350
D
  3
ACAD_LAYOUT
350
1A
  3
ACAD_MLINESTYLE
350
17
  3
ACAD_PLOTSETTINGS
350
19
  3
ACAD_PLOTSTYLENAME
350
E
  0
DICTIONARY
  5
D
102
{ACAD_REACTORS
330
C
102
}
330
C
100
AcDbDictionary
281
     1
  0
DICTIONARY
  5
1A
102
{ACAD_REACTORS
330
C
102
}
330
C
100
AcDbDictionary
281
     1
  3
Layout1
350
1E
  3
Layout2
350
26
  3
Model
350
22
  0
DICTIONARY
  5
17
102
{ACAD_REACTORS
330
C
102
}
330
C
100
AcDbDictionary
281
     1
  3
Standard
350
18
  0
DICTIONARY
  5
19
102
{ACAD_REACTORS
330
C
102
}
330
C
100
AcDbDictionary
281
     1
  0
ACDBDICTIONARYWDFLT
  5
E
102
{ACAD_REACTORS
330
C
102
}
330
C
100
AcDbDictionary
281
     1
  3
Normal
350
F
100
AcDbDictionaryWithDefault
340
F
  0
LAYOUT
  5
1E
102
{ACAD_REACTORS
330
1A
102
}
330
1A
100
AcDbPlotSettings
  1

  2
none_device
  4

  6

 40
0.0
 41
0.0
 42
0.0
 43
0.0
 44
0.0
 45
0.0
 46
0.0
 47
0.0
 48
0.0
 49
0.0
140
0.0
141
0.0
142
1.0
143
1.0
 70
   688
 72
     0
 73
     0
 74
     5
  7

 75
    16
147
1.0
148
0.0
149
0.0
100
AcDbLayout
  1
Layout1
 70
     1
 71
     1
 10
0.0
 20
0.0
 11
420.0
 21
297.0
 12
0.0
 22
0.0
 32
0.0
 14
1.0000000000E+20
 24
1.0000000000E+20
 34
1.0000000000E+20
 15
-1.0000000000E+20
 25
-1.0000000000E+20
 35
-1.0000000000E+20
146
0.0
 13
0.0
 23
0.0
 33
0.0
 16
1.0
 26
0.0
 36
0.0
 17
0.0
 27
1.0
 37
0.0
 76
     0
330
1B
  0
LAYOUT
  5
26
102
{ACAD_REACTORS
330
1A
102
}
330
1A
100
AcDbPlotSettings
  1

  2
none_device
  4

  6

 40
0.0
 41
0.0
 42
0.0
 43
0.0
 44
0.0
 45
0.0
 46
0.0
 47
0.0
 48
0.0
 49
0.0
140
0.0
141
0.0
142
1.0
143
1.0
 70
   688
 72
     0
 73
     0
 74
     5
  7

 75
    16
147
1.0
148
0.0
149
0.0
100
AcDbLayout
  1
Layout2
 70
     1
 71
     2
 10
0.0
 20
0.0
 11
0.0
 21
0.0
 12
0.0
 22
0.0
 32
0.0
 14
0.0
 24
0.0
 34
0.0
 15
0.0
 25
0.0
 35
0.0
146
0.0
 13
0.0
 23
0.0
 33
0.0
 16
1.0
 26
0.0
 36
0.0
 17
0.0
 27
1.0
 37
0.0
 76
     0
330
23
  0
LAYOUT
  5
22
102
{ACAD_REACTORS
330
1A
102
}
330
1A
100
AcDbPlotSettings
  1

  2
none_device
  4

  6

 40
0.0
 41
0.0
 42
0.0
 43
0.0
 44
0.0
 45
0.0
 46
0.0
 47
0.0
 48
0.0
 49
0.0
140
0.0
141
0.0
142
1.0
143
1.0
 70
  1712
 72
     0
 73
     0
 74
     0
  7

 75
     0
147
1.0
148
0.0
149
0.0
100
AcDbLayout
  1
Model
 70
     1
 71
     0
 10
0.0
 20
0.0
 11
431.8
 21
279.4
 12
0.0
 22
0.0
 32
0.0
 14
0.0
 24
0.0
 34
0.0
 15
431.8
 25
279.4
 35
0.0
146
0.0
 13
0.0
 23
0.0
 33
0.0
 16
1.0
 26
0.0
 36
0.0
 17
0.0
 27
1.0
 37
0.0
 76
     0
330
1F
331
29
  0
MLINESTYLE
  5
18
102
{ACAD_REACTORS
330
17
102
}
330
17
100
AcDbMlineStyle
  2
Standard
 70
     0
  3

 62
   256
 51
90.0
 52
90.0
 71
     2
 49
0.5
 62
   256
  6
BYLAYER
 49
-0.5
 62
   256
  6
BYLAYER
  0
ACDBPLACEHOLDER
  5
F
102
{ACAD_REACTORS
330
E
102
}
330
E
  0
ENDSEC
  0
EOF
